#TITLE:BOYS (EURO MIX);
#ARTIST:SMILE.dk;
#BANNER:BOYS (EURO MIX).png;
#BACKGROUND:BOYS (EURO MIX)-bg.png;
#JACKET:BOYS (EURO MIX)-jacket.png;
#MUSIC:BOYS (EURO MIX).ogg;
#SAMPLESTART:13.908;
#SAMPLELENGTH:20;
#DISPLAYBPM:155;
#BPMS:0=155.307,91=155.871,92=155.314;
#BGCHANGES:;

//---------------dance-single - ----------------
#NOTES:
     dance-single:
     :
     Beginner:
     3:
     :
0000
0000
0000
0000
,
0000
0000
0000
0000
,
0000
0000
0000
0000
,
0000
0000
0000
0000
,
0000
0000
0000
0000
,
0010
0010
0000
0000
,
1000
1000
0000
0000
,
0001
0001
0000
0000
,
0200
0000
0300
0000
,
0010
0010
0010
0000
,
1000
0000
0001
0000
,
1000
1000
1000
0000
,
0100
0000
0010
0000
,
0001
0001
0001
0000
,
0100
0000
0010
0000
,
0110
0000
0000
0000
,
1000
1000
1000
0000
,
0001
0000
0001
0000
,
1000
0000
1000
0000
,
0010
0000
0010
0000
,
1000
0000
0100
0000
,
1000
0000
1000
0000
,
0001
0000
0001
0000
,
0010
0000
0010
0000
,
0001
0001
0001
0000
,
0000
0000
0100
0000
,
0010
0010
0010
0000
,
0000
0000
1000
0000
,
0002
0000
0000
0003
,
0000
0000
0010
0000
,
0001
0001
0001
0000
,
0000
0000
0100
0000
,
0020
0000
0030
0000
,
1000
0000
0001
0000
,
0100
0100
0100
0000
,
0010
0000
1000
0000
,
0001
0000
0100
0000
,
0001
0001
0001
0000
,
0010
0000
0100
0000
,
1000
1000
1000
0000
,
0010
0000
1000
0000
,
0001
0001
0001
0000
,
0010
0000
0001
0000
,
1001
0000
0000
0000
,
0010
0010
0010
0000
,
1000
0000
1000
0000
,
0001
0000
0001
0000
,
0010
0000
0010
0000
,
0001
0000
0100
0000
,
0010
0000
0010
0000
,
0100
0000
0100
0000
,
0001
0000
1000
0000
,
0001
0000
0010
0000
,
0001
0000
0100
0000
,
0010
0000
1000
0000
,
0100
0000
1000
0000
,
0001
0000
0010
0000
,
0001
0000
0100
0000
,
1000
0000
1000
0000
,
1000
0000
0010
0000
,
0100
0100
0100
0000
,
0010
0000
1000
0000
,
0002
0000
0000
0003
;

//---------------dance-single - ----------------
#NOTES:
     dance-single:
     :
     Easy:
     6:
     :
0000
0000
0000
0000
,
0000
0000
0000
0000
,
0000
0000
0000
0000
,
0000
0000
0000
0000
,
0000
0000
0000
0000
,
0100
0100
0001
0001
,
0100
0100
0001
0001
,
0100
0100
0001
0001
,
1000
0000
0000
1001
,
0100
0000
0100
0000
,
0001
1000
0010
0000
,
0100
0010
1000
0001
,
1000
0000
0001
0100
,
0010
0000
0010
0000
,
1000
0010
0100
0001
,
1000
0000
0000
0000
,
1000
0010
0100
1001
,
0010
0000
0010
1000
,
0001
0000
0001
1000
,
0010
0100
0001
1000
,
0001
0001
0001
0001
,
0100
0000
0100
0001
,
1000
0000
1000
0010
,
1000
0010
0100
0001
,
1000
0000
0000
0000
,
0001
0000
0001
1000
,
0010
1000
0001
0000
,
0100
0000
0100
0001
,
1000
0000
0010
0100
,
0001
0000
1000
0010
,
0100
0001
1000
0000
,
0010
0000
0100
0100
,
0001
0000
0001
0000
,
0010
0000
0010
0100
,
1000
0001
0100
0000
,
1000
0000
1000
0010
,
0100
0001
1000
0010
,
0100
0100
0001
1000
,
0010
0000
0010
1001
,
0100
0100
0010
1000
,
0001
0000
0001
0110
,
0100
0100
0001
1000
,
0001
0000
1000
0010
,
0100
0000
0100
0100
,
0100
0000
0001
1001
,
0010
0100
0010
0100
,
0001
1000
0001
0001
,
0100
0001
0100
0001
,
1000
0010
0100
0100
,
0001
0000
0010
0010
,
0100
0000
1000
1000
,
0010
1000
0001
0100
,
0010
0000
0010
1001
,
0100
0010
1000
0001
,
1000
0100
0010
0001
,
0100
0001
1000
0010
,
0100
0100
0100
0100
,
0001
0001
0001
1000
,
0010
0010
0010
0100
,
0001
0001
0100
0010
,
1000
1000
1000
0000
,
1001
0000
0000
0000
;

//---------------dance-single - ----------------
#NOTES:
     dance-single:
     :
     Medium:
     8:
     :
0000
0000
0000
0000
,
0000
0000
0000
0000
,
0000
0000
0000
0000
,
0000
0000
0000
0000
,
0000
0000
0000
0000
,
1000
1000
0001
0001
,
0010
0010
0100
0100
,
1000
0010
0100
0001
,
1000
0000
0000
0000
0001
0001
0001
0000
,
0100
0000
0100
0101
,
1100
0000
1000
0001
,
0100
0000
0001
1001
,
0110
0000
0100
0100
,
0001
1000
0010
0000
,
0011
1010
0100
0100
,
0001
0000
0000
0000
0001
1000
0001
1000
,
0000
0000
0001
1001
,
0000
0100
0010
0100
,
0001
1000
0010
0010
,
0100
0101
0100
1100
,
0010
0000
0010
0000
0100
0001
1000
0010
,
0000
0100
0001
1000
,
0010
0100
0001
0001
,
1000
1010
0001
0011
,
0100
0000
0100
0001
0000
1000
0000
0000
,
0010
0000
0010
0100
,
0001
0000
1000
0001
0100
0000
0000
0000
,
1000
0000
1000
0001
0100
0000
0000
0000
,
0010
0100
0001
0001
,
1000
0000
0000
0000
1000
0000
1000
0001
,
0100
0010
0100
0000
0001
0000
0000
0000
,
0100
0000
0100
0000
,
0001
0000
1000
1000
,
0010
0000
0010
1000
,
0001
0000
0000
0100
0000
0000
0010
0000
0000
0000
0000
0000
0000
0000
0000
0000
,
1000
0010
1000
0001
,
0100
0100
1001
1001
,
0100
0000
0100
0101
,
1100
0000
1000
0001
,
0100
0000
0001
1001
,
0110
0000
0100
0100
,
0001
1000
0010
0000
,
0011
1010
0100
0100
,
0001
0000
0000
0000
0001
1000
0001
1000
,
0000
0000
0001
1001
,
0010
0100
0001
1000
,
1000
0010
0100
0001
,
1000
0000
0010
0000
0100
0001
0100
0000
,
1001
0110
0110
1001
,
0100
0000
0100
0000
0100
0010
1000
0001
,
0100
0000
0100
0000
0100
0001
1000
0010
,
0100
0101
0100
1100
,
1001
1001
1001
1001
,
0010
0000
0100
0001
1000
0000
1000
0000
,
0001
0000
1000
0010
0100
0000
0100
0000
,
0001
0101
1000
1100
,
1001
0110
0110
1001
,
0010
0000
0000
0000
1000
0100
0010
0010
,
0001
0000
0000
0000
0100
0010
0100
0001
,
1000
0000
0000
0000
1000
1000
0010
0100
,
0001
0001
1001
1001
;

//---------------dance-single - ----------------
#NOTES:
     dance-single:
     :
     Hard:
     12:
     :
0000
0000
0000
0000
,
0000
0000
0000
0000
,
0000
0000
0000
0000
,
0000
0000
0000
0000
,
0000
0000
0000
0000
,
1000
0100
0000
1000
0100
0000
0010
0000
0000
0000
0010
0000
0010
0000
0010
0000
,
0001
1000
0000
0001
1000
0000
0100
0000
0000
0000
0100
0000
0100
0000
0100
0000
,
0010
0001
0000
0010
0001
0000
1000
0000
0000
0000
1000
0000
1000
0000
1000
0000
,
0010
0000
1000
1001
,
0010
0000
0100
0000
0001
1000
0010
0100
,
0000
0000
0100
0100
,
0001
0000
1000
0000
0010
0100
0001
1000
,
0000
0000
1000
1000
,
0001
0100
1000
0100
,
0001
0000
0001
0000
0001
1000
0010
0100
,
0001
0000
1000
0000
1000
0010
0100
0001
,
0000
0100
0100
1001
,
0100
0010
1000
0010
0100
0001
0100
0001
,
1000
0010
0100
0010
1000
0100
1000
0001
,
0100
0010
1000
0010
0100
0001
0100
0001
,
1000
0000
0000
1000
0000
0000
1000
0000
0000
0010
0000
0000
0010
0000
0010
0000
,
0100
0010
1000
0010
0100
0001
0100
0001
,
1000
0010
0100
0010
1000
0100
1000
0001
,
0100
0010
1000
0010
0100
0001
0100
0001
,
0010
0100
0000
0010
0100
0000
0001
0000
0000
0000
1000
0000
0000
0000
0000
0000
,
0100
0000
0001
1000
0001
0000
1000
0010
,
0010
0100
0001
1000
0001
0000
0000
0000
,
0100
0000
0100
0010
1000
0001
0100
0000
,
0001
0100
0000
0000
,
1000
0000
0001
1000
0010
0000
0100
0001
,
0001
0100
0010
0100
0010
0000
0000
0000
,
1000
0000
0000
0000
0010
1000
0010
0000
,
0100
0100
0000
0000
,
0100
1000
0100
0001
0100
1000
0100
0001
,
0010
1000
0010
0001
0010
1000
0010
0001
,
0100
1000
0100
0001
0100
1000
0100
0001
,
0010
1000
0010
0001
0010
1000
0010
0000
,
0010
0000
0100
0000
0001
1000
0010
0100
,
0000
0000
0100
0100
,
0001
0000
1000
0000
0010
0100
0001
1000
,
0000
0000
1000
1000
,
0001
0100
1000
0100
,
0001
0000
0001
0000
0001
1000
0010
0100
,
0001
0000
1000
0000
1000
0010
0100
0100
,
0001
0000
0100
0010
0100
0000
1001
0000
,
0010
0000
0100
0001
1000
0001
1000
0010
,
0000
0000
0000
0000
0100
0100
0100
0100
,
0001
0000
1000
0000
0010
0100
0001
1000
,
0001
0000
0000
0001
0000
0000
0001
0000
0000
1000
0000
0000
1000
0000
1000
0000
,
0001
0100
1000
0100
,
0001
0000
0001
0000
0001
1000
0010
0100
,
0001
0000
1000
0000
1000
0010
0100
0000
,
0001
1000
0000
0001
1000
0000
0000
0000
0000
0000
1001
0000
0000
0000
1001
0000
,
0010
0100
0010
0001
1000
0010
0100
0001
,
1000
0001
0100
0010
1000
0001
0100
0010
,
1000
0000
1000
0000
0010
0100
0001
1000
,
1001
0000
0110
0000
1001
1001
1001
0000
,
0100
1000
0100
0001
1000
0010
1000
0100
,
0010
1000
0010
0001
1000
0010
0100
0001
,
1000
0100
0010
0001
1000
0100
0010
0001
,
1000
0100
0000
1000
0100
0000
1000
0000
0000
0000
0001
0000
0000
0000
0000
0000
,
0100
0000
0000
0000
;

//---------------dance-single - ----------------
#NOTES:
     dance-single:
     :
     Challenge:
     16:
     :
0000
0000
0000
0000
,
0000
0000
0000
0000
,
0000
0000
0000
0000
,
0000
0000
0000
0000
,
0000
0000
0000
0000
,
0010
1000
0000
1000
0100
0000
0010
0000
0000
0000
0001
0000
0001
0000
0001
0000
,
0100
0010
0000
0010
1000
0000
0001
0000
0000
0000
1000
0000
1000
0000
1000
0000
,
0100
0010
0000
0010
0001
0000
1000
0000
0000
0000
0010
0000
0010
0000
0010
0000
,
1000
0100
0000
0100
0010
0000
0001
0100
0000
0100
0010
0000
1000
0000
0001
0000
,
0010
0001
0100
0001
1000
1000
0010
0101
,
0000
0000
0010
0000
0010
0000
0001
0100
0000
0010
1000
0000
0001
0000
1000
0000
,
0100
0010
0100
1000
0001
0100
0010
1010
,
0000
0000
1000
0000
1000
0000
0100
0010
0000
0001
1000
0000
0001
0000
0100
0000
,
0010
1000
0001
1000
0100
0100
0010
0011
,
0000
0000
0001
0000
0001
0000
0010
0100
0000
1000
0001
0000
0100
0000
0010
0000
,
1000
0000
0100
0000
0001
0000
0100
0000
1000
0000
0010
0100
0001
0000
1010
0000
,
0000
0002
0203
0320
2000
0000
3030
0000
,
0001
0100
0010
0100
0001
0000
0010
0100
1000
0100
0010
0000
0001
0000
1000
0000
,
0010
1000
0100
1000
0010
0000
0100
0001
1000
0001
0010
0000
0100
0000
1000
0000
,
0001
1000
0100
0010
0100
0000
1000
0001
0010
0001
0100
0000
0010
0000
1000
0000
,
0100
0010
0000
0010
0001
0000
1000
0010
0000
0010
0100
0001
1000
0000
0010
0000
,
0100
0001
0010
0100
0010
0000
0001
1000
0100
1000
0100
0000
0010
0000
0001
0000
,
1000
0010
0100
0001
0010
0000
0100
0010
0001
0010
0100
0000
1000
0000
0010
0000
,
0100
0001
0010
0100
1000
0000
0010
0100
0010
0100
0010
0000
1000
0000
0001
0000
,
1000
0100
0000
0001
0010
0000
1001
0000
0000
0000
0110
0000
0000
0000
0000
0000
,
1001
0000
0010
0000
1000
0000
0100
1000
0001
0000
0000
0000
0001
0000
0100
0000
,
0010
0000
0001
0000
0010
0000
1000
0100
0010
0001
0200
0000
0000
0000
0010
0000
,
0310
0000
1000
0000
0100
0000
1000
0010
0000
0100
0001
0000
0010
0000
0100
0000
,
1000
0000
0010
0000
0100
0000
0001
0010
0001
0000
0000
1000
0000
0000
0010
0100
,
0010
0000
1000
0000
0100
0000
1000
0001
0010
0000
0000
0000
0100
0000
1000
0000
,
0010
0000
0100
0000
1000
0000
0100
0001
0010
0001
2000
0000
0000
0000
0100
0000
,
3100
0000
0010
0000
0100
0000
1000
0001
0000
0001
0010
0000
0100
0000
1000
0000
,
0001
0000
0100
0000
0010
0000
1000
0100
1000
0001
0000
0010
0001
0000
0100
0010
,
1000
0000
0001
0000
0001
0000
0010
0001
0000
0100
0010
0000
1000
0000
1000
0000
,
1100
0000
0000
0101
0000
0000
1100
0000
0000
0000
0010
0000
0100
0000
0001
0000
,
1000
0000
0100
0000
0100
0000
0010
0001
0000
1000
0001
0000
0100
0000
0010
0000
,
1000
0000
0001
0000
0001
0100
0000
0010
0000
1000
0001
0000
1000
0000
0100
0000
,
0010
0001
0100
0010
1000
1000
0100
0011
,
0000
0000
0100
0000
0100
0000
1000
0010
0000
0100
0001
0000
0010
0000
0100
0000
,
1000
0010
0001
0010
0100
0100
0010
1010
,
0000
0000
0100
0000
0100
0000
0010
0100
0000
1000
0001
0000
1000
0000
0010
0000
,
0100
1000
0100
0010
1000
1000
0001
0101
,
0000
0000
0010
0000
0010
0000
0100
1000
0000
0001
0010
0000
0001
0000
0100
0000
,
1000
0000
0010
0000
1000
0001
0100
0000
0010
1000
0100
0010
0001
1000
0100
0000
,
0000
0020
0032
0203
2000
0000
3300
0000
,
0100
0001
0010
0001
0100
0000
0010
1000
0100
1000
0010
0000
1000
0000
0001
0000
,
0010
0100
0010
0001
1000
0000
0010
1000
0010
0100
0001
0000
1000
0000
0100
0000
,
1000
0010
0100
0010
1000
0000
0001
0100
0010
0100
0001
0000
1000
0000
0100
0000
,
0010
0001
0000
0001
0100
0000
0010
1000
0000
1000
0100
0010
0001
0000
1000
0000
,
0100
0010
0001
0100
0001
0000
1000
0100
0010
0001
1000
0000
0010
0000
0100
0000
,
0010
1000
0001
1000
0100
0000
0010
0001
1000
0001
0100
0000
0010
0000
1000
0000
,
0001
0010
0100
0010
0001
0000
1000
0100
0010
0100
1000
0000
0001
0000
1000
0000
,
0001
0100
0001
1000
0100
1000
0001
0100
0001
1000
0100
1000
0001
0100
0010
0000
,
1000
0100
0001
0100
1000
0000
0010
0100
0001
1000
0100
0000
0010
0001
1000
0000
,
0010
1000
0100
0010
0001
0000
1000
0100
0001
0100
1000
0000
0010
0100
0001
0000
,
1000
0010
0001
0010
1000
0000
0100
0001
0100
1000
0010
0000
0100
0001
1000
0000
,
0001
0010
0000
0010
1000
0000
0100
0010
0000
0010
0001
0100
0010
1000
0001
0000
,
1000
0100
0001
0100
1000
0000
0010
0100
0001
0010
0100
0000
1000
0001
0100
0000
,
0010
1000
0001
0010
0001
0000
0100
0010
0100
1000
0100
0000
0001
1000
0010
0000
,
1000
0100
0010
0001
0010
0000
0100
0001
0100
1000
0100
0000
0010
0001
1000
0000
,
0001
0100
0000
0010
1000
0000
1001
0000
0000
0000
0110
0000
0000
0000
0000
0000
,
2001
0000
0010
0000
0001
0001
0000
0200
,
0000
0000
0000
3300
;

//---------------dance-double - ----------------
#NOTES:
     dance-double:
     :
     Easy:
     6:
     :
00000000
00000000
00000000
00000000
,
00000000
00000000
00000000
00000000
,
00000000
00000000
00000000
00000000
,
00000000
00000000
00000000
00000000
,
00000000
00000000
00000000
00000000
,
01000000
00000000
00001000
00010000
,
00000010
00000000
00010000
00001000
,
01000000
00001000
00000000
00010000
,
00001000
00000000
00000000
00001001
,
00000100
00000100
00000001
00001000
,
00000010
00000000
00000000
00010000
,
01000000
01000000
00010000
10000000
,
00100000
00000000
00000000
00001000
,
00000010
00000100
00000001
00001000
,
00000010
00010000
00001000
01000000
,
00010000
00000000
00000000
00000000
,
10000000
00000000
00000000
00000000
,
00010000
00000000
00000010
00000000
,
00001000
00000000
00000001
00000001
,
00000100
00000000
00000010
00010000
,
00001000
00001000
01000000
00010000
,
10000000
00000000
00100000
00000000
,
01000000
00000000
00001000
00001000
,
00010000
00000010
00000000
00001000
,
00000001
00000100
00000010
00001000
,
00000100
00000000
00010000
00000100
,
00001000
00001000
00100000
00000000
,
01000000
00000000
01000000
00000000
,
10000000
00000000
00000000
00000000
,
00100000
00000000
00001000
00100000
,
00001000
00010000
00000100
00000000
,
00001000
00000000
00000010
00000000
,
00000001
00000000
00000100
00000100
,
00010000
00000000
00001000
01000000
,
00100000
10000000
00010000
00000000
,
01000000
00000000
01000000
00001000
,
00010000
00000010
00000100
00000001
,
00000100
00000100
00000001
00001000
,
00000010
00000000
00000000
00010000
,
01000000
01000000
00010000
10000000
,
00100000
00000000
00000000
00001000
,
00000010
00000100
00000001
00001000
,
00000010
00010000
00001000
01000000
,
00010000
00000000
00000000
00000000
,
10000000
00000000
00000000
00000000
,
00010000
00000000
00000010
00000000
,
00001000
00000000
00000001
00000001
,
00000100
00000000
00000010
00010000
,
00001000
00001000
01000000
00010000
,
10000000
00000000
00100000
00000000
,
01000000
00000000
00001000
00001000
,
00010000
00000010
00000000
00001000
,
00000001
00000100
00000010
00001000
,
00000001
00000000
00001000
01000000
,
10000000
00000000
00010000
00000100
,
00000010
00010000
01000000
00001000
,
00000100
00010000
00100000
00001000
,
00100000
00000000
00001000
00101000
,
00010000
00000000
00000100
00010100
,
00001000
00000010
00000100
00000001
,
00001000
00000100
00010000
00001000
,
00100000
00000000
00000000
00000000
;

//---------------dance-double - ----------------
#NOTES:
     dance-double:
     :
     Medium:
     8:
     :
00000000
00000000
00000000
00000000
,
00000000
00000000
00000000
00000000
,
00000000
00000000
00000000
00000000
,
00000000
00000000
00000000
00000000
,
00000000
00000000
00000000
00000000
,
10000000
10000000
00100000
00100000
,
01000000
01000000
00001000
00001000
,
00010000
00010000
00000010
00000010
,
00000100
00000000
00000001
00001001
,
00000100
00011000
00100000
00011000
,
01000000
00000000
00100000
00000000
10000000
00010000
01000000
00000000
,
00001000
00010010
00010000
01001000
,
00001000
00000000
00010000
00000000
00000010
00000100
00000001
00000000
,
00000100
00010000
00001000
00100000
,
01000000
00000000
00000000
00000000
10000000
00100000
01000000
00010000
,
10000000
00000000
00000000
00000000
00010000
00000000
01000000
00001000
,
00000000
00000000
00000100
00000010
,
00010000
00000010
00000100
00000001
,
00001000
00000000
00000100
00000000
00010000
00001000
00010000
00001000
,
00100000
00100000
00001000
00001000
,
00100000
00000000
10000000
00000000
00010000
01000000
00010000
01000000
,
00001000
00000000
00010000
00000010
,
00000100
00000000
00000001
00000000
00001000
00000010
00001000
00000010
,
00000100
00000100
00000010
00010000
,
01000000
01100000
00010000
10010000
,
00100000
00000000
00100000
00000000
00100000
00000000
00100000
00001000
,
00010000
00010000
00010000
00000000
,
00000010
00000000
00000010
00000010
00001000
00000000
00000001
00000000
,
00000100
00000000
00000100
00010100
,
01000000
00000000
01000000
00000000
01000000
00000000
01000000
00010000
,
00100000
00000000
00001000
00010000
00001000
00000000
00000000
00000000
,
00000000
00000010
00000100
00000010
00001000
00000000
00000001
00000000
,
00000100
00000000
00010000
00011000
,
01000000
00000000
01000000
00100000
10000000
00000000
10000000
00010000
,
00100000
00100000
00001000
00000000
,
00000110
00000000
00000101
00001100
,
00000010
00000000
00000010
00000000
00000010
00000001
00001000
00000100
,
00000010
00011000
01000000
00011000
,
00000100
00000000
00000010
00000000
00000001
00001000
00000100
00000000
,
00011000
00100000
00011000
00000100
,
00010000
00000000
00001000
00000000
00100000
01000000
10000000
00000000
,
01000000
00001000
00010000
00000010
,
00000100
00000000
00000000
00000000
00000001
00000010
00000100
00001000
,
00000001
00000000
00000000
00000000
00001000
00000000
00000100
00010000
,
00000000
00000000
01000000
00100000
,
00001000
00100000
01000000
10000000
,
00010000
00000000
01000000
00000000
00001000
00010000
00001000
00010000
,
00000010
00000010
00010000
00010000
,
00000010
00000000
00000001
00000000
00001000
00000100
00001000
00000100
,
00010000
00000000
00001000
00100000
,
01000000
00000000
10000000
00000000
00010000
00100000
00010000
00100000
,
01000000
01000000
00100000
00001000
,
00000100
00000110
00001000
00001001
,
00001000
00000000
00100000
00010000
01000000
10000000
00100000
00000000
,
10000000
00000000
01000000
00000000
00001000
00010000
00000010
00010000
,
00000100
00000100
00010100
00010100
,
00000010
00000000
00000001
00000000
00001000
00000100
00001000
00000100
,
00010000
00001000
01000000
00010000
,
01000000
00000000
10000000
00000000
00010000
00100000
00010000
00100000
,
01000000
01000000
00100000
00001000
,
00000100
00000101
00001000
00001100
,
00001001
00000000
00000000
00000000
;

//---------------dance-double - ----------------
#NOTES:
     dance-double:
     :
     Hard:
     11:
     :
00000000
00000000
00000000
00000000
,
00000000
00000000
00000000
00000000
,
00000000
00000000
00000000
00000000
,
00000000
00000000
00000000
00000000
,
00000000
00000000
00000000
00000000
,
01000000
00100000
01000000
00000000
10000000
00010000
10000000
00000000
,
00100000
00001000
00100000
00000000
00001000
00010000
00001000
00000000
,
00000010
00001000
00000010
00000000
00000100
00000001
00000100
00000000
,
00001000
00000010
00000100
00001001
,
00000010
00000000
00010000
00000000
00001000
00010000
00000000
00001000
,
00000000
00000000
01000000
01000000
,
00100000
00000000
00001000
00000000
00010000
00001000
00000000
00010000
,
00000000
00000000
00000010
00000010
,
00001000
00000000
00000100
00000000
00010000
00001000
00000000
01000000
,
00000000
00100000
10000000
00010000
,
01000000
00000000
00000000
00010000
00000000
10000000
00000000
00100000
,
00000000
00000000
00000000
10010000
,
01000000
00000000
00001000
00000000
00100000
00001000
00100000
00001000
,
00010000
00000000
00000010
00000000
00010000
00000100
00010000
00000100
,
00001000
00001100
00000001
00000101
,
00001000
00000000
00000000
00000001
00000000
00000000
00000100
00000000
00000010
00000000
00000000
00000000
00010000
00000000
00001000
00000000
,
00000100
00000000
00001000
00000000
00000010
00010000
00000010
00010000
,
00001000
00000000
01000000
00000000
00001000
00100000
00001000
00100000
,
00010000
10010000
10100000
01100000
,
00010000
10000000
00000000
00000000
00010000
10000000
00000000
00100000
00000000
00000000
01000000
00000000
00000000
00000000
00000000
00000000
,
00010000
00000000
00000000
00000000
00001000
00000000
00010000
00000100
,
00001000
00000000
00001000
00000001
00000100
00000000
00000000
00000000
,
00000010
00000000
00000000
00000000
00001000
00000100
00010000
00001000
,
01000000
00000000
00100000
10000000
,
00010000
00000000
00000000
00000000
01000000
00000000
00001000
00010000
,
00000010
00000000
00000100
00000001
00001000
00000000
00000000
00000000
,
00000100
00000000
00000100
00000010
00001000
00000001
00001000
00000000
,
00000010
00000000
00010000
00011000
,
00000000
01000000
00100000
01000000
00010000
00000000
10000000
00000000
,
00100000
00000000
00000000
00010000
00000000
00000000
01000000
00000000
00000000
00000000
00000000
00000000
00001000
00000000
00000000
00000000
,
01000000
00000000
00100000
01000000
00010000
00000000
10000000
00000000
,
00010000
01010000
00011000
00001010
,
00000010
00000000
00010000
00000000
00001000
00010000
00000000
00001000
,
00000000
00000000
01000000
10010000
,
00100000
00000000
00001000
00000000
00010000
00001000
00000000
00010000
,
00000000
00000000
00000010
00001001
,
00000100
00000000
00001000
00000000
00010000
00001000
00000000
00100000
,
00000000
00000000
01000000
00000000
10000000
00010000
10000000
00010000
,
01000000
00000000
00000000
00010000
00000000
10000000
00000000
00100000
,
00000000
00000000
01000000
10010000
,
01000000
00000000
00001000
00100000
00001000
00100000
00001000
00100000
,
00001000
00000000
00000100
00000000
00000010
00010000
00000010
00010000
,
00001000
00001001
00000100
00000110
,
00001000
00000000
00000000
00000001
00000000
00000000
00000100
00000000
00000010
00000000
00000000
00000000
00010000
00000000
00000100
00000000
,
00001000
00000000
00010000
00000010
00010000
00000010
00010000
00000010
,
00001000
00000000
00010000
00000000
00001000
00100000
00001000
00100000
,
00010000
01010000
10000000
11000000
,
00010000
10000000
00000000
00000000
00010000
10000000
00000000
00100000
00000000
00000000
01000000
00000000
00000000
00000000
00000000
00000000
,
10000000
00000000
00010000
00100000
00001000
00100000
00001000
00100000
,
00001000
00000000
00010000
00000100
00010000
00000100
00010000
00000100
,
00001000
00001100
00000001
00000101
,
00001000
00000000
00000000
00000001
00000000
00000000
00000100
00000000
00000010
00000000
00000000
00000000
00010000
00000000
00000100
00000000
,
00001000
00000000
00000001
00000000
00010000
00000010
00010000
00000010
,
00001000
00000000
00010000
00000000
00001000
00100000
00001000
01000000
,
01010000
10010000
10100000
01100000
,
00010000
10000000
00000000
00000000
00010000
10000000
00000000
00100000
00000000
00000000
01000000
00000000
00000000
00000000
00000000
00000000
;

//---------------dance-couple - ----------------
#NOTES:
     dance-couple:
     :
     Medium:
     5:
     :
00000000
00000000
00000000
00000000
,
00000000
00000000
00000000
00000000
,
00000000
00000000
00000000
00000000
,
00000000
00000000
00000000
00000000
,
00000000
00000000
00000000
00000000
,
01000000
01000000
00010000
00010000
,
00000100
00000100
00000001
00000001
,
01000000
00000010
10000000
00000001
,
10001000
00000000
00000000
10011001
,
01000000
00100000
10000000
00010000
,
10000000
00000000
00010000
01000000
,
00000100
00000010
00001000
00000001
,
00001000
00000000
00000001
00000100
,
10000000
00100000
01000000
00010000
,
00001000
00000010
00000100
00000001
,
10001000
00000000
00000000
00000000
,
10001000
00100010
01000100
10011001
,
00000000
01000000
00100000
01000000
,
00010000
10000000
00100000
00100000
,
00000000
00000100
00000010
00000100
,
00001000
00000001
00000010
00000010
,
01000000
01010000
01000000
11000000
,
00000010
00000011
00000010
00001010
,
10001000
10101010
00010001
00110011
,
01000100
00000000
01000100
00010001
00000000
10001000
00000000
00000000
,
00100000
00000001
00100000
01000001
,
10000000
00000000
00010001
10000000
01000000
00000000
00000001
00000000
,
00010000
00000000
00000001
00000000
00010000
10000000
01000001
00000000
,
00100000
01000001
10000000
10000000
,
00000010
10000000
00000010
10000100
,
00000001
00000000
10001000
00000001
00000100
00000000
10000000
00000000
,
00001000
00000000
10000000
00000000
00001000
00000001
10000100
00000000
,
00000010
10000100
00000001
00000001
,
01000010
00000000
01000010
00011000
,
10000001
00000000
00000000
00000000
00000000
00100100
00000000
00000000
00000000
00000000
01000010
00000000
00000000
00000000
00000000
00000000
00000000
00000000
00000000
00000000
00000000
00000000
00000000
00000000
,
00011000
01000010
00011000
10000001
,
00100100
00100100
10011001
10011001
,
00000100
00000000
00000100
00000101
,
00001100
00000000
00001000
00000001
,
01000000
00000000
01000000
01010000
,
11000000
00000000
10000000
00010000
,
00011000
10000001
00100010
00000000
,
00111010
10100011
01000100
01000100
,
00010000
00000000
00010000
10010000
,
00001000
00000000
00001000
00001001
,
00100000
01000100
00010000
10000100
,
10000000
00100100
01000000
00010100
,
10000000
00000000
00100100
00000000
01000000
00010000
01000100
00000000
,
10010000
01100100
01100000
10010100
,
00000010
01000100
00000001
01001000
,
00001000
01000010
00000100
01000001
,
00001000
00000000
01000010
00000000
00000100
00000001
01000100
00000000
,
00001001
01000110
00000110
01001001
,
10000000
00010000
01000000
00100000
10000000
00010000
01000000
00100000
,
00001000
00000001
00000100
00000010
00001000
00000001
00000100
00000010
,
00000000
00000000
00000000
00000000
00000000
00000000
00000000
00000000
00100010
01000100
00000000
00010001
10001000
00000000
00000000
00000000
,
10011001
00000000
01100110
00000000
10011001
10011001
10011001
00000000
,
01000000
00000000
01000000
00010000
10000000
00100000
10000000
00000000
,
00000100
00000000
00000100
00001000
00000001
00000010
00000001
00000000
,
10001000
00100100
01000010
00010001
10001000
00100100
01000010
00010001
,
10001000
00100100
00000000
00000000
10001000
00100100
10001000
00000000
00000000
00000000
00010001
00000000
00000000
00000000
00000000
00000000
,
00100100
00000000
00000000
00000000
;

//---------------dance-solo - ----------------
#NOTES:
     dance-solo:
     :
     Easy:
     4:
     :
000000
000000
000000
000000
,
000000
000000
000000
000000
,
000000
000000
000000
000000
,
000000
000000
000000
000000
,
000000
000000
000000
000000
,
001000
000000
000010
001000
,
000100
000000
010000
000100
,
100000
000000
000010
100000
,
000001
000000
000000
001100
,
010000
010000
000001
100000
,
000100
000000
000000
001000
,
000010
000010
100000
000001
,
010000
000000
000000
000100
,
100000
000010
001000
000001
,
010000
001000
100000
000100
,
001000
000000
000000
000000
,
000001
000000
000000
000000
,
100000
000000
000010
000000
,
001000
000000
000001
000001
,
010000
000000
000100
100000
,
000010
000010
001000
000100
,
100000
000000
000001
000000
,
001000
000000
000010
000010
,
100000
000001
000000
010000
,
000100
001000
000001
100000
,
000010
000000
001000
000001
,
010000
010000
000100
000000
,
100000
000000
100000
000000
,
000001
000000
000000
000000
,
001000
000000
000010
001000
,
000001
010000
001000
000000
,
100000
000000
000100
000000
,
001000
000000
000010
000010
,
100000
000000
000001
010000
,
001000
100000
000010
000000
,
000100
000000
000100
000001
,
001000
000100
100000
000001
,
001000
001000
000010
001000
,
000100
000000
000000
100000
,
000001
000001
010000
001000
,
100000
000000
000000
000001
,
001000
000010
100000
000001
,
010000
001000
100000
000001
,
001000
000000
000000
000000
,
000010
000000
000000
000000
,
100000
000000
000100
000000
,
001000
000000
000001
000001
,
010000
000000
000100
001000
,
000010
000010
100000
001000
,
010000
000000
000100
000000
,
001000
000000
000001
000001
,
010000
000100
000000
100000
,
000001
001000
000010
100000
,
000100
000000
001000
000001
,
100000
000000
000100
001000
,
000010
001000
000001
100000
,
000100
001000
000001
010000
,
000001
000000
100000
100010
,
001000
000000
000001
001001
,
000100
100000
000001
001000
,
000010
001000
010000
001000
,
100000
000000
000000
000000
;

//---------------dance-solo - ----------------
#NOTES:
     dance-solo:
     :
     Medium:
     5:
     :
000000
000000
000000
000000
,
000000
000000
000000
000000
,
000000
000000
000000
000000
,
000000
000000
000000
000000
,
000000
000000
000000
000000
,
010000
010000
000100
000100
,
001000
001000
000010
000010
,
100000
100000
000001
000001
,
001000
000000
000010
100010
,
010000
010001
000010
100010
,
001000
000000
000100
000000
100000
000010
100000
000000
,
000001
001010
100000
011000
,
000100
000000
001000
000000
000001
100000
000010
000000
,
001000
000001
010000
001000
,
100000
000000
000000
000000
000010
001000
000001
001000
,
000100
000000
000000
000000
100000
000000
000010
001000
,
000000
000000
000001
100000
,
000100
001000
000010
010000
,
000001
000000
001000
000000
100000
010000
100000
010000
,
000001
000001
001000
001000
,
000100
000000
100000
000000
000010
001000
000010
001000
,
000001
000000
100000
000100
,
001000
000000
000001
000000
010000
001000
010000
001000
,
100000
100000
000010
001000
,
000001
010001
010000
011000
,
000100
000000
000100
000000
000100
000000
000100
100000
,
001000
001000
001000
000000
,
000010
000000
000010
000010
100000
000000
000001
000000
,
001000
000000
001000
001001
,
000010
000000
000010
000000
000010
000000
000010
001000
,
000001
000000
010000
001000
010000
000000
000000
000000
,
000000
000001
000010
000001
000100
000000
000001
000000
,
001000
000000
001000
001100
,
100000
000000
100010
000000
001000
000000
001000
000001
,
000010
000010
000001
000000
,
001100
000000
001010
011000
,
000100
000000
000100
000000
000100
100000
000001
001000
,
000100
100010
000100
010001
,
100000
000000
001000
000000
000100
000001
001000
000000
,
001100
000010
001100
010000
,
000001
000000
100000
000000
000100
001000
000100
000000
,
100000
000010
010000
000001
,
001000
000000
000000
000000
000010
001000
010000
001000
,
000001
000000
000000
000000
100000
000000
001000
010000
,
000000
000000
000001
000100
,
000010
100000
000001
001000
,
000100
000000
001000
000000
000001
100000
000001
100000
,
000010
000010
010000
010000
,
000100
000000
001000
000000
000010
001000
000010
001000
,
000001
000000
010000
000100
,
100000
000000
000001
000000
010000
001000
010000
001000
,
100000
100000
000100
001000
,
000001
001001
100000
101000
,
000100
000000
001000
000010
010000
000001
100000
000000
,
001000
000000
000100
000000
100000
000010
001000
000010
,
001000
001000
011000
011000
,
100000
000000
000001
000000
001000
000100
001000
000100
,
100000
000001
000100
001000
,
010000
000000
000001
000000
100000
000010
100000
000010
,
001000
001000
000100
100000
,
010000
010001
000010
100010
,
001000
000000
000000
000000
;

//---------------dance-solo - ----------------
#NOTES:
     dance-solo:
     :
     Hard:
     8:
     :
000000
000000
000000
000000
,
000000
000000
000000
000000
,
000000
000000
000000
000000
,
000000
000000
000000
000000
,
000000
000000
000000
000000
,
001000
000010
001000
000000
100000
000010
100000
000000
,
000100
000001
000100
000000
001000
010000
001000
000000
,
000001
010000
000001
000000
001000
000100
001000
000000
,
000001
000100
001000
100001
,
000100
000000
001000
000000
100000
010000
000000
100000
,
000000
000000
000010
000010
,
001000
000000
000001
000000
001000
000010
000000
100000
,
000000
000000
000001
000001
,
001000
000000
000100
000000
100000
001000
000000
010000
,
000000
000001
001000
000010
,
100000
000000
000000
000010
000000
001000
000000
000001
,
000000
000000
000000
100001
,
001000
000000
000010
000000
000100
000001
000100
000001
,
100000
000000
000100
000000
001000
000010
001000
000010
,
100000
101000
000001
001001
,
100000
000000
000000
000010
000000
000000
001000
000000
000100
000000
000000
000000
010000
000000
001000
000000
,
100000
000000
000001
000000
001000
000100
001000
000100
,
100000
000000
000001
000000
001000
000010
001000
000010
,
100000
100100
000101
001100
,
000001
010000
000000
000000
000001
010000
000000
000100
000000
000000
001000
000000
000000
000000
000000
000000
,
000010
000000
000000
000000
100000
000000
001000
010000
,
000001
000000
000001
010000
001000
000000
000000
000000
,
000100
000000
000000
000000
001000
000010
100000
000010
,
001000
000000
000001
010000
,
000001
000000
000000
000000
001000
000000
000010
001000
,
000001
000000
100000
000100
001000
000000
000000
000000
,
000100
000000
000100
001000
000010
100000
000010
000000
,
001000
000000
000001
100001
,
000000
001000
000010
001000
000001
000000
100000
000000
,
000100
000000
000000
000000
000000
001000
000000
000000
000000
000000
000001
000000
000000
000000
000000
000000
000000
000000
100000
000000
000000
000000
000000
000000
,
000010
000000
001000
000010
100000
000000
000001
000000
,
001000
001010
001100
011000
,
100000
000000
000001
000000
001000
000010
000000
010000
,
000000
000000
000100
100001
,
001000
000000
000010
000000
001000
000010
000000
001000
,
000000
000000
000001
010001
,
100000
000000
000100
000000
001000
000010
000000
000010
,
000000
000000
100000
000000
001000
000100
001000
000100
,
010000
000000
000000
000010
000000
100000
000000
000001
,
000000
000000
001000
011000
,
000001
000000
100000
000010
100000
000010
100000
000010
,
100000
000000
000100
000000
001000
000010
001000
000010
,
100000
100001
001000
001100
,
010000
000000
000000
000001
000000
000000
100000
000000
000100
000000
000000
000000
001000
000000
000010
000000
,
001000
000000
000001
010000
000001
010000
000001
010000
,
000100
000000
001000
000000
000010
100000
000010
100000
,
000100
001100
000001
100001
,
000100
001000
000000
000000
000100
001000
000000
000001
000000
000000
100000
000000
000000
000000
000000
000000
,
000010
000000
001000
000001
010000
000001
010000
000001
,
010000
000000
001000
000010
001000
000010
001000
000010
,
100000
101000
000001
001001
,
100000
000000
000000
000010
000000
000000
001000
000000
000001
000000
000000
000000
010000
000000
001000
000000
,
100000
000000
000001
000000
001000
000100
001000
000100
,
100000
000000
000010
000000
100000
000010
100000
000001
,
010001
000101
000011
100001
,
000010
001000
000000
000000
000010
001000
000000
000001
000000
000000
010000
000000
000000
000000
000000
000000
;
