#TITLE:BLUE FOG, SILVER BULLET.;
#SUBTITLE:;
#ARTIST:BEMANI Sound Team "L.E.D.";
#TITLETRANSLIT:;
#SUBTITLETRANSLIT:;
#ARTISTTRANSLIT:;
#GENRE:;
#CREDIT:;
#BANNER:BLUE FOG, SILVER BULLET.-bn.png;
#BACKGROUND:BLUE FOG, SILVER BULLET.-bg.png;
#LYRICSPATH:;
#CDTITLE:;
#MUSIC:BLUE FOG, SILVER BULLET..ogg;
#OFFSET:0.000000;
#SAMPLESTART:22.054001;
#SAMPLELENGTH:20.000000;
#SELECTABLE:YES;
#DISPLAYBPM:93.000000:185.000000;
#BPMS:0.000000=185.000000
,284.000000=92.500000
,284.500000=185.000000
,315.500000=92.500000
,316.000000=185.000000
;
#STOPS:38.500000=0.649000,
130.000000=0.162000,
161.500000=0.163000,
193.000000=0.162000,
200.500000=0.162000,
201.000000=0.162000,
207.500000=0.162000,
215.000000=0.162000,
215.500000=0.162000,
222.000000=0.162000,
229.500000=0.162000,
230.000000=0.162000,
236.500000=0.162000
;
#BGCHANGES:;
#KEYSOUNDS:;
#ATTACKS:;

//---------------dance-single - ----------------
#NOTES:
     dance-single:
     :
     Beginner:
     5:
     0.181924,0.297422,0.058647,0.125671,0.000000,152.000000,145.000000,7.000000,15.000000,0.000000,0.000000,0.181924,0.297422,0.058647,0.125671,0.000000,152.000000,145.000000,7.000000,15.000000,0.000000,0.000000:
0000
0000
0000
0000
,
0000
0000
0000
0000
,
0000
0000
0000
0000
,
0000
0000
0000
0000
,
0000
0000
0000
0000
,
0100
0000
0100
0000
,
0010
0000
0010
0000
,
1000
0000
0001
0000
,
0100
0000
0010
0000
,
2002
0000
0000
0000
0000
3003
0000
0000
,
0000
0000
0010
0000
,
0000
0100
0000
0000
,
0000
0000
1001
0000
,
0000
0000
0000
0000
,
0000
0000
0010
0000
,
0000
0100
0000
0000
,
0000
0000
0010
0000
,
0100
0000
0001
0000
,
0010
0000
1000
0000
,
0100
0000
0010
0000
,
0100
0000
0001
0000
,
1000
0000
0010
0000
,
0100
0000
0001
0000
,
0010
0000
0001
0000
,
0010
0000
0100
0000
,
1000
0000
0001
0000
,
0100
0000
0010
0000
,
1000
0000
0100
0000
,
1000
0000
0100
0000
,
0010
0000
0001
0000
,
0010
0000
0100
0000
,
1000
0000
1001
0000
,
0000
0000
0000
0000
0000
0000
0000
0000
0000
0000
0000
0000
0000
0000
0000
0000
0000
0000
0000
0000
0000
0000
0000
0000
0000
0000
0000
0000
0000
0000
0000
0000
0002
0003
0000
0000
0000
0000
0000
0000
0000
0000
0000
0000
0000
0000
0000
0000
0000
0000
0000
0000
0000
0000
0000
0000
0001
0000
0000
0000
0000
0000
0000
0000
,
0000
0000
0000
0010
0000
0000
0000
0010
,
0000
0000
0000
0100
0000
0000
0000
0100
,
0000
0000
0000
1000
0000
0000
0000
0010
,
0000
0000
0000
1000
0000
0000
0000
1000
,
0000
0000
0000
0100
0000
0000
0000
0100
,
0000
0000
0000
0010
0000
0000
0000
0010
,
0000
0000
0000
0001
0000
0000
0000
0100
,
0000
0000
0000
0000
0000
0000
0000
0000
0000
0000
0000
0000
0000
0000
0000
0000
0000
0000
0000
0000
0000
0000
0000
0000
0002
0003
0000
0000
0000
0000
0000
0000
0000
0000
0000
0000
0000
0000
0000
0000
0000
0000
0000
0000
0000
0000
0000
0000
0010
0000
0000
0000
0000
0000
0000
0000
0000
0000
0000
0000
0000
0000
0000
0000
,
0000
0001
0000
0010
,
0000
0100
0000
1000
,
0000
0100
0000
1000
,
0000
0010
0000
0100
,
0000
0010
0000
0100
,
0000
0001
0000
0010
,
0000
0110
0000
0000
,
0000
0000
0000
0000
0000
0000
0000
0000
0000
0000
0000
0000
0000
0000
0000
0000
2000
3000
0000
0000
0000
0000
0000
0000
0000
0000
0000
0000
0000
0000
0000
0000
0000
0000
0000
0000
0000
0000
0000
0000
1000
0000
0000
0000
0000
0000
0000
0000
0000
0000
0000
0000
0000
0000
0000
0000
0000
0000
0000
0000
0000
0000
0000
0000
,
0000
0001
0000
0000
0000
0001
0000
0000
,
0000
0000
0000
0000
0000
0000
0000
0000
0200
0300
0000
0000
0000
0000
0000
0000
0000
0000
0000
0000
0000
0000
0000
0000
0000
0000
0000
0000
0000
0000
0000
0000
0000
0000
0000
0000
0000
0000
0000
0000
0000
0000
0000
0000
0000
0000
0000
0000
0000
0000
0000
0000
0000
0000
0000
0000
0010
0000
0000
0000
0000
0000
0000
0000
,
0000
0000
0000
0000
0000
0000
0000
0000
0000
0000
0000
0000
0000
0000
0000
0000
0000
0000
0000
0000
0000
0000
0000
0000
0010
0000
0000
0000
0000
0000
0000
0000
0000
0000
0000
0000
0000
0000
0000
0000
0000
0000
0000
0000
0000
0000
0000
0000
0000
0000
0000
0000
0000
0000
0000
0000
2000
3000
0000
0000
0000
0000
0000
0000
,
0000
0000
0000
0100
,
0000
0000
0000
0000
0000
0000
0000
0000
0000
0000
0000
0000
0000
0000
0000
0000
0000
0000
0000
0000
0000
0000
0000
0000
0000
0000
0000
0000
0000
0000
0000
0000
0000
0000
0000
0000
0000
0000
0000
0000
0000
0000
0000
0000
0000
0000
0000
0000
0020
0030
0000
0000
0000
0000
0000
0000
0000
0000
0000
0000
0000
0000
0000
0000
,
0000
0000
0001
0000
,
0100
0000
0000
0000
0000
0000
0000
0000
0000
0000
0000
0000
0000
0000
0000
0000
0000
0000
0000
0000
0000
0000
0000
0000
0000
0000
0000
0000
0000
0000
0000
0000
0200
0300
0000
0000
0000
0000
0000
0000
0000
0000
0000
0000
0000
0000
0000
0000
0000
0000
0000
0000
0000
0000
0000
0000
0010
0000
0000
0000
0000
0000
0000
0000
,
0000
0000
0000
1000
0000
0000
0000
0010
,
0000
0000
0000
0000
0000
0000
0000
0000
0000
0000
0000
0000
0000
0000
0000
0000
0000
0000
0000
0000
0000
0000
0000
0000
2000
3000
0000
0000
0000
0000
0000
0000
0000
0000
0000
0000
0000
0000
0000
0000
0000
0000
0000
0000
0000
0000
0000
0000
0000
0000
0000
0000
0000
0000
0000
0000
0000
0000
0000
0000
0000
0000
0000
0000
,
0000
0001
0000
0000
0000
0100
0000
0000
,
0000
0000
0000
0000
0000
0000
0000
0000
0020
0030
0000
0000
0000
0000
0000
0000
0000
0000
0000
0000
0000
0000
0000
0000
0000
0000
0000
0000
0000
0000
0000
0000
0010
0000
0000
0000
0000
0000
0000
0000
0000
0000
0000
0000
0000
0000
0000
0000
0000
0000
0000
0000
0000
0000
0000
0000
0000
0000
0000
0000
0000
0000
0000
0000
,
1000
0000
0100
0000
,
0010
0000
0001
0000
,
1000
0000
0000
0000
,
0200
0000
0000
0000
,
0000
0000
0300
0000
,
0020
0000
0000
0000
,
0000
0000
0030
0000
,
0001
0000
0000
0000
,
1000
0000
0000
0000
,
1001
0000
0000
0000
,
0110
0000
0000
0000
,
0000
0000
0000
0010
0000
0000
0000
0100
,
0000
0000
0000
0001
0000
0000
0000
0010
,
0000
0000
0000
0001
0000
0000
0000
0010
,
0000
0000
0000
0100
0000
0000
0000
1000
,
0000
1000
0000
1000
0000
0000
0000
0001
,
0000
0001
0000
0001
0000
0000
0000
0100
,
0000
0000
0000
0100
0000
0000
0000
0010
,
0000
0000
0000
0010
0000
0000
0000
0000
,
0000
1000
0000
0100
,
0000
0010
0000
0001
,
0000
0100
0000
0010
,
0000
1000
0000
0100
,
0100
0100
0000
1000
,
1000
1000
0000
0010
,
0010
0010
0000
0100
,
0100
0100
0000
2002
,
0000
0000
0000
0000
,
0000
0000
0000
3003
,
0000
0000
0000
0000
;

//---------------dance-single - ----------------
#NOTES:
     dance-single:
     :
     Easy:
     8:
     0.357864,0.446133,0.134049,0.251343,0.008378,299.000000,283.000000,16.000000,30.000000,0.000000,0.000000,0.357864,0.446133,0.134049,0.251343,0.008378,299.000000,283.000000,16.000000,30.000000,0.000000,0.000000:
0000
0000
0000
0000
,
0000
0000
0000
0000
,
0000
0000
0000
0000
,
0000
0000
0000
0000
,
0000
0000
0000
0000
,
0010
0010
1000
1000
,
0100
0100
0010
0010
,
0001
0100
0001
0100
,
0010
1000
0010
1000
,
2002
0000
0000
0000
0000
3003
0000
0010
,
0000
0000
0010
0000
1000
0000
0000
0100
,
0000
0000
0010
0000
0000
0001
0000
0000
,
0220
0330
0002
0000
,
0003
0000
0000
0000
0000
0000
0000
0010
,
0000
0000
0010
0000
0001
0000
0000
0100
,
0000
0000
0010
0000
0000
1000
0000
0000
,
0000
0000
0001
0010
,
0001
0100
0010
1000
,
0100
0010
0100
1000
,
0010
0100
0001
0100
,
0000
0010
1000
0000
0100
0000
0010
0000
,
0100
0010
0001
0100
,
0001
0100
0010
1000
,
0100
0010
0001
1000
,
0000
0100
0010
0000
0100
0000
1000
0000
,
0100
1000
0001
0100
,
0001
0100
0010
1000
,
0001
0100
0010
1000
,
0000
0001
0010
0000
0001
0000
1000
0000
,
0001
0100
0010
1000
,
0010
0100
0001
0010
,
0100
1000
0110
0000
,
0100
0000
0000
0000
0000
0000
0000
0000
0000
0000
0000
0000
0000
0000
0000
0000
0100
0000
0000
0000
0000
0000
0000
0000
0000
0000
0000
0000
0000
0000
0000
0000
0020
0030
0000
0000
0000
0000
0000
0000
0000
0000
0000
0000
0000
0000
0000
0000
0000
0000
0000
0000
0000
0000
0000
0000
0100
0000
0000
0000
0000
0000
0000
0000
,
0000
0010
0000
0100
0000
1000
0000
0010
,
0000
0010
0000
0100
0000
0001
0000
0010
,
0000
0001
0000
0100
0000
0010
0000
1000
,
0000
1000
0000
0100
0000
0010
0000
0001
,
0000
1001
0000
1000
0000
0010
0000
0100
,
0000
0110
0000
0010
0000
1000
0000
0001
,
0000
0100
0000
0010
0000
0100
0000
0001
,
0000
0000
0000
0000
0000
0000
0000
0000
0010
0000
0000
0000
0000
0000
0000
0000
0000
0000
0000
0000
0000
0000
0000
0000
0002
0003
0000
0000
0000
0000
0000
0000
0000
0000
0000
0000
0000
0000
0000
0000
0000
0000
0000
0000
0000
0000
0000
0000
1000
0000
0000
0000
0000
0000
0000
0000
0000
0000
0000
0000
0000
0000
0000
0000
,
0010
0100
0001
0010
,
0001
0100
0100
0010
,
0010
1000
0100
0010
,
0001
1000
0100
1000
,
1001
0100
0010
1000
,
0110
0010
0010
0100
,
0100
0002
0003
2000
,
3000
0000
0000
0000
0000
0000
0000
0000
0000
0000
0000
0000
0000
0000
0000
0000
2002
3003
0000
0000
0000
0000
0000
0000
0000
0000
0000
0000
0000
0000
0000
0000
0000
0000
0000
0000
0000
0000
0000
0000
1000
0000
0000
0000
0000
0000
0000
0000
0100
0000
0000
0000
0000
0000
0000
0000
0000
0000
0000
0000
0000
0000
0000
0000
,
0000
0010
0000
0010
0000
0001
0000
0001
,
0000
0000
0000
0000
0000
0000
0000
0000
2000
3000
0000
0000
0000
0000
0000
0000
2000
3000
0000
0000
0000
0000
0000
0000
0010
0000
0000
0000
0000
0000
0000
0000
0000
0000
0000
0000
0000
0000
0000
0000
0000
0000
0000
0000
0000
0000
0000
0000
0010
0000
0000
0000
0000
0000
0000
0000
0000
0000
0000
0000
0000
0000
0000
0000
,
0000
0000
0000
0000
0000
0000
0000
0000
0100
0000
0000
0000
0000
0000
0000
0000
0000
0000
0000
0000
0000
0000
0000
0000
0000
0000
0000
0000
0000
0000
0000
0000
0100
0000
0000
0000
0000
0000
0000
0000
0000
0000
0000
0000
0000
0000
0000
0000
0000
0000
0000
0000
0000
0000
0000
0000
2002
3003
0000
0000
0000
0000
0000
0000
,
0000
0000
0010
0100
0000
0000
0010
0000
,
1000
0000
0000
0000
0000
0000
0000
0000
0000
0000
0000
0000
0000
0000
0000
0000
0000
0000
0000
0000
0000
0000
0000
0000
0001
0000
0000
0000
0000
0000
0000
0000
0000
0000
0000
0000
0000
0000
0000
0000
0000
0000
0000
0000
0000
0000
0000
0000
0020
0030
0000
0000
0000
0000
0000
0000
0020
0030
0000
0000
0000
0000
0000
0000
,
0100
0000
0000
1000
0000
0000
0010
0000
,
0000
0000
0000
0000
0000
0000
0000
0000
0001
0000
0000
0000
0000
0000
0000
0000
0000
0000
0000
0000
0000
0000
0000
0000
0000
0000
0000
0000
0000
0000
0000
0000
2002
3003
0000
0000
0000
0000
0000
0000
0000
0000
0000
0000
0000
0000
0000
0000
0000
0000
0000
0000
0000
0000
0000
0000
1000
0000
0000
0000
0000
0000
0000
0000
,
0010
0000
0000
0010
0000
0100
0000
0010
,
0000
0000
0000
0000
0000
0000
0000
0000
0100
0000
0000
0000
0000
0000
0000
0000
0000
0000
0000
0000
0000
0000
0000
0000
0002
0003
0000
0000
0000
0000
0000
0000
0002
0003
0000
0000
0000
0000
0000
0000
0010
0000
0000
0000
0000
0000
0000
0000
0000
0000
0000
0000
0000
0000
0000
0000
0000
0000
0000
0000
0000
0000
0000
0000
,
1000
0000
0000
0100
0000
0000
0001
0000
,
0000
0000
0000
0000
0000
0000
0000
0000
2002
3003
0000
0000
0000
0000
0000
0000
0000
0000
0000
0000
0000
0000
0000
0000
0000
0000
0000
0000
0000
0000
0000
0000
0010
0000
0000
0000
0000
0000
0000
0000
0001
0000
0000
0000
0000
0000
0000
0000
0000
0000
0000
0000
0000
0000
0000
0000
0000
0000
0000
0000
0000
0000
0000
0000
,
0010
0100
1000
0010
,
0001
0000
0000
0100
0000
0000
0010
0000
,
2000
0000
0000
3000
,
0002
0000
0000
0000
,
0000
0000
0000
0003
,
0020
0000
0000
0000
,
0000
0000
0000
0030
,
1001
0000
0000
0000
,
0110
0000
0000
0000
,
1001
0000
0110
0000
,
0001
0000
0000
0001
0000
0000
0001
0000
0000
0001
0000
0000
0001
0000
0000
0000
,
0200
0300
0000
0100
0000
0001
0000
0100
,
0000
0010
0000
1000
0000
0010
0000
1000
,
0000
1000
0000
0100
0000
0010
0000
0001
,
0000
0010
0000
0001
0000
1000
0000
0010
,
0000
0010
0000
0100
0001
0100
0000
0001
,
0000
1000
0000
0100
0010
0100
0000
0010
,
0000
0001
0000
0010
0000
0100
0000
1000
,
0000
0001
0000
0100
0000
0010
0000
2000
,
3000
0100
0100
0010
,
0010
0000
0001
0010
0001
0000
0100
0000
,
0100
0010
0010
1000
,
1000
0000
0100
1000
0100
0000
0010
0000
,
0001
0010
0001
1000
,
0010
0000
1000
0000
0010
0000
0100
0010
,
0100
0000
0010
0100
0010
0000
1000
0000
,
0100
0010
0001
2002
,
0000
0000
0000
0000
,
0000
0000
0000
3003
,
0000
0000
0000
0000
;

//---------------dance-single - ----------------
#NOTES:
     dance-single:
     :
     Medium:
     12:
     0.523032,0.632022,0.159184,0.242965,0.146617,437.000000,418.000000,19.000000,29.000000,0.000000,0.000000,0.523032,0.632022,0.159184,0.242965,0.146617,437.000000,418.000000,19.000000,29.000000,0.000000,0.000000:
0000
0000
0000
0000
,
0000
0000
0000
0000
,
0000
0000
0000
0000
,
0000
0000
0000
0000
,
0000
0000
0000
0000
,
1000
1000
0001
0001
,
0100
0010
0100
0000
0010
0100
0010
0000
,
1000
0100
0010
0001
,
0100
0010
0100
0010
1000
0100
1000
0000
,
0220
0000
0000
0000
0000
0330
0000
0011
,
0000
0000
1000
0000
0010
0000
0000
0110
,
0000
0000
0001
0000
0000
1000
0000
0000
,
2002
3003
1000
0100
,
0010
0001
0100
0001
,
0100
0000
0010
0000
0100
0000
0010
1000
,
0010
0000
0100
0000
0001
0100
0001
0000
,
0100
0000
0010
0000
0100
0000
0010
0000
0100
0000
0000
0000
0001
0000
0000
0100
,
0000
0000
0010
0000
0100
0000
0000
0000
0010
0000
0000
0000
1000
0000
0000
0100
,
0000
0000
0010
0000
0100
0000
0000
0000
1000
0000
0000
0000
0001
0000
0000
0100
,
0000
0000
0010
0000
1000
0000
0000
0000
0010
0000
0000
0000
0100
0000
0000
0001
,
0000
0000
1000
0000
0010
0000
0000
0000
0100
0000
0000
0000
0001
0000
0000
1000
,
0000
0000
0100
0000
0010
0000
0000
0000
0100
0000
0000
0000
1000
0000
0000
0001
,
0000
0000
0100
0000
0010
0000
0000
0000
0100
0000
0000
0000
0001
0000
0000
0010
,
0000
0000
0100
0000
0010
0000
0000
0000
0100
0000
0000
0000
1000
0000
0000
0010
,
0000
0000
0100
0000
0001
0000
0000
0000
1000
0000
0000
0000
0001
0000
0000
0100
,
0000
0000
1000
0000
0100
0000
0000
0000
0001
0000
0000
0000
1000
0000
0000
0010
,
0000
0000
0001
0000
0010
0000
0000
0000
1000
0000
0000
0000
0010
0000
0000
0100
,
0000
0000
0010
0000
1000
0000
0000
0000
0001
0000
0000
0000
0010
0000
0000
0100
,
0000
0000
0010
0000
0001
0000
1000
0000
0010
0000
0000
0000
0100
0000
0000
0001
,
0000
0000
1000
0000
0100
0000
0000
0000
1000
0000
0000
0000
0010
0000
0000
0100
,
0000
0000
0001
0000
0010
0000
0000
0000
0100
0000
0000
0000
1000
0000
0000
0010
,
0000
1000
0100
1000
0100
0000
0010
0001
,
0010
0000
0000
0000
0000
0000
0000
0000
0001
0000
0000
0000
0000
0000
0000
0000
1000
0000
0000
0000
0000
0000
0000
0000
0000
0000
0000
0000
0000
0000
0000
0000
0002
0003
0000
0000
0000
0000
0000
0000
0010
0000
0000
0000
0000
0000
0000
0000
0100
0000
0000
0000
0000
0000
0000
0000
0010
0000
0000
0000
0000
0000
0000
0000
,
0000
0001
0000
0001
0000
0100
0000
0010
,
1000
0010
0000
0100
0000
0001
0000
1000
,
0000
0010
0000
0100
0001
0100
0000
0010
,
0100
0010
0000
1000
1000
0100
0000
0010
,
0000
0110
0000
0001
0001
0100
0000
0010
,
0000
0110
0000
1000
0100
1000
0000
0001
,
0100
0001
0000
0010
0100
0010
0100
1000
,
0010
0000
0000
0000
0000
0000
0000
0000
0100
0000
0000
0000
0000
0000
0000
0000
0000
0000
0000
0000
0000
0000
0000
0000
0020
0030
0000
0000
0000
0000
0000
0000
0100
0000
0000
0000
0000
0000
0000
0000
0001
0000
0000
0000
0000
0000
0000
0000
0010
0000
0000
0000
0000
0000
0000
0000
0000
0000
0000
0000
0000
0000
0000
0000
,
0100
1000
0010
0000
0100
0000
0001
0000
,
0001
0000
1000
0100
1000
0100
0010
0000
,
0100
0000
0010
0001
0010
0001
1000
0000
,
0010
0000
1000
0100
1000
0000
0001
0100
,
0001
0000
0010
0000
0100
0000
1000
0010
,
0100
0000
0010
0000
1000
0100
0001
0000
,
0100
1000
0010
2000
0000
0000
3020
0000
,
0000
0000
0000
0000
0000
0000
0000
0000
0130
0000
0000
0000
0000
0000
0000
0000
0002
0003
0000
0000
0000
0000
0000
0000
1001
0000
0000
0000
0000
0000
0000
0000
0000
0000
0000
0000
0000
0000
0000
0000
0100
0000
0000
0000
0000
0000
0000
0000
0010
0000
0000
0000
0000
0000
0000
0000
0000
0000
0000
0000
0000
0000
0000
0000
,
0010
0100
0000
0001
0000
1000
0100
0010
,
0000
0000
0000
0000
0000
0000
0000
0000
0220
0330
0000
0000
0000
0000
0000
0000
2002
3003
0000
0000
0000
0000
0000
0000
0100
0000
0000
0000
0000
0000
0000
0000
0000
0000
0000
0000
0100
0000
0000
0000
0000
0000
0000
0000
0000
0000
0000
0000
0001
0000
0000
0000
0000
0000
0000
0000
0000
0000
0000
0000
0001
0000
0000
0000
,
0000
0000
0000
0000
0000
0000
0000
0000
1000
0000
0000
0000
0000
0000
0000
0000
0000
0000
0000
0000
0000
0000
0000
0000
0010
0000
0000
0000
0000
0000
0000
0000
0100
0000
0000
0000
0000
0000
0000
0000
0010
0000
0000
0000
0000
0000
0000
0000
0000
0000
0000
0000
0000
0000
0000
0000
0202
0303
0000
0000
0000
0000
0000
0000
,
0010
0000
0000
0010
0000
0000
1000
0000
0000
1000
0000
0000
0100
0000
0000
0000
,
0010
0000
0000
0000
0000
0000
0000
0000
0000
0000
0000
0000
0010
0000
0000
0000
0000
0000
0000
0000
0000
0000
0000
0000
0001
0000
0000
0000
0000
0000
0000
0000
0000
0000
0000
0000
0001
0000
0000
0000
0000
0000
0000
0000
0000
0000
0000
0000
2000
3000
0000
0000
0000
0000
0000
0000
2002
3003
0000
0000
0000
0000
0000
0000
,
0010
0000
0000
0010
0000
0000
0100
0000
0000
0100
0000
0000
0001
0000
0000
0010
,
0000
0000
0000
0000
0000
0000
0000
0000
0100
0000
0000
0000
0000
0000
0000
0000
1000
0000
0000
0000
0000
0000
0000
0000
0000
0000
0000
0000
0000
0000
0000
0000
0020
0030
0000
0000
0000
0000
0000
0000
1000
0000
0000
0000
0000
0000
0000
0000
0000
0000
0000
0000
0001
0000
0000
0000
0000
0000
0000
0000
0000
0000
0000
0000
,
0100
0000
0000
0010
0000
0000
1000
0000
0010
0000
1000
0000
0000
0000
0001
0000
,
0010
0000
0000
0000
0000
0000
0000
0000
0001
0000
0000
0000
0000
0000
0000
0000
0000
0000
0000
0000
0000
0000
0000
0000
0020
0030
0000
0000
0000
0000
0000
0000
0220
0330
0000
0000
0000
0000
0000
0000
1000
0000
0000
0000
0000
0000
0000
0000
0000
0000
0000
0000
0100
0000
0000
0000
0000
0000
0000
0000
0000
0000
0000
0000
,
0010
0000
0000
0001
0000
0000
1000
0000
0000
0010
0000
0000
0100
0000
0001
0000
,
0100
0000
0000
0000
0000
0000
0000
0000
0002
0003
0000
0000
0000
0000
0000
0000
1000
0000
0000
0000
0000
0000
0000
0000
0000
0000
0000
0000
1000
0000
0000
0000
0000
0000
0000
0000
0000
0000
0000
0000
0010
0000
0000
0000
0000
0000
0000
0000
0000
0000
0000
0000
0010
0000
0000
0000
0000
0000
0000
0000
0000
0000
0000
0000
,
0100
0001
0010
0000
0100
1000
0010
0000
,
0100
0000
0000
0001
0000
0000
1000
0000
0000
0100
0000
0000
0010
0000
0001
0000
,
1000
0000
0000
0000
1000
0100
0001
0100
,
2000
0000
0000
0000
,
0000
0000
0000
0000
,
3200
0000
0000
0000
,
0000
0000
0000
0300
,
0110
0000
0000
0000
,
1001
0000
0000
0000
,
0011
0000
0000
0000
1010
0000
0000
0010
,
0100
0000
0000
0100
0000
0000
0001
0000
0000
0001
0000
0000
1000
0000
1000
0000
,
0200
0310
0000
0001
1000
0010
0000
0100
,
0001
1000
0100
0010
0001
0100
0000
0010
,
0000
0100
0000
0010
1000
0100
0000
0010
,
0001
1000
0010
0100
0001
0010
0000
0100
,
0000
0010
0000
0001
1000
0100
0000
1000
,
0100
0001
0100
1000
0100
0001
0000
0100
,
0000
1000
0000
0010
0100
0001
0000
1000
,
0010
0001
0010
1000
0010
0001
0000
0020
,
0130
0000
0001
0100
0010
1000
0010
0100
,
0001
1000
0100
0010
0001
0000
0010
0000
,
0110
0000
1000
0100
0010
0001
0010
0100
,
1000
0001
0100
0010
1000
0000
0001
0000
,
0110
0000
0001
0010
0100
0010
0001
0100
,
0010
1000
0001
0100
0010
1000
0100
1000
,
0100
1000
0001
0100
0001
0100
0010
1000
,
0100
0010
0001
0000
1000
0000
2002
0000
,
0000
0000
0000
0000
,
0000
0000
0000
3003
,
0000
0000
0000
0000
;

//---------------dance-single - ----------------
#NOTES:
     dance-single:
     :
     Hard:
     15:
     0.791131,0.929444,0.284855,0.259721,0.456606,661.000000,627.000000,34.000000,31.000000,0.000000,0.000000,0.791131,0.929444,0.284855,0.259721,0.456606,661.000000,627.000000,34.000000,31.000000,0.000000,0.000000:
0000
0000
0000
0000
,
0000
0000
0000
0000
,
0000
0000
0000
0000
,
0000
0000
0000
0000
,
0000
0000
0000
0000
,
0001
0100
0010
0010
1000
0100
0010
0010
,
0001
1000
0001
0001
0100
0010
0100
0100
,
0010
1000
0010
0001
1000
0100
0001
0010
,
0100
1000
0100
0001
0100
1000
0001
1000
,
2002
0000
0000
0000
0000
3003
0000
1100
,
0000
0000
0110
0000
0011
0000
0000
0110
,
0000
0000
1100
0000
0000
0101
0000
0000
,
2002
0000
3003
0000
0001
0010
0100
0100
,
1000
0010
0100
0100
0001
0010
0001
0001
,
1000
0010
1000
1000
0001
0010
1000
0010
,
0001
1000
0100
0001
0100
1000
0000
0000
,
0001
0100
0001
0100
0010
1000
0010
1000
0010
0000
0000
0000
1000
0000
0000
0010
,
0000
0000
1000
0000
0010
0000
0100
0010
0100
0000
0000
0000
0010
0000
0000
0100
,
0000
0000
0001
0000
0010
0000
0100
0010
0100
0000
0000
0000
0010
0000
0000
0001
,
0000
0000
1000
0000
0001
0000
1000
0001
1000
0000
0000
0000
0100
0000
0000
1000
,
0000
0001
1000
0000
0010
0000
0100
0010
0100
0000
0000
0000
0010
0000
0000
0100
,
0000
0000
0010
0000
1000
0000
0010
0100
0010
0000
0000
0000
0100
0000
0000
0001
,
0000
0000
0010
0000
0100
0000
0010
0100
0010
0000
0000
0000
0001
0000
0000
0010
,
0000
0000
0001
0000
1000
0000
0100
1000
0100
0000
0000
0000
1000
0000
0000
0100
,
0000
0010
0100
0000
1000
0000
0001
0100
0001
0000
0000
0000
0101
0000
0000
0001
,
0000
0000
0100
0000
0010
0000
1000
0010
0100
0000
0000
0000
0110
0000
0000
0100
,
0000
0000
0010
0000
1000
0000
0100
1000
0001
0000
0000
0000
1001
0000
0000
0100
,
0000
0000
0010
0000
0100
0000
0001
1000
0010
0000
0000
0000
1010
0000
0000
0010
,
0000
1000
0010
0000
0100
0000
0001
0010
0100
0000
0000
0000
0110
0000
0000
0010
,
0000
0000
0001
0000
1000
0000
0010
0100
0001
0000
0000
0000
0101
0000
0000
0001
,
0000
0000
1000
0000
0100
0000
0010
0001
0100
0000
0000
0000
0101
0000
0000
0100
,
0000
0000
0010
0000
1000
0001
1000
0001
1000
0000
0000
0000
0100
1000
0100
1000
,
0001
0000
0000
0000
0100
0000
0000
0000
0001
0000
0000
0000
0100
0000
0000
0000
0001
0000
0000
0000
1000
0000
0000
0000
0001
0000
0000
0000
1000
0000
0000
0000
0002
0003
0000
0000
0000
0000
0000
0000
0100
0000
0000
0000
0000
0000
0000
0000
0100
0000
0000
0000
0000
0000
0000
0000
0010
0000
0000
0000
0000
0000
0000
0000
,
0100
0100
0010
1000
1000
0001
0010
0010
,
0100
1000
0001
0100
0100
0010
1000
1000
,
0100
0010
0010
0001
1000
1000
0010
0100
,
0100
0100
0000
0110
0000
0001
0001
0010
,
0100
0100
1000
0001
0001
0100
0010
0010
,
1000
0001
0010
0001
0001
0100
0010
0010
,
1000
0010
0010
0100
0001
0001
1000
0001
,
0010
0000
0000
0000
0000
0000
0000
0000
0001
0000
0000
0000
1000
0000
0000
0000
0001
0000
0000
0000
1000
0000
0000
0000
0002
0003
0000
0000
0000
0000
0000
0000
1000
0000
0000
0000
0000
0000
0000
0000
1000
0000
0000
0000
0000
0000
0000
0000
0010
0000
0000
0000
0000
0000
0000
0000
0100
0000
0000
0000
0000
0000
0000
0000
,
0100
0001
0010
0010
0100
0001
0001
0100
,
1000
0010
1000
1000
0010
0001
0001
0010
,
0100
0100
0010
1000
1000
0100
0001
0100
,
1000
0000
0011
0000
0010
0010
0100
1000
,
1000
0010
0001
0001
0010
0100
1000
0100
,
0001
0010
0001
0001
0010
1000
1000
0010
,
0001
0010
0100
0020
0000
0130
0002
0000
,
0103
0000
0000
0000
0000
0000
0000
0000
1000
0000
0000
0000
0000
0000
0000
0000
0020
0030
0000
0000
0000
0000
0000
0000
0110
0000
0000
0000
0000
0000
0000
0000
0010
0000
0000
0000
0100
0000
0000
0000
0010
0000
0000
0000
0000
0000
0000
0000
1000
0000
0000
0000
0000
0000
0000
0000
0001
0000
0000
0000
1000
0000
0000
0000
,
0001
0000
0010
0000
0100
0000
1000
0000
0001
0100
0001
0000
1000
0000
0100
1000
,
0100
0000
0000
0000
0000
0000
0000
0000
2200
3300
0000
0000
0000
0000
0000
0000
0202
0303
0000
0000
0000
0000
0000
0000
1000
0000
0000
0000
0000
0000
0000
0000
0001
0000
0000
0000
0100
0000
0000
0000
0001
0000
0000
0000
0000
0000
0000
0000
1000
0000
0000
0000
0000
0000
0000
0000
0001
0000
0000
0000
0100
0000
0000
0000
,
0001
0000
0000
0000
0000
0000
0000
0000
1000
0000
0000
0000
0000
0000
0000
0000
0001
0000
0000
0000
0100
0000
0000
0000
0001
0000
0000
0000
0000
0000
0000
0000
1000
0000
0000
0000
0000
0000
0000
0000
0001
0000
0000
0000
0100
0000
0000
0000
0001
0000
0000
0000
0000
0000
0000
0000
2200
3300
0000
0000
0000
0000
0000
0000
,
0100
0000
1000
0100
1000
0000
0010
0000
0100
0001
0100
0000
0101
0000
0000
0000
,
0100
0000
0000
0000
0000
0000
0000
0000
0010
0000
0000
0000
1000
0000
0000
0000
0010
0000
0000
0000
0000
0000
0000
0000
0100
0000
0000
0000
0000
0000
0000
0000
0010
0000
0000
0000
1000
0000
0000
0000
0010
0000
0000
0000
0000
0000
0000
0000
2020
3030
0000
0000
0000
0000
0000
0000
0202
0303
0000
0000
0000
0000
0000
0000
,
0001
0000
0010
0001
0010
0000
0100
0000
1000
0100
1000
0000
0001
0000
0010
0001
,
0010
0000
0000
0000
0000
0000
0000
0000
0100
0000
0000
0000
0000
0000
0000
0000
1000
0000
0000
0000
0100
0000
0000
0000
1000
0000
0000
0000
0100
0000
0000
0000
2000
3000
0000
0000
0000
0000
0000
0000
0001
0000
0000
0000
0000
0000
0000
0000
0100
0000
0000
0000
0001
0000
0000
0000
0100
0000
0000
0000
0000
0000
0000
0000
,
0001
0000
0100
0001
0100
0000
0001
0000
0001
0000
0100
0000
0001
0100
0001
0000
,
0100
0000
0000
0000
0000
0000
0000
0000
0100
0000
0000
0000
0000
0000
0000
0000
0001
0000
0000
0000
0100
0000
0000
0000
0002
0003
0000
0000
0000
0000
0000
0000
2200
3300
0000
0000
0000
0000
0000
0000
0001
0000
0000
0000
0000
0000
0000
0000
1000
0000
0000
0000
0100
0000
0000
0000
1000
0000
0000
0000
0000
0000
0000
0000
,
0001
0000
1000
0100
1000
0000
0001
0000
1000
0100
1000
0000
0001
0000
1000
0100
,
1000
0000
0000
0000
0000
0000
0000
0000
2002
3003
0000
0000
0000
0000
0000
0000
0001
0000
0000
0000
0000
0000
0000
0000
0100
0000
0000
0000
0001
0000
0000
0000
0100
0000
0000
0000
0000
0000
0000
0000
0001
0000
0000
0000
0000
0000
0000
0000
0100
0000
0000
0000
0001
0000
0000
0000
0100
0000
0000
0000
0000
0000
0000
0000
,
0001
0000
0100
0000
1000
0000
0100
0000
0001
0000
0010
0000
0100
0000
0000
0010
,
0100
0000
0000
1000
0100
1000
0100
0000
0010
0001
0010
0001
0010
0000
0001
1000
,
0001
0100
0001
0100
1000
0100
0001
0010
,
0200
0000
0000
0000
,
0000
0000
0000
0000
,
2300
0000
0000
0000
,
0000
0000
0000
3000
,
1001
0000
0000
0000
,
0110
0000
0000
0000
,
1100
0000
0000
0000
0101
0000
0000
1000
,
0100
0000
0000
0101
0000
0000
0011
0000
0000
1010
0000
0000
0010
0000
0100
0000
,
0020
0000
1030
0000
0010
1000
0010
0000
0100
0000
0001
0000
0010
0000
0100
0000
,
0000
0000
0100
0000
0010
0000
0001
0000
1000
0000
0010
0000
0100
0010
0100
0000
,
0000
0000
0100
0000
0010
1000
0010
0000
0100
0000
0001
0010
0001
0000
0100
0000
,
0001
0000
1000
0000
0010
1000
0010
0000
0100
0000
0001
0000
1000
0001
1000
0000
,
0000
0000
0001
0000
0100
0001
0100
0000
0010
0000
1000
0000
0100
0000
0010
0000
,
0000
0000
0010
0000
0100
0000
1000
0000
0001
0000
0100
0000
0010
0100
0010
0000
,
0000
0000
0010
0000
0100
0001
0100
0000
0010
0000
1000
0100
1000
0000
0010
0000
,
1000
0000
0001
0000
0100
0001
0100
0000
0010
0000
1000
0000
0001
1000
0002
0000
,
1003
0000
0100
1000
0100
0000
0010
0000
0001
0000
1000
0010
1000
0000
0100
0000
,
0010
0000
0001
0000
1000
0000
0001
0000
1000
0000
0010
0100
0010
0000
0000
0000
,
1000
0000
0010
1000
0010
0000
0100
0000
0001
0000
1000
0100
1000
0000
0010
0000
,
0100
0000
0001
0000
1000
0000
0001
0000
1000
0000
0100
0010
0100
0000
0000
0000
,
0010
0000
0001
0000
1000
0000
0010
0100
0010
0000
1000
0000
0001
0010
0001
0000
,
0100
0000
0010
1000
0010
0000
0100
0000
0010
0000
1000
0000
0001
1000
0001
0000
,
0100
0000
0010
0100
0010
0000
0100
0000
0001
0010
0100
0000
1000
0100
0010
0000
,
0001
1000
0010
0000
0100
0001
1000
0000
0010
1000
0001
0000
2002
0000
0000
0000
,
0000
0000
0000
0000
,
0000
0000
0000
3003
;

//---------------dance-double - ----------------
#NOTES:
     dance-double:
     :
     Easy:
     8:
     0.368636,0.446133,0.150806,0.268099,0.008378,308.000000,290.000000,18.000000,32.000000,0.000000,0.000000,0.368636,0.446133,0.150806,0.268099,0.008378,308.000000,290.000000,18.000000,32.000000,0.000000,0.000000:
00000000
00000000
00000000
00000000
,
00000000
00000000
00000000
00000000
,
00000000
00000000
00000000
00000000
,
00000000
00000000
00000000
00000000
,
00000000
00000000
00000000
00000000
,
00001000
00001000
00010000
00010000
,
00000100
00000100
00001000
00001000
,
00000001
00000010
00000001
00000010
,
00000100
00001000
00000100
00010000
,
00022000
00000000
00000000
00000000
00000000
00033000
00000000
00001000
,
00000000
00000000
00010000
00000000
00100000
00000000
00000000
00100000
,
00000000
00000000
10000000
00000000
00000000
01000000
00000000
00000000
,
02200000
03300000
10000000
01000000
,
00010000
00000000
00001000
00000100
,
00000001
00000000
00000000
00000000
00000010
00000000
00000000
00000100
,
00000000
00000000
00010000
00000000
00000000
00001000
00000000
00000000
,
00100000
00010000
00100000
01000000
,
10000000
00100000
01000000
00010000
,
00100000
00001000
00010000
00000100
,
00001000
00000100
00000010
00000001
,
00000000
00000100
00000010
00000000
00001000
00000000
00000100
00000000
,
00001000
00000100
00010000
00001000
,
00100000
00010000
10000000
00100000
,
10000000
01000000
00010000
00001000
,
00000000
00010000
00001000
00000000
00010000
00000000
00000010
00000000
,
00001000
00000100
00001000
00000001
,
00000100
00000010
00001000
00000100
,
00010000
00001000
00100000
00010000
,
00000000
01000000
00100000
00000000
10000000
00000000
01000000
00000000
,
10000000
00100000
00010000
00001000
,
00000010
00000001
00000100
00000100
,
00001000
00001000
00010000
00010000
,
00001000
00000000
00000000
00000000
00000000
00000000
00000000
00000000
00000000
00000000
00000000
00000000
00000000
00000000
00000000
00000000
00010000
00000000
00000000
00000000
00000000
00000000
00000000
00000000
00000000
00000000
00000000
00000000
00000000
00000000
00000000
00000000
00022000
00033000
00000000
00000000
00000000
00000000
00000000
00000000
00000000
00000000
00000000
00000000
00000000
00000000
00000000
00000000
00000000
00000000
00000000
00000000
00000000
00000000
00000000
00000000
01000000
00000000
00000000
00000000
00000000
00000000
00000000
00000000
,
00000000
10000000
00000000
00010000
00000000
00100000
00000000
00001000
,
00000000
00001000
00000000
00010000
00000000
00000010
00000000
00001000
,
00000000
00000100
00000000
00000010
00000000
00000001
00000000
00000100
,
00000000
00000100
00000000
00000010
00000000
00001000
00000000
00000100
,
00000000
00001100
00000000
00010000
00000000
00001000
00000000
00100000
,
00000000
00110000
00000000
10000000
00000000
01000000
00000000
00100000
,
00000000
00010000
00000000
00100000
00000000
00001000
00000000
00010000
,
00000000
00000000
00000000
00000000
00000000
00000000
00000000
00000000
00001000
00000000
00000000
00000000
00000000
00000000
00000000
00000000
00000000
00000000
00000000
00000000
00000000
00000000
00000000
00000000
00022000
00033000
00000000
00000000
00000000
00000000
00000000
00000000
00000000
00000000
00000000
00000000
00000000
00000000
00000000
00000000
00000000
00000000
00000000
00000000
00000000
00000000
00000000
00000000
00010000
00000000
00000000
00000000
00000000
00000000
00000000
00000000
00000000
00000000
00000000
00000000
00000000
00000000
00000000
00000000
,
00000100
00000010
00000001
00000100
,
00000010
00001000
00001000
00000100
,
00000100
00010000
00010000
00001000
,
00001000
00100000
00010000
01000000
,
01100000
00100000
10000000
01000000
,
01100000
00001000
00001000
00010000
,
00010000
00000200
00000300
00000020
,
00000030
00000000
00000000
00000000
00000000
00000000
00000000
00000000
00000000
00000000
00000000
00000000
00000000
00000000
00000000
00000000
00002002
00003003
00000000
00000000
00000000
00000000
00000000
00000000
00000000
00000000
00000000
00000000
00000000
00000000
00000000
00000000
00000000
00000000
00000000
00000000
00000000
00000000
00000000
00000000
00000010
00000000
00000000
00000000
00000000
00000000
00000000
00000000
00001000
00000000
00000000
00000000
00000000
00000000
00000000
00000000
00000000
00000000
00000000
00000000
00000000
00000000
00000000
00000000
,
00000100
00010000
00000000
00001000
00000000
00010000
00000000
01000000
,
00000000
00000000
00000000
00000000
00000000
00000000
00000000
00000000
20000000
30000000
00000000
00000000
00000000
00000000
00000000
00000000
20000000
30000000
00000000
00000000
00000000
00000000
00000000
00000000
01000000
00000000
00000000
00000000
00000000
00000000
00000000
00000000
00000000
00000000
00000000
00000000
00000000
00000000
00000000
00000000
00000000
00000000
00000000
00000000
00000000
00000000
00000000
00000000
00100000
00000000
00000000
00000000
00000000
00000000
00000000
00000000
00000000
00000000
00000000
00000000
00000000
00000000
00000000
00000000
,
00000000
00000000
00000000
00000000
00000000
00000000
00000000
00000000
00001000
00000000
00000000
00000000
00000000
00000000
00000000
00000000
00000000
00000000
00000000
00000000
00000000
00000000
00000000
00000000
00000000
00000000
00000000
00000000
00000000
00000000
00000000
00000000
00010000
00000000
00000000
00000000
00000000
00000000
00000000
00000000
00000000
00000000
00000000
00000000
00000000
00000000
00000000
00000000
00000000
00000000
00000000
00000000
00000000
00000000
00000000
00000000
00022000
00033000
00000000
00000000
00000000
00000000
00000000
00000000
,
00000000
00000000
00010000
00001000
00000000
00000000
00010000
00000000
,
00000010
00000000
00000000
00000000
00000000
00000000
00000000
00000000
00000000
00000000
00000000
00000000
00000000
00000000
00000000
00000000
00000000
00000000
00000000
00000000
00000000
00000000
00000000
00000000
00000100
00000000
00000000
00000000
00000000
00000000
00000000
00000000
00000000
00000000
00000000
00000000
00000000
00000000
00000000
00000000
00000000
00000000
00000000
00000000
00000000
00000000
00000000
00000000
00000002
00000003
00000000
00000000
00000000
00000000
00000000
00000000
00000002
00000003
00000000
00000000
00000000
00000000
00000000
00000000
,
00001000
00000000
00000000
00000001
00000000
00000000
00000010
00000000
,
00000000
00000000
00000000
00000000
00000000
00000000
00000000
00000000
00001000
00000000
00000000
00000000
00000000
00000000
00000000
00000000
00000000
00000000
00000000
00000000
00000000
00000000
00000000
00000000
00000000
00000000
00000000
00000000
00000000
00000000
00000000
00000000
00022000
00033000
00000000
00000000
00000000
00000000
00000000
00000000
00000000
00000000
00000000
00000000
00000000
00000000
00000000
00000000
00000000
00000000
00000000
00000000
00000000
00000000
00000000
00000000
00010000
00000000
00000000
00000000
00000000
00000000
00000000
00000000
,
00001000
00000000
00000000
00010000
00000000
00100000
00000000
10000000
,
00000000
00000000
00000000
00000000
00000000
00000000
00000000
00000000
00100000
00000000
00000000
00000000
00000000
00000000
00000000
00000000
00000000
00000000
00000000
00000000
00000000
00000000
00000000
00000000
20000000
30000000
00000000
00000000
00000000
00000000
00000000
00000000
20000000
30000000
00000000
00000000
00000000
00000000
00000000
00000000
01000000
00000000
00000000
00000000
00000000
00000000
00000000
00000000
00000000
00000000
00000000
00000000
00000000
00000000
00000000
00000000
00000000
00000000
00000000
00000000
00000000
00000000
00000000
00000000
,
00100000
00000000
00000000
00001000
00000000
00000000
00010000
00000000
,
00000000
00000000
00000000
00000000
00000000
00000000
00000000
00000000
00022000
00033000
00000000
00000000
00000000
00000000
00000000
00000000
00000000
00000000
00000000
00000000
00000000
00000000
00000000
00000000
00000000
00000000
00000000
00000000
00000000
00000000
00000000
00000000
00001000
00000000
00000000
00000000
00000000
00000000
00000000
00000000
00010000
00000000
00000000
00000000
00000000
00000000
00000000
00000000
00000000
00000000
00000000
00000000
00000000
00000000
00000000
00000000
00000000
00000000
00000000
00000000
00000000
00000000
00000000
00000000
,
00000100
00001000
00000100
00000010
,
00000001
00000000
00000000
00000100
00000000
00000000
00000010
00000000
,
00020000
00000000
00000000
00030000
,
00022000
00000000
00000000
00000000
,
00000000
00000000
00000000
00033000
,
02000000
00000000
00000000
00000000
,
00000000
00000000
00000000
03000000
,
01100000
00000000
00000000
00000000
,
00011000
00000000
00000000
00000000
,
00000110
00000000
00011000
00000000
,
00100000
00000000
00000000
00100000
00000000
00000000
00100000
00000000
00000000
00100000
00000000
00000000
00100000
00000000
00000000
00000000
,
02000000
03000000
00000000
01000000
00000000
00100000
00000000
00010000
,
00000000
00100000
00000000
00001000
00000000
00010000
00000000
00001000
,
00000000
00001000
00000000
00000010
00000000
00000001
00000000
00000010
,
00000000
00001000
00000000
00010000
00000000
00001000
00000000
01000000
,
00000000
01000000
00000000
00010000
00100000
00010000
00000000
10000000
,
00000000
00100000
00000000
01000000
00100000
01000000
00000000
00010000
,
00000000
00100000
00000000
00001000
00000000
00010000
00000000
00000010
,
00000000
00001000
00000000
00000100
00000000
00000010
00000000
00000002
,
00000003
00001000
00001000
00000100
,
00000100
00000000
00010000
00001000
00010000
00000000
00001000
00000000
,
00001000
01000000
01000000
00010000
,
00010000
00000000
10000000
00100000
10000000
00000000
00010000
00000000
,
01000000
00010000
01000000
00001000
,
00010000
00000000
00001000
00000000
00010000
00000000
00000100
00001000
,
00000100
00000000
00001000
00000010
00001000
00000000
00000001
00000000
,
00000100
00001000
00010000
00022000
,
00000000
00000000
00000000
00000000
,
00000000
00000000
00000000
00033000
,
00000000
00000000
00000000
00000000
;

//---------------dance-double - ----------------
#NOTES:
     dance-double:
     :
     Medium:
     12:
     0.505079,0.557666,0.175940,0.242965,0.146617,422.000000,401.000000,21.000000,29.000000,0.000000,0.000000,0.505079,0.557666,0.175940,0.242965,0.146617,422.000000,401.000000,21.000000,29.000000,0.000000,0.000000:
00000000
00000000
00000000
00000000
,
00000000
00000000
00000000
00000000
,
00000000
00000000
00000000
00000000
,
00000000
00000000
00000000
00000000
,
00000000
00000000
00000000
00000000
,
00000001
00000001
00000010
00000010
,
00000100
00001000
00000100
00000000
00010000
00001000
00010000
00000000
,
00001000
00100000
00010000
01000000
,
00100000
00000000
10000000
00100000
10000000
00100000
01000000
00000000
,
02020000
00000000
00000000
00000000
00000000
03030000
00000000
00011000
,
00000000
00000000
00010000
00000000
00001000
00000000
00000000
00001010
,
00000000
00000000
00001000
00000000
00000000
00000001
00000000
00000000
,
00002002
00003003
00000010
00001000
,
00000100
00010000
00001000
00100000
,
00010000
00000000
10000000
00000000
01000000
00000000
10000000
01000000
,
10000000
00000000
00100000
00000000
00010000
00001000
00010000
00000000
,
00001000
00000000
00010000
00000000
00001000
00000000
00010000
00000000
00011000
00000000
00000000
00000000
00000010
00000000
00000000
00001000
,
00000000
00000000
00000001
00000000
00000100
00000000
00000000
00000000
00001000
00000000
00000000
00000000
00010000
00000000
00000000
01000000
,
00000000
00000000
10000000
00000000
00100000
00000000
00000000
00000000
10000000
00000000
00000000
00000000
01000000
00000000
00000000
00010000
,
00000000
00000000
00001000
00000000
00010000
00000000
00000000
00000000
00001000
00000000
00000000
00000000
00000010
00000000
00000000
00000001
,
00000000
00000000
00001000
00000000
00000100
00000000
00000000
00000000
00000010
00000000
00000000
00000000
00000001
00000000
00000000
00001000
,
00000000
00000000
00000100
00000000
00010000
00000000
00000000
00000000
00001000
00000000
00000000
00000000
01000000
00000000
00000000
00010000
,
00000000
00000000
00100000
00000000
01000000
00000000
00000000
00000000
10000000
00000000
00000000
00000000
00100000
00000000
00000000
01000000
,
00000000
00000000
00010000
00000000
00100000
00000000
00000000
00000000
00001000
00000000
00000000
00000000
00010000
00000000
00000000
00000010
,
00000000
00000000
00001000
00000000
00000001
00000000
00000000
00000000
00000110
00000000
00000000
00000000
00000001
00000000
00000000
00000100
,
00000000
00000000
00001000
00000000
00010000
00000000
00000000
00000000
01000000
00000000
00000000
00000000
10000000
00000000
00000000
00100000
,
00000000
00000000
01000000
00000000
00010000
00000000
00000000
00000000
10000000
00000000
00000000
00000000
00100000
00000000
00000000
00010000
,
00000000
00000000
00001000
00000000
00000010
00000000
00000000
00000000
00000001
00000000
00000000
00000000
00000100
00000000
00000000
00001000
,
00000000
00000000
00010000
00000000
01000000
00000000
10000000
00000000
00100000
00000000
00000000
00000000
10000000
00000000
00000000
01000000
,
00000000
00000000
00100000
00000000
00010000
00000000
00000000
00000000
00100000
00000000
00000000
00000000
00001000
00000000
00000000
00010000
,
00000000
00000000
00000010
00000000
00001000
00000000
00000000
00000000
00000100
00000000
00000000
00000000
00000010
00000000
00000000
00000001
,
00000000
00000100
00000010
00000100
00000010
00000000
00001000
00000100
,
00001000
00000000
00000000
00000000
00000000
00000000
00000000
00000000
00000100
00000000
00000000
00000000
00000000
00000000
00000000
00000000
00010000
00000000
00000000
00000000
00000000
00000000
00000000
00000000
00000000
00000000
00000000
00000000
00000000
00000000
00000000
00000000
00002000
00003000
00000000
00000000
00000000
00000000
00000000
00000000
00100000
00000000
00000000
00000000
00000000
00000000
00000000
00000000
00010000
00000000
00000000
00000000
00000000
00000000
00000000
00000000
00100000
00000000
00000000
00000000
00000000
00000000
00000000
00000000
,
00000000
01000000
00000000
01000000
00000000
10000000
00000000
00100000
,
01000000
00100000
00000000
10000000
00000000
00010000
00000000
00100000
,
00000000
00001000
00000000
00010000
00001000
00010000
00000000
00000010
,
00001000
00000010
00000000
00000100
00000000
00000001
00000000
00001000
,
00000000
00001100
00000000
00010000
00000000
00001000
00000000
00100000
,
00000000
00110000
00000000
00010000
01000000
00010000
00000000
10000000
,
01000000
10000000
00000000
00100000
01000000
00100000
10000000
01000000
,
00100000
00000000
00000000
00000000
00000000
00000000
00000000
00000000
01000000
00000000
00000000
00000000
00000000
00000000
00000000
00000000
00000000
00000000
00000000
00000000
00000000
00000000
00000000
00000000
00200000
00300000
00000000
00000000
00000000
00000000
00000000
00000000
00001000
00000000
00000000
00000000
00000000
00000000
00000000
00000000
00010000
00000000
00000000
00000000
00000000
00000000
00000000
00000000
00000100
00000000
00000000
00000000
00000000
00000000
00000000
00000000
00000000
00000000
00000000
00000000
00000000
00000000
00000000
00000000
,
00001000
00000010
00000100
00000000
00000001
00000000
00001000
00000000
,
00001000
00000000
00000100
00010000
00000100
00010000
00001000
00000000
,
00100000
00000000
00010000
01000000
00010000
01000000
00100000
00000000
,
10000000
01000000
00100000
01000000
,
10000000
00000000
01000000
00000000
00010000
00000000
00001000
00010000
,
00000010
00000000
00001000
00000100
00000010
00000000
00000001
00000100
,
00001000
00000000
00010000
00200000
00000000
00000000
20300000
00000000
,
00000000
00000000
00000000
00000000
00000000
00000000
00000000
00000000
30010000
00000000
00000000
00000000
00000000
00000000
00000000
00000000
20000000
30000000
00000000
00000000
00000000
00000000
00000000
00000000
11000000
00000000
00000000
00000000
00000000
00000000
00000000
00000000
00000000
00000000
00000000
00000000
00000000
00000000
00000000
00000000
01000000
00000000
00000000
00000000
00000000
00000000
00000000
00000000
00010000
00000000
00000000
00000000
00000000
00000000
00000000
00000000
00000000
00000000
00000000
00000000
00000000
00000000
00000000
00000000
,
00010000
00001000
00000000
00000010
00000000
00000001
00001000
00000100
,
00000000
00000000
00000000
00000000
00000000
00000000
00000000
00000000
00002200
00003300
00000000
00000000
00000000
00000000
00000000
00000000
00022000
00033000
00000000
00000000
00000000
00000000
00000000
00000000
01000000
00000000
00000000
00000000
00000000
00000000
00000000
00000000
00000000
00000000
00000000
00000000
01000000
00000000
00000000
00000000
00000000
00000000
00000000
00000000
00000000
00000000
00000000
00000000
00010000
00000000
00000000
00000000
00000000
00000000
00000000
00000000
00000000
00000000
00000000
00000000
00010000
00000000
00000000
00000000
,
00000000
00000000
00000000
00000000
00000000
00000000
00000000
00000000
10000000
00000000
00000000
00000000
00000000
00000000
00000000
00000000
00000000
00000000
00000000
00000000
00000000
00000000
00000000
00000000
00100000
00000000
00000000
00000000
00000000
00000000
00000000
00000000
10000000
00000000
00000000
00000000
00000000
00000000
00000000
00000000
00100000
00000000
00000000
00000000
00000000
00000000
00000000
00000000
00000000
00000000
00000000
00000000
00000000
00000000
00000000
00000000
22000000
33000000
00000000
00000000
00000000
00000000
00000000
00000000
,
00010000
00000000
00000000
00010000
00000000
00000000
00100000
00000000
00000000
00100000
00000000
00000000
00001000
00000000
00000000
00000000
,
00010000
00000000
00000000
00000000
00000000
00000000
00000000
00000000
00000000
00000000
00000000
00000000
00010000
00000000
00000000
00000000
00000000
00000000
00000000
00000000
00000000
00000000
00000000
00000000
00000100
00000000
00000000
00000000
00000000
00000000
00000000
00000000
00000000
00000000
00000000
00000000
00000100
00000000
00000000
00000000
00000000
00000000
00000000
00000000
00000000
00000000
00000000
00000000
00002000
00003000
00000000
00000000
00000000
00000000
00000000
00000000
00002002
00003003
00000000
00000000
00000000
00000000
00000000
00000000
,
00000010
00000000
00000000
00000010
00000000
00000000
00001000
00000000
00000000
00001000
00000000
00000000
00010000
00000000
00000000
00100000
,
00000000
00000000
00000000
00000000
00000000
00000000
00000000
00000000
10000000
00000000
00000000
00000000
00000000
00000000
00000000
00000000
01000000
00000000
00000000
00000000
00000000
00000000
00000000
00000000
00000000
00000000
00000000
00000000
00000000
00000000
00000000
00000000
00020000
00030000
00000000
00000000
00000000
00000000
00000000
00000000
00001000
00000000
00000000
00000000
00000000
00000000
00000000
00000000
00000000
00000000
00000000
00000000
00010000
00000000
00000000
00000000
00000000
00000000
00000000
00000000
00000000
00000000
00000000
00000000
,
00000010
00000000
00000000
00001000
00000000
00000000
00000001
00000000
00000100
00000000
00000001
00000000
00000000
00000000
00000010
00000000
,
00000100
00000000
00000000
00000000
00000000
00000000
00000000
00000000
00000010
00000000
00000000
00000000
00000000
00000000
00000000
00000000
00000000
00000000
00000000
00000000
00000000
00000000
00000000
00000000
00000200
00000300
00000000
00000000
00000000
00000000
00000000
00000000
00002200
00003300
00000000
00000000
00000000
00000000
00000000
00000000
00010000
00000000
00000000
00000000
00000000
00000000
00000000
00000000
00000000
00000000
00000000
00000000
00001000
00000000
00000000
00000000
00000000
00000000
00000000
00000000
00000000
00000000
00000000
00000000
,
00010000
00000000
00000000
01000000
00000000
00000000
10000000
00000000
00000000
01000000
00000000
00000000
00100000
00000000
00010000
00000000
,
00100000
00000000
00000000
00000000
00000000
00000000
00000000
00000000
00002000
00003000
00000000
00000000
00000000
00000000
00000000
00000000
00010000
00000000
00000000
00000000
00000000
00000000
00000000
00000000
00000000
00000000
00000000
00000000
00010000
00000000
00000000
00000000
00000000
00000000
00000000
00000000
00000000
00000000
00000000
00000000
00001000
00000000
00000000
00000000
00000000
00000000
00000000
00000000
00000000
00000000
00000000
00000000
00001000
00000000
00000000
00000000
00000000
00000000
00000000
00000000
00000000
00000000
00000000
00000000
,
00000100
00000001
00000010
00000000
00000100
00001000
00000010
00000000
,
00010000
00000000
00000000
00001000
00000000
00000000
00100000
00000000
00000000
00010000
00000000
00000000
01000000
00000000
00100000
00000000
,
10000000
00000000
00010000
00000000
01000000
00001000
01000000
00001000
,
00020000
00000000
00000000
00000000
,
00000000
00000000
00000000
00000000
,
00030020
00000000
00000000
00000000
,
00000000
00000000
00000000
00000030
,
00001100
00000000
00000000
00000000
,
00000101
00000000
00000000
00000000
,
00000011
00000000
00000000
00000000
00001010
00000000
00000000
00010000
,
00001000
00000000
00000000
00010000
00000000
00000000
00100000
00000000
00000000
10000000
00000000
00000000
01000000
00000000
10000000
00000000
,
00020000
01030000
00000000
00100000
10000000
01000000
00000000
00100000
,
00000000
00001000
00100000
00001000
00010000
00001000
00000000
00000100
,
00000000
00000001
00000000
00001000
00000100
00000010
00000000
00000001
,
00000000
00000100
00000010
00001000
00000100
00010000
00000000
00001000
,
00000000
00100000
00000000
00010000
01000000
00100000
00000000
10000000
,
00000000
00010000
00100000
01000000
10000000
00100000
00000000
00010000
,
00000000
00001000
00000000
00000010
00000100
00001000
00000000
00000001
,
00000100
00000001
00000000
00000010
00001000
00010000
00000000
00200000
,
01300000
00000000
00010000
00100000
01000000
00000000
10000000
00000000
,
00010000
01000000
00100000
10000000
00010000
00000000
00100000
00000000
,
00011000
00000000
00010000
00000100
00001000
00000000
00000010
00000000
,
00001000
00000100
00000010
00000100
00001000
00000000
00000001
00000000
,
00001001
00000000
00000010
00010000
00000100
00000000
00010000
00000000
,
00001000
00100000
00010000
00100000
00001000
00000000
01000000
00100000
,
10000000
00000000
01000000
00100000
00010000
00000000
10000000
01000000
,
00010000
00001000
00000010
00000000
00000100
00000000
00002002
00000000
,
00000000
00000000
00000000
00000000
,
00000000
00000000
00000000
00003003
,
00000000
00000000
00000000
00000000
;

//---------------dance-double - ----------------
#NOTES:
     dance-double:
     :
     Hard:
     15:
     0.758815,0.929444,0.268099,0.259721,0.347691,634.000000,602.000000,32.000000,31.000000,0.000000,0.000000,0.758815,0.929444,0.268099,0.259721,0.347691,634.000000,602.000000,32.000000,31.000000,0.000000,0.000000:
00000000
00000000
00000000
00000000
,
00000000
00000000
00000000
00000000
,
00000000
00000000
00000000
00000000
,
00000000
00000000
00000000
00000000
,
00000000
00000000
00000000
00000000
,
10000000
00010000
00100000
00100000
00001000
00010000
00000100
00000100
,
00001000
00000001
00001000
00001000
00000010
00000100
00000010
00000010
,
00001000
00000001
00000100
00001000
00010000
01000000
10000000
00100000
,
01000000
00010000
00100000
00001000
00010000
00000010
00001000
00000100
,
00000220
00000000
00000000
00000000
00000000
00000330
00000000
00000011
,
00000000
00000000
00000101
00000000
00001100
00000000
00000000
00011000
,
00000000
00000000
01010000
00000000
00000000
11000000
00000000
00000000
,
02200000
00000000
03300000
00000000
00010000
10000000
01000000
01000000
,
00010000
00001000
00010000
00010000
00001000
00000100
00000001
00000001
,
00000010
00000100
00001000
00001000
00000001
00000010
00001000
00010000
,
00100000
10000000
01000000
00010000
00001000
00000100
00000000
00000000
,
00000010
00001000
00000010
00000000
00010000
00001000
00010000
00000000
00001000
00000000
00000000
00000000
00100000
00000000
00000000
00010000
,
00000000
00000000
01000000
00000000
00100000
00000000
10000000
01000000
10000000
00000000
00000000
00000000
00010000
00000000
00000000
01000000
,
00000000
00000000
00010000
00000000
00100000
00000000
00001000
00010000
00001000
00000000
00000000
00000000
00010000
00000000
00000000
00000010
,
00000000
00000000
00001000
00000000
00000100
00000000
00000010
00000001
00000010
00000000
00000000
00000000
00000001
00000000
00000000
00000100
,
00000000
00000010
00001000
00000000
00000100
00000000
00010000
00001000
00010000
00000000
00000000
00000000
00001000
00000000
00000000
01000000
,
00000000
00000000
00010000
00000000
00100000
00000000
01000000
10000000
01000000
00000000
00000000
00000000
10000000
00000000
00000000
01000000
,
00000000
00000000
00010000
00000000
00001000
00000000
00010000
00001000
00010000
00000000
00000000
00000000
00001000
00000000
00000000
00000100
,
00000000
00000000
00000001
00000000
00001000
00000000
00000010
00000100
00000010
00000000
00000000
00000000
00001000
00000000
00000000
00000100
,
00000000
00010000
00001000
00000000
00100000
00000000
00010000
01000000
00010000
00000000
00000000
00000000
01010000
00000000
00000000
10000000
,
00000000
00000000
00100000
00000000
01000000
00000000
00010000
00100000
00001000
00000000
00000000
00000000
00011000
00000000
00000000
00000100
,
00000000
00000000
00001000
00000000
00000001
00000000
00000010
00000001
00001000
00000000
00000000
00000000
00001100
00000000
00000000
00010000
,
00000000
00000000
00001000
00000000
00010000
00000000
00001000
00100000
00010000
00000000
00000000
00000000
00110000
00000000
00000000
10000000
,
00000000
00100000
01000000
00000000
00010000
00000000
10000000
00100000
01000000
00000000
00000000
00000000
01010000
00000000
00000000
00100000
,
00000000
00000000
00001000
00000000
00010000
00000000
00000010
00001000
00000001
00000000
00000000
00000000
00000101
00000000
00000000
00000010
,
00000000
00000000
00000001
00000000
00001000
00000000
00000100
00010000
00001000
00000000
00000000
00000000
00011000
00000000
00000000
01000000
,
00000000
00000000
00010000
00000000
00100000
00000000
01000000
00100000
01000000
00000000
00000000
00000000
10000000
01000000
10000000
00000000
,
00010000
00000000
00000000
00000000
00100000
00000000
00000000
00000000
00010000
00000000
00000000
00000000
00000000
00000000
00000000
00000000
00100000
00000000
00000000
00000000
00001000
00000000
00000000
00000000
00100000
00000000
00000000
00000000
00000000
00000000
00000000
00000000
00002000
00003000
00000000
00000000
00000000
00000000
00000000
00000000
00010000
00000000
00000000
00000000
00000000
00000000
00000000
00000000
00010000
00000000
00000000
00000000
00000000
00000000
00000000
00000000
00000010
00000000
00000000
00000000
00000000
00000000
00000000
00000000
,
00001000
00001000
00000001
00000010
00000010
00001000
00010000
00010000
,
00100000
10000000
00010000
01000000
01000000
00100000
10000000
10000000
,
01000000
00010000
00010000
00001000
00000100
00000100
00000001
00000010
,
00000010
00000010
00000000
00000100
00000100
00001000
00000100
00000100
,
00010000
00001000
00001000
01000000
00010000
00010000
10000000
00100000
,
01000000
00010000
00100000
00001000
00010000
00010000
00000010
00001000
,
00001000
00000100
00000010
00000010
00000001
00001000
00001000
00000100
,
00010000
00000000
00000000
00000000
00000000
00000000
00000000
00000000
00001000
00000000
00000000
00000000
00010000
00000000
00000000
00000000
00001000
00000000
00000000
00000000
00010000
00000000
00000000
00000000
00002000
00003000
00000000
00000000
00000000
00000000
00000000
00000000
00100000
00000000
00000000
00000000
00000000
00000000
00000000
00000000
00100000
00000000
00000000
00000000
00000000
00000000
00000000
00000000
00010000
00000000
00000000
00000000
00000000
00000000
00000000
00000000
10000000
00000000
00000000
00000000
00000000
00000000
00000000
00000000
,
10000000
00100000
01000000
01000000
00010000
00100000
00100000
00001000
,
00010000
00001000
01000000
01000000
00001000
00010000
00010000
00000010
,
00001000
00001000
00000001
00000100
00000100
00001000
00010000
00100000
,
00010000
00000000
00001000
00001000
00010000
00000100
00000100
00010000
,
00001000
00001000
00100000
00010000
00010000
10000000
00100000
10000000
,
00010000
10000000
01000000
00100000
00100000
00001000
00010000
00010000
,
00001000
00010000
00001000
00000200
00000000
00000301
00000020
00000000
,
00001030
00000000
00000000
00000000
00000000
00000000
00000000
00000000
00010000
00000000
00000000
00000000
00000000
00000000
00000000
00000000
00002000
00003000
00000000
00000000
00000000
00000000
00000000
00000000
00101000
00000000
00000000
00000000
00000000
00000000
00000000
00000000
00001000
00000000
00000000
00000000
00100000
00000000
00000000
00000000
00001000
00000000
00000000
00000000
00000000
00000000
00000000
00000000
01000000
00000000
00000000
00000000
00000000
00000000
00000000
00000000
00010000
00000000
00000000
00000000
01000000
00000000
00000000
00000000
,
00010000
00000000
10000000
00000000
01000000
00000000
00100000
00000000
00010000
00000000
01000000
00000000
00001000
00000000
00010000
00001000
,
00010000
00000000
00000000
00000000
00000000
00000000
00000000
00000000
00022000
00033000
00000000
00000000
00000000
00000000
00000000
00000000
00002200
00003300
00000000
00000000
00000000
00000000
00000000
00000000
00000010
00000000
00000000
00000000
00000000
00000000
00000000
00000000
00000001
00000000
00000000
00000000
00000100
00000000
00000000
00000000
00000001
00000000
00000000
00000000
00000000
00000000
00000000
00000000
00001000
00000000
00000000
00000000
00000000
00000000
00000000
00000000
00000010
00000000
00000000
00000000
00000100
00000000
00000000
00000000
,
00000010
00000000
00000000
00000000
00000000
00000000
00000000
00000000
00001000
00000000
00000000
00000000
00000000
00000000
00000000
00000000
00000100
00000000
00000000
00000000
00010000
00000000
00000000
00000000
00000100
00000000
00000000
00000000
00000000
00000000
00000000
00000000
00010000
00000000
00000000
00000000
00000000
00000000
00000000
00000000
00001000
00000000
00000000
00000000
00010000
00000000
00000000
00000000
00001000
00000000
00000000
00000000
00000000
00000000
00000000
00000000
00022000
00033000
00000000
00000000
00000000
00000000
00000000
00000000
,
01000000
00000000
00010000
00100000
00010000
00000000
10000000
00000000
00100000
01000000
00100000
00000000
01100000
00000000
00000000
00000000
,
10000000
00000000
00000000
00000000
00000000
00000000
00000000
00000000
01000000
00000000
00000000
00000000
00000000
00000000
00000000
00000000
00010000
00000000
00000000
00000000
00000000
00000000
00000000
00000000
00001000
00000000
00000000
00000000
00000000
00000000
00000000
00000000
00000100
00000000
00000000
00000000
00000000
00000000
00000000
00000000
00000001
00000000
00000000
00000000
00000000
00000000
00000000
00000000
00000022
00000033
00000000
00000000
00000000
00000000
00000000
00000000
00002020
00003030
00000000
00000000
00000000
00000000
00000000
00000000
,
00010000
00000000
00001000
00010000
00001000
00000000
00100000
00000000
00010000
01000000
00010000
00000000
10000000
00000000
00100000
00000000
,
01000000
00000000
00000000
00000000
00000000
00000000
00000000
00000000
00010000
00000000
00000000
00000000
00000000
00000000
00000000
00000000
00100000
00000000
00000000
00000000
00000000
00000000
00000000
00000000
00001000
00000000
00000000
00000000
00010000
00000000
00000000
00000000
00002000
00003000
00000000
00000000
00000000
00000000
00000000
00000000
00010000
00000000
00000000
00000000
00000000
00000000
00000000
00000000
00000100
00000000
00000000
00000000
00001000
00000000
00000000
00000000
00000100
00000000
00000000
00000000
00000000
00000000
00000000
00000000
,
00010000
00000000
00001000
00010000
00001000
00000000
01000000
00000000
01000000
00000000
00001000
00000000
00010000
00001000
00010000
00000000
,
00000100
00000000
00000000
00000000
00000000
00000000
00000000
00000000
00000100
00000000
00000000
00000000
00000000
00000000
00000000
00000000
00001000
00000000
00000000
00000000
00000010
00000000
00000000
00000000
00002000
00003000
00000000
00000000
00000000
00000000
00000000
00000000
00002020
00003030
00000000
00000000
00000000
00000000
00000000
00000000
00010000
00000000
00000000
00000000
00000000
00000000
00000000
00000000
00001000
00000000
00000000
00000000
00010000
00000000
00000000
00000000
00001000
00000000
00000000
00000000
00000000
00000000
00000000
00000000
,
00100000
00000000
00010000
00100000
00010000
00000000
00100000
00000000
00001000
00010000
00001000
00000000
00010000
00000000
00000100
00001000
,
00000100
00000000
00000000
00000000
00000000
00000000
00000000
00000000
00002200
00003300
00000000
00000000
00000000
00000000
00000000
00000000
00010000
00000000
00000000
00000000
00000000
00000000
00000000
00000000
00001000
00000000
00000000
00000000
00010000
00000000
00000000
00000000
00001000
00000000
00000000
00000000
00000000
00000000
00000000
00000000
00100000
00000000
00000000
00000000
00000000
00000000
00000000
00000000
00010000
00000000
00000000
00000000
01000000
00000000
00000000
00000000
00010000
00000000
00000000
00000000
00000000
00000000
00000000
00000000
,
10000000
00000000
00100000
00000000
00010000
00000000
00001000
00000000
00000010
00000000
00000001
00000000
00000010
00000000
00000000
00000100
,
00001000
00000000
00000000
00000001
00000000
00000100
00001000
00000000
00010000
00001000
00010000
00000000
00001000
00000000
01000000
00010000
,
01000000
00100000
10000000
01000000
00010000
00001000
00000100
00000001
,
00000020
00000000
00000000
00000000
,
00000000
00000000
00000000
00000000
,
00000230
00000000
00000000
00000000
,
00000000
00000000
00000000
00000300
,
00001100
00000000
00000000
00000000
,
00011000
00000000
00000000
00000000
,
10100000
00000000
00000000
00000000
01010000
00000000
00000000
00001000
,
00010000
00000000
00000000
00001010
00000000
00000000
00000011
00000000
00000000
00000101
00000000
00000000
00001000
00000000
00000100
00000000
,
00020000
00000000
00031000
00000000
00010000
00000000
00001000
00000000
00010000
00000000
01000000
00000000
10000000
01000000
10000000
00000000
,
00000000
00000000
00100000
00000000
10000000
00000000
01000000
00000000
00100000
00000000
00010000
00000000
01000000
00001000
01000000
00000000
,
00000000
00001000
00010000
00001000
00000100
00000001
00000100
00000010
,
00001000
00000000
00000100
00000000
00010000
00001000
00010000
00000000
00001000
00000000
00100000
00000000
00010000
01000000
00010000
00000000
,
00000000
00000000
10000000
00000000
00100000
00000000
01000000
00000000
00010000
00000000
00100000
00000000
00001000
00010000
00001000
00000000
,
00000000
00000000
00010000
00000000
00000010
00000000
00000100
00000000
00000001
00000000
00000010
00000000
00000100
00000010
00000100
00000000
,
00000000
00000000
00001000
00000000
00000100
00000000
00010000
00000000
00001000
00000000
00010000
00001000
00010000
00000000
00001000
00000000
,
00010000
00000000
01000000
00000000
10000000
00000000
00010000
00000000
00100000
00000000
00001000
00000000
00010000
00001000
00020000
00000000
,
00031000
00010000
00000010
00001000
00000100
00000010
00000001
00000100
,
00001000
00000000
00010000
00000000
00001000
00000000
00100000
00000000
00010000
00000000
01000000
00010000
01000000
00000000
00000000
00000000
,
00100000
10000000
00010000
01000000
00010000
00100000
00001000
00010000
,
00001000
00000000
00000100
00000000
00000001
00000000
00000010
00000000
00000100
00000000
00001000
00000100
00001000
00000000
00000000
00000000
,
00000100
00000000
00010000
00000000
00001000
00000000
00100000
00000000
00010000
00000000
10000000
00000000
00100000
01000000
00100000
00000000
,
10000000
00000000
01000000
00100000
01000000
00000000
00010000
00000000
00001000
00000000
00000100
00000000
00000001
00000000
00000010
00000000
,
00000001
00000000
00000010
00000000
00000100
00000000
00001000
00000000
00000100
00000000
00010000
00000000
00001000
00100000
00010000
00000000
,
01000000
00000000
00100000
00000000
10000000
00010000
01000000
00000000
00001000
00000000
00010000
00000000
00022000
00000000
00000000
00000000
,
00000000
00000000
00000000
00000000
,
00000000
00000000
00000000
00033000
,
00000000
00000000
00000000
00000000
;

//---------------dance-single - ----------------
#NOTES:
     dance-single:
     :
     Challenge:
     18:
     1.036489,1.226866,0.318367,0.100537,1.340494,866.000000,828.000000,38.000000,12.000000,0.000000,0.000000,1.036489,1.226866,0.318367,0.100537,1.340494,866.000000,828.000000,38.000000,12.000000,0.000000,0.000000:
// measure 0
0000
0000
0000
0000
,  // measure 1
0000
0000
0000
0000
,  // measure 2
0000
0000
0000
0000
,  // measure 3
0000
0000
0000
0000
,  // measure 4
0000
0000
0000
0000
,  // measure 5
0001
0100
1000
0100
0010
1000
0001
1000
0001
1000
0010
0100
0010
0100
0001
0010
,  // measure 6
0001
1000
0010
0100
0010
1000
0010
0100
0001
1000
0001
0100
0010
0100
1000
0001
,  // measure 7
0100
0001
1000
0001
0100
0001
1000
0010
0100
0010
1000
0001
0010
1000
0010
0100
,  // measure 8
0001
0100
1000
0010
0001
0100
0010
1000
0001
1000
0010
0100
1000
0100
0001
0010
,  // measure 9
0200
0000
0000
0000
1300
0010
0100
0001
2000
0000
0000
3000
0000
0000
1100
0000
,  // measure 10
0000
0000
0011
0000
0101
0000
0000
1010
,  // measure 11
0000
0000
0110
0000
0000
1001
0000
0000
,  // measure 12
0110
0000
1010
0100
,  // measure 13
0001
1000
0010
1000
0100
0010
0100
1000
0010
0100
0010
0001
0010
1000
0010
0100
,  // measure 14
0001
0010
0001
0100
0001
0010
1000
0010
0100
0010
0001
0100
0010
1000
0001
1000
,  // measure 15
0100
0010
0100
1000
0010
1000
0001
0010
0100
0010
0100
0010
0100
0000
0000
0000
,  // measure 16
1000
0010
0100
0001
1000
0100
0010
0001
0100
0000
0000
0000
1001
0000
0000
0010
,  // measure 17
1000
0000
0100
0000
1000
0000
0001
0000
0100
0000
0000
0000
0110
0000
0000
0010
,  // measure 18
1000
0000
0100
0000
1000
0000
0001
0100
0001
0000
0000
0000
0011
0000
0000
0010
,  // measure 19
0100
0000
1000
0000
0010
0000
0100
0000
0001
0000
0000
0000
1000
0010
0000
0100
,  // measure 20
0000
0100
0001
0000
0010
0000
0100
0000
1000
0000
0000
0000
1100
0000
0000
0100
,  // measure 21
0010
0000
0001
0000
1000
0000
0001
0000
0100
0000
0000
0000
0101
0000
0000
0010
,  // measure 22
1000
0010
0100
0000
0001
0000
0010
0100
1000
0000
0000
0000
1010
0000
0000
0100
,  // measure 23
0001
0100
0010
0000
1000
0000
0001
1000
0100
0000
0000
0000
0010
0001
0000
1000
,  // measure 24
0000
1000
0010
0000
0200
0000
0301
0010
0100
0000
0000
0000
1000
0001
0010
0100
,  // measure 25
0000
0100
1000
0000
0001
0000
0100
0000
0010
0000
0000
0000
1000
0000
0000
0100
,  // measure 26
1000
0000
0001
0000
0010
0000
0100
1000
0001
0000
0000
0000
0100
0010
0000
0100
,  // measure 27
0000
0001
1000
0000
0010
0000
0100
0000
0001
0000
0000
0000
0010
0001
0000
1000
,  // measure 28
0000
1000
0010
0000
0100
0001
1000
0000
0100
0000
0000
0000
1000
0010
0100
0001
,  // measure 29
0000
0010
0001
0000
0100
0000
0010
0000
1000
0000
0000
0000
0001
0010
0000
0001
,  // measure 30
0000
0100
0010
0000
1000
0000
0100
1000
0001
0000
0000
0000
0010
0001
0000
0100
,  // measure 31
0000
0010
1000
0000
0001
0100
0010
1000
0001
0000
0000
0000
1000
0010
1000
0100
,  // measure 32
0010
0000
0001
0000
0100
0000
1000
0000
0110
0000
1001
0000
0010
1000
0100
0010
,  // measure 33
0001
0000
0100
0010
0000
0010
1000
0000
0100
0000
0001
0010
0000
0001
0000
1000
,  // measure 34
0010
0000
0100
0000
0001
1000
0100
0000
0010
0000
0100
0000
1000
0001
0000
1000
,  // measure 35
0001
0000
0010
0001
0000
0001
0100
0000
0010
0000
1000
0000
0100
0010
0000
0100
,  // measure 36
1000
0000
0001
0000
0010
0001
1000
0000
0000
0000
0100
0000
1000
0010
1000
0001
,  // measure 37
0100
0000
0001
0000
0010
0100
1000
0000
0001
0000
0100
0010
0000
0010
0000
0010
,  // measure 38
0100
0000
0001
0010
0001
0100
1000
0000
0010
0000
0100
0000
0001
0010
0001
0000
,  // measure 39
0100
0000
1000
0000
0010
0100
0001
0000
0010
0000
0100
0000
1000
0001
0000
1000
,  // measure 40
0100
0000
1000
0010
0100
0001
1000
0000
0101
0000
0010
1000
0100
0000
0010
0000
,  // measure 41
0001
1000
0001
0100
0010
1000
0010
0100
0001
0000
0010
0100
0000
0100
1000
0000
,  // measure 42
0100
1000
0001
0000
0100
0010
0100
0001
1000
0000
0001
0010
0100
1000
0010
0000
,  // measure 43
0100
0001
0000
0100
0001
0000
0010
0000
0100
0000
1000
0010
0000
0010
0001
0000
,  // measure 44
0100
0010
0100
0010
1000
0000
0000
0000
0001
0010
0100
1000
0000
0000
0010
0000
,  // measure 45
0010
0100
0000
0100
0001
0000
0010
0000
0001
0000
0100
0010
0000
0010
1000
0000
,  // measure 46
0100
0000
1000
0001
0010
0000
0100
1000
0010
0000
0100
0001
0000
0010
0100
0000
,  // measure 47
1000
0010
1000
0001
0100
0000
1020
0000
0130
0001
1000
0000
1200
0000
0310
0001
,  // measure 48
0100
0000
2001
0000
3001
0000
0011
0000
0010
0100
0000
0100
1000
0000
1000
0010
,  // measure 49
0000
0010
0001
0100
0000
0000
0100
0010
0000
1000
0000
0001
0010
0000
0001
0100
,  // measure 50
0000
0010
1000
0000
0110
0000
0001
0010
0000
0001
0000
0100
0010
0000
1000
0100
,  // measure 51
0000
0010
0001
0000
0100
0010
0000
0010
1000
0000
0001
1000
0000
1000
0100
0000
,  // measure 52
1000
0010
0000
0100
0000
0100
0001
0000
0010
0001
0000
0001
1000
0000
0000
0000
,  // measure 53
0001
0100
0000
0010
0000
0100
0001
0000
1000
0100
0000
0100
1000
0000
0011
0000
,  // measure 54
0100
0001
0010
0100
1000
0000
0010
1000
0001
1000
0100
0000
0010
0000
0001
0000
,  // measure 55
0100
0010
1000
0000
0001
0010
0001
0100
1000
0000
0010
0100
0000
0100
0000
0100
,  // measure 56
0001
0000
0010
0001
0000
0001
1000
0000
0010
0000
0100
0001
0000
0001
0000
0010
,  // measure 57
0100
0000
1000
0001
0000
0010
0100
0000
1001
0000
0010
1000
0000
0100
0000
0100
,  // measure 58
0001
0000
0010
0001
0000
0010
0100
0000
1000
0001
0000
1000
0100
0000
0010
0001
,  // measure 59
0000
1000
0001
0000
0010
0001
0000
0010
0000
0100
1000
0000
0001
0100
0010
1000
,  // measure 60
0100
0000
0010
0000
0010
0000
0000
0001
0000
1000
0001
0000
0100
0010
0000
1000
,  // measure 61
0001
0000
0000
0010
0000
0001
0100
0000
0010
1000
0010
0100
0001
0000
1000
0100
,  // measure 62
0020
0000
0000
0000
0031
1000
0010
0100
0010
0001
0100
1000
0010
0001
1000
0100
,  // measure 63
0010
0001
0100
0000
0010
1000
0100
0000
,  // measure 64
0010
0001
0100
0000
0010
1000
0100
0000
,  // measure 65
1000
0010
0001
0000
1000
0100
0001
0000
,  // measure 66
1000
0010
0001
0000
1000
0100
0001
0000
,  // measure 67
0011
0000
0000
0000
0100
1000
0100
1000
0010
1000
0010
1000
0001
1000
0001
1000
,  // measure 68
0100
0000
0010
0001
0100
0000
0010
0000
1000
0001
1000
0001
0010
0100
1000
0001
,  // measure 69
0100
0010
0100
0001
0010
0100
1000
0000
0001
0010
0001
0100
0010
1000
0001
0000
,  // measure 70
1100
0000
0000
0101
0000
0000
1100
0000
0000
0101
0000
0000
1001
0000
0110
0000
,  // measure 71
1001
0000
1010
0000
0100
0001
0000
0010
0100
0000
1000
0010
0000
0001
1000
0000
,  // measure 72
0100
0010
0001
0100
0000
0001
0000
0001
1000
0000
0100
0010
0001
1000
0001
0100
,  // measure 73
0000
0000
0110
0000
0010
1000
0100
0000
0010
0000
0001
1000
0000
0000
0100
0000
,  // measure 74
0100
0000
0100
0000
0000
1000
0000
0000
0001
0000
0001
0000
0010
0001
0100
0010
,  // measure 75
0000
0000
1010
0000
0100
0001
0000
0001
1000
0000
0100
0010
0100
1000
0001
0000
,  // measure 76
0010
0001
0100
0000
0010
0000
1000
0100
1000
0000
0001
0010
0001
0100
0010
0000
,  // measure 77
0000
0000
2000
0000
3002
0000
0013
0000
0001
0000
0100
0010
1000
0001
0100
0000
,  // measure 78
0010
0000
0010
0000
0000
2000
0000
0000
3001
0010
0100
0000
1000
0001
0100
0000
,  // measure 79
0101
0000
1000
0010
1000
0000
0100
0000
0010
0001
1000
0000
0100
0000
0010
0001
,  // measure 80
0100
0000
0010
0000
1000
0001
1000
0000
0001
0010
0100
1000
0001
0000
0000
0000
,  // measure 81
0011
0000
0100
1000
0000
0010
1000
0000
0100
0010
0000
0010
0001
0000
0100
0000
,  // measure 82
0100
0000
0000
0010
0000
0000
1000
0000
1000
0000
1000
0100
0001
0000
0000
0000
,  // measure 83
0010
0001
0000
0010
0100
0000
1000
0000
1000
0000
0010
0100
0001
0000
0010
0000
,  // measure 84
1001
0000
0000
0000
1000
0100
0010
0000
0001
0000
0000
0000
1000
0010
0001
0100
,  // measure 85
0010
0001
1000
0100
0010
1000
0001
1000
0100
0001
0010
0100
0001
0010
1000
0100
,  // measure 86
0010
0001
0100
0001
0010
0001
1000
0100
1000
0010
0100
2000
0002
0000
0000
0000
,  // measure 87
0000
0000
0000
0000
,  // measure 88
0000
0000
0000
3003
;
