#TITLE:BLACK JACKAL;
#ARTIST:Akira Complex;
#BANNER:BLACK JACKAL.png;
#BACKGROUND:BLACK JACKAL-bg.png;
#JACKET:BLACK JACKAL-jacket.png;
#MUSIC:BLACK JACKAL.ogg;
#SAMPLESTART:84.777;
#SAMPLELENGTH:20;
#DISPLAYBPM:150;
#BPMS:0=150;
#BGCHANGES:;

//---------------dance-single - ----------------
#NOTES:
     dance-single:
     :
     Beginner:
     3:
     :
0000
0000
0000
0000
,
0000
0000
0000
0000
,
0000
0000
0000
0000
,
0000
0000
0000
0000
,
0000
0000
0000
0000
,
0000
0000
0000
0000
,
0000
0000
0000
0000
,
0000
0000
0000
0000
,
0000
0000
0000
0000
,
0010
0000
1000
0000
,
0010
0000
0000
0000
,
0100
0000
0001
0000
,
0100
0000
0000
0000
,
0010
0000
0100
0000
,
0010
0000
0000
0000
,
1000
0000
0001
0000
,
1000
0000
0000
0000
,
1001
0000
0000
0000
,
0010
0010
0010
0000
,
1001
0000
0000
0000
,
0100
0100
0100
0000
,
1001
0000
0000
0000
,
1000
1000
1000
0000
,
1001
0000
0000
0000
,
0001
0001
0001
0000
,
0200
0000
0300
0000
,
0010
0000
0100
0000
,
0002
0000
0003
0000
,
0010
0000
0100
0000
,
2000
0000
3000
0000
,
0100
0000
0010
0000
,
0200
0000
0300
0000
,
0020
0000
0030
0000
,
0001
0000
0001
0000
,
1000
0000
1000
0000
,
0001
0000
0001
0000
,
0100
0100
0100
0000
,
0010
0000
0000
0000
,
0010
0000
0000
0000
,
1000
0000
0000
0000
,
1000
0000
0000
0000
,
0001
0000
0000
0000
,
0001
0000
0000
0000
,
0100
0000
0000
0000
,
0100
0000
0000
0000
,
0010
0000
0010
0000
,
1000
0000
1000
0000
,
0001
0000
0001
0000
,
0100
0000
0100
0000
,
0010
0010
0010
0000
,
1000
1000
1000
0000
,
0001
0001
0001
0000
,
0200
0000
0300
0000
,
0010
0000
0010
0000
,
1000
0000
0100
0000
,
0010
0000
0010
0000
,
0001
0000
0100
0000
,
0001
0000
0001
0000
,
1000
0000
0010
0000
,
1000
0000
1000
0000
,
0001
0000
0010
0000
,
0100
0000
0100
0000
,
0010
0000
0001
0000
,
0100
0000
0100
0000
,
0010
0000
1000
0000
,
0100
0000
0100
0000
,
1000
0000
0001
0000
,
0100
0000
0100
0000
,
0001
0000
1000
0000
,
1001
0000
0000
0000
,
0000
0000
0000
0000
;

//---------------dance-single - ----------------
#NOTES:
     dance-single:
     :
     Easy:
     7:
     :
0000
0000
0000
0000
,
0000
0000
0000
0000
,
0000
0000
0000
0000
,
0000
0000
0000
0000
,
0000
0000
0000
0000
,
1000
0100
1000
0010
,
1000
0001
0100
0001
,
0010
0100
1000
0001
,
0100
0010
1000
0001
,
1001
0100
0010
1000
,
0100
0000
0100
0000
0010
0100
0010
0000
,
0001
1000
0001
0100
,
0010
0000
0010
0000
0100
0010
0100
0000
,
1001
0010
0100
0001
,
0010
0001
0010
0000
0100
0000
0100
0000
,
1000
0100
1000
0000
0010
0000
0010
0000
,
0100
0010
2002
3003
,
0020
0000
0100
0130
,
0010
1000
0001
0100
,
0002
0000
1000
1003
,
0010
0100
0001
0010
,
0200
0000
0010
0310
,
0001
1000
0010
0110
,
0001
1000
0010
0100
,
0010
0000
0010
0000
0100
0010
0100
0000
,
0001
0010
0100
0110
,
0000
0001
1000
0100
,
1000
0010
0100
0110
,
0000
1000
0001
0100
,
0010
0010
0100
0110
,
0000
1000
0001
0100
,
0001
0010
0001
0000
1000
0010
1000
0000
,
0010
0100
0001
1000
,
0001
0100
0001
0100
,
0010
1000
0010
1000
,
0100
0010
0100
0010
,
0100
0010
0100
0000
1001
0000
0000
0000
,
2000
0000
0000
0000
,
3002
0000
0000
0000
,
0023
0000
0000
0000
,
0230
0000
0000
0000
,
0310
0001
0010
0000
,
0100
1000
0100
0000
,
1000
0010
1000
0000
,
0001
0100
0001
0000
,
1000
0100
0010
0001
,
0100
0001
0100
0001
,
1000
0010
0100
0001
,
0010
0100
0010
0000
0100
0010
0100
0000
,
1000
0001
1000
0001
,
0100
0010
0100
0010
,
1000
0100
0010
0001
,
0220
0000
0000
0330
,
0010
0010
1000
0001
,
0010
0000
0010
0000
0100
0010
0100
0000
,
0010
0001
0100
0010
,
1000
0000
1000
0000
0001
1000
0001
0000
,
0200
0310
1000
0001
,
0010
0000
0010
0000
0100
0010
0100
0000
,
2000
3000
0002
0003
,
1000
0100
0010
1001
,
1000
0100
1000
0010
,
0100
0001
0010
0000
0100
1000
0010
0000
,
0100
0001
1000
0001
,
0010
0001
0100
0000
0010
1000
0100
0000
,
0000
1000
0010
0010
,
0100
0010
0100
0000
0010
0100
0010
0000
,
1000
0001
0100
0100
,
0010
1000
0001
0000
0100
0001
1000
0000
,
0110
0000
0000
0000
,
0000
0000
0000
0000
;

//---------------dance-single - ----------------
#NOTES:
     dance-single:
     :
     Medium:
     11:
     :
0000
0000
0000
0000
,
0000
0000
0000
0000
,
0000
0000
0000
0000
,
0000
0000
0000
0000
,
0000
0000
0000
0000
,
0000
0001
0000
1100
0000
0010
0000
0101
,
0000
0001
0000
0110
0000
1000
0000
1001
,
0000
0110
0000
0011
0000
0100
0000
1100
,
0000
0010
0000
0101
0000
0010
0100
0000
,
1001
0000
1000
0001
0100
0000
0110
0000
,
0010
1000
0100
0010
0001
0100
0010
0000
,
0100
0000
0010
1000
0100
0000
1001
0000
,
0110
0000
0100
0010
1000
0001
0100
0010
,
0100
0000
0001
0100
0010
0000
1001
0000
,
0001
1000
0100
0010
0001
1000
0001
0100
,
0010
0000
0100
0010
0100
0000
0110
0000
,
0001
1000
0100
0010
0002
0000
2003
0000
,
3001
0000
0000
0100
0000
0010
1000
0000
0100
0000
0000
0000
0110
0000
0000
0000
,
0001
0100
1000
0100
0001
0000
0110
0000
,
0001
0000
0000
0010
0000
0100
0010
0000
0001
0000
0000
0000
1001
0000
0000
0000
,
1000
0100
0001
0100
1000
0010
0100
0001
,
0100
0000
0000
0010
0000
0100
0010
0000
1000
0000
0000
0000
1001
0000
0000
0000
,
0001
0010
1000
0010
0002
0000
2003
0000
,
3001
0000
0100
0010
0100
0000
1010
0000
,
0101
0000
0001
0010
0100
1000
0100
0010
,
0001
0000
0000
0100
0000
0010
0100
0000
0010
0000
0000
0000
0110
0000
0000
0000
,
0001
1000
0100
0010
0001
0100
0010
0100
,
0110
0000
0000
0010
0000
1000
0001
0000
1000
0000
0000
0000
1001
0000
0000
0000
,
0100
0010
1000
0001
1000
0010
0100
0001
,
1001
0000
0000
0100
0000
0010
0100
0000
0010
0000
0000
0000
1001
0000
0000
0000
,
1000
0010
0001
0010
2000
0000
3002
0000
,
1003
0000
0010
1000
0001
0000
1001
0000
,
0110
0000
0001
0010
1000
0001
0100
1000
,
0001
0100
0001
0000
1000
0100
1000
0000
,
0010
0100
0010
0000
1000
0001
1000
0000
,
0001
0010
0001
0010
0100
1000
0100
1000
,
0010
0100
0010
0100
0020
0000
0130
0000
,
0010
1000
0010
0010
,
0100
0001
0010
0010
,
0100
1000
0001
0100
,
0010
0000
0010
0000
0100
0100
0100
0000
,
1001
0000
0001
1000
0100
0000
0100
0000
,
1000
0010
0100
0001
,
1001
0000
1000
0001
0100
0000
0100
0000
,
0001
0000
0010
0100
1000
0010
0100
0010
,
0110
0000
1000
0010
0001
0000
0010
0000
,
0110
0000
0100
0010
1000
0001
0010
0000
,
0110
0000
0001
0010
1000
0000
0010
0000
,
0110
0000
0100
0010
0001
1000
0010
0100
,
0110
0000
0001
0100
1000
0000
0100
0000
,
0001
0100
1000
0001
0010
1000
0001
0000
,
0110
0000
1000
0100
0001
0000
0110
0000
,
1000
0000
0000
0001
0000
0000
1000
0000
0000
0000
0001
0000
1001
0000
0000
0000
,
1000
0100
1000
0000
1000
0100
1000
0000
,
0010
0100
0010
1000
0001
0010
0100
0000
,
0001
0010
0001
0000
0001
0100
0001
0000
,
0100
0010
0100
0001
1000
0100
0010
0001
,
2000
0000
3001
0000
1000
0100
0001
0000
,
1000
0100
0001
0100
1000
0100
0010
0000
,
0001
0100
1000
0000
0001
0100
1000
0000
,
0001
0010
0001
1000
0100
0010
0200
0000
,
0310
0000
0010
0001
0100
0000
0110
0000
,
0010
1000
0010
0100
0010
0001
0010
0000
,
1001
0000
0100
0001
0010
0000
1001
0000
,
0100
0001
0100
0010
0100
1000
0100
0010
,
0220
0000
0000
0000
0330
0000
0000
0000
0000
1000
0000
0000
0001
0000
0000
0010
,
0001
0010
0001
0000
1000
0100
1000
0000
,
0010
0000
0010
1000
0100
0000
0110
0000
,
0010
0001
0010
0100
0010
1000
0010
0001
,
0200
0000
0000
0000
,
0300
0000
0000
0000
,
0000
0000
0000
0000
;

//---------------dance-single - ----------------
#NOTES:
     dance-single:
     :
     Hard:
     15:
     :
0000
0000
0000
0000
,
0000
0000
0000
0000
,
0000
0000
0000
0000
,
0000
0000
0000
0000
,
0000
0000
0000
0000
,
0000
0010
0001
0100
0000
0010
1000
0100
,
0000
1000
0001
0100
0000
0001
1000
0100
,
0000
0011
0000
1100
0000
0010
1000
0001
,
0000
0000
0010
0000
0001
0000
0100
0000
0000
0000
0000
0001
0010
0100
0000
0000
,
2000
0000
0000
0000
3001
0000
0100
0010
1000
0000
0000
0000
0110
0000
0000
0000
,
0001
0100
0100
0010
1000
1000
0100
0010
,
0002
0000
0000
0000
1003
0000
0001
0100
0010
0000
0000
0000
1001
0000
0000
0000
,
2000
0000
0000
0000
3001
0000
0100
0010
1000
0000
0100
0000
0010
0001
0010
0100
,
1000
0100
0100
0010
0001
0001
0100
0010
,
1000
0001
0001
0010
0100
0100
1000
0001
,
1000
0100
0010
0000
0001
0100
0010
0000
1000
0100
0010
0000
0001
0100
0010
0000
,
0100
0001
0100
0001
1000
0100
1000
0100
0010
0000
0110
0000
0010
0001
1000
0000
,
1001
0000
0001
0100
0000
0100
0010
0000
2000
0000
0000
0000
3001
0000
0000
0000
,
1001
0000
1000
0100
0000
0100
0010
0000
0002
0000
0000
0000
1003
0000
0000
0000
,
1001
0000
1000
0100
0000
0100
0001
0000
0200
0000
0000
0000
0310
0000
0000
0000
,
0000
0001
0100
0001
0000
0010
0100
0000
1000
0000
0010
0000
0100
0000
0001
0000
,
1001
0000
0001
0100
0000
0010
1000
0000
0200
0000
0000
0000
0310
0000
0000
0000
,
0000
0010
0001
1000
0000
0010
0100
0000
0002
0000
0000
0000
2003
0000
0000
0000
,
3001
0000
0000
0000
0110
0000
0100
0010
2000
0000
0000
0000
3001
0000
0000
0000
,
1100
0000
0100
1000
0010
0001
0010
1000
,
0110
0000
1000
0100
0000
0100
0001
0000
0200
0000
0000
0000
1300
0000
0000
0000
,
0000
0001
0100
0010
0000
0010
1000
0000
0010
0000
1000
0100
0001
0000
0100
0000
,
1000
0000
0001
1000
0000
1000
0001
0000
2000
0000
0000
0000
3001
0000
0000
0000
,
0000
0001
0010
0100
0000
0100
1000
0000
0001
0000
0010
0000
0100
0000
1000
0000
,
1001
0000
0010
1000
0000
1000
0010
0000
0200
0000
0000
0000
0310
0000
0000
0000
,
0000
1000
0100
0001
0000
0100
1000
0000
0002
0000
0000
0000
2003
0000
0000
0000
,
3001
0000
0000
0000
1001
0000
0010
0100
0010
0000
0000
0000
0110
0000
0000
0000
,
1001
0000
0000
0000
1000
0100
0010
0001
1000
0000
0010
0000
0100
0000
0001
0000
,
1000
0000
0100
0000
1000
0100
1000
0000
0010
0000
0100
0000
0010
0100
0010
0000
,
0100
0000
0001
0000
0100
0001
0100
0000
0001
0000
0010
0000
0001
0010
0001
0000
,
1000
0100
1000
0000
0010
0100
0010
0000
0100
0001
0100
0000
0001
0010
0001
0000
,
0010
0001
0100
0010
0100
0010
1000
0100
0010
0001
0100
0000
0010
1000
0100
0000
,
0220
0000
0000
0000
,
0000
0000
0000
0330
,
2002
0000
0000
0003
,
3020
0000
0200
0330
,
1001
0000
0100
0001
0010
0000
0110
0000
,
0010
0001
1000
0000
0010
1000
0001
0000
,
1100
0000
0000
0101
0000
0000
0110
0000
0000
0000
1000
0000
0100
0000
0000
0000
,
1001
0000
0001
0010
1000
0010
0001
0100
,
0110
0000
0000
0000
0100
0000
0001
0100
0010
0000
0000
0000
0110
0000
0000
0000
,
0011
0000
1000
0010
0001
0010
1000
0000
,
0011
0000
0000
0000
0110
0000
1000
0100
0010
0000
0000
0000
1100
0000
0000
0000
,
0110
0000
0100
1000
0010
0100
0001
0010
,
0110
0100
1000
0010
0100
0001
0010
0100
,
0010
0001
1000
0010
0100
0010
1000
0001
,
1000
0100
1000
0100
0010
0001
0010
0001
1000
0100
0010
0001
0010
0100
1000
0010
,
0100
0000
0000
0100
0000
0000
0110
0000
0000
0100
0010
0000
1010
0000
0011
0000
,
1000
0000
0100
0000
1000
0000
0100
0010
0001
0000
0100
0000
0010
0000
1000
0000
,
0001
0100
0001
0000
1000
0100
1000
0000
0001
0000
0010
0000
1000
0000
0010
0000
,
0001
0000
0100
0000
0001
0000
0100
0010
1000
0000
0100
0000
0010
0000
0001
0000
,
1000
0010
1000
0000
0001
0010
0001
0000
1000
0010
1000
0100
0010
0000
0100
0000
,
0110
0000
0000
0000
1001
0000
1000
0001
0100
0000
0010
0000
1000
0000
0100
0000
,
0010
0001
0010
0000
0100
0010
0100
0000
1000
0100
1000
0000
0010
0000
0100
0000
,
0002
0000
0000
0000
1003
0000
0001
0100
0010
0000
0000
0000
0110
0000
1000
0100
,
0010
0000
0000
1100
0000
0000
0101
0000
0000
0010
0100
0000
0220
0000
0030
0000
,
0310
0000
1000
0000
0010
0000
1000
0100
0001
0000
0100
0000
0001
0000
0100
0000
,
1000
0010
1000
0000
1000
0100
1000
0000
0001
0000
0010
0000
1000
0000
0010
0000
,
0001
0000
0100
0000
0010
0000
1000
0010
0001
0000
0010
0000
1000
0000
0100
0000
,
0010
0100
0010
0000
0010
0001
0010
0000
0011
0000
0000
1100
0000
0000
0011
0000
,
0110
0000
0000
0000
1001
0000
0001
1000
0010
0000
0100
0000
0110
0000
0010
0000
,
1000
0010
1000
0000
0010
0100
0010
0000
0100
0001
0100
0000
0001
0000
0010
0000
,
0110
0000
1000
0000
0001
0000
1000
0010
0001
0000
0010
0000
1000
0000
0100
0000
,
0110
0000
0000
0000
0001
0100
0010
1000
0100
0010
0001
0100
1000
0100
0001
1000
,
0200
0000
0000
0000
,
0300
0000
0000
0000
,
0000
0000
0000
0000
;

//---------------dance-single - ----------------
#NOTES:
     dance-single:
     :
     Challenge:
     17:
     :
0000
0000
0000
0000
,
0000
0000
0000
0000
,
0000
0000
0000
0000
,
0000
0000
0000
0000
,
0000
0000
0000
0000
,
1010
0000
0000
0000
0001
0100
0001
0000
0000
0000
1000
0000
0001
0100
0001
0000
,
0000
0000
1000
0010
0000
0100
0001
0000
0000
0000
1000
0010
0000
0100
0001
0000
,
0000
0000
0020
0000
0000
0000
0230
0000
0000
0000
1300
0010
0000
0100
0001
0000
,
1000
0000
0100
0000
1000
0000
0100
0000
0000
0000
0010
0000
0001
0000
0000
0000
0100
0000
0010
0000
1000
0000
0001
0100
0001
0000
1000
0000
0000
0000
0000
0000
,
0101
0000
0000
0000
0010
0000
1000
0100
0001
0000
0000
0000
0001
0000
0000
0000
,
0001
0010
1000
0100
0010
0100
0001
1000
,
1000
0000
0000
0000
0010
0000
1000
0100
0001
0000
0000
0000
0001
0000
0000
0000
,
0001
0000
0000
0000
0000
0000
0010
0000
0000
0100
0000
0000
1000
0000
0000
0000
0000
0000
0010
0000
0100
0000
0010
0000
0100
0000
0000
0000
0000
0000
0001
0000
0000
0000
0000
0000
1000
0000
0000
0000
0000
0000
0010
0000
0100
0000
0010
0000
,
0100
0100
0010
0010
1000
1000
0001
0001
,
0100
0100
0010
0010
1000
1000
0001
0001
,
1000
0010
0100
0001
0100
0001
0100
0001
1000
0010
1000
0010
0001
0100
0010
1000
,
0001
1000
0010
0100
0010
0100
0001
1000
0010
0100
0001
0000
0010
0000
1000
0000
,
1100
0000
0000
0010
0000
0010
0001
0000
0101
0000
0000
0000
0101
0000
0000
0000
,
0110
0000
0001
0100
0000
0100
0010
0000
1010
0000
0000
0000
2000
0000
3002
0000
,
0013
0000
0000
0001
0000
0001
1000
0000
1100
0000
0000
0000
1100
0000
0000
0000
,
0010
1000
0010
0100
0000
0100
0001
0000
0011
0000
0110
0000
1100
0000
0110
0000
,
0011
0000
0000
1000
0000
1000
0010
0000
0101
0000
0000
0000
0101
0000
0000
0000
,
0010
1000
0001
0010
0000
0010
0100
0000
1000
0000
0000
0000
0020
0000
0230
0000
,
0301
0000
0000
0000
0001
0000
0100
0010
1000
0000
0000
0000
1000
0000
0000
0000
,
1000
0000
1000
0100
0001
0001
0001
0010
,
0100
0000
0000
1000
0000
1000
0001
0000
0011
0000
0000
0000
0011
0000
0000
0000
,
0000
1000
0100
0010
0000
0010
0001
0000
0101
0000
0101
0000
1100
0000
0101
0000
,
1100
0000
0000
0001
0000
0001
0100
0000
1001
0000
0000
0000
1001
0000
0000
0000
,
0010
1000
0100
0010
0000
0010
0001
0000
0011
0000
0110
0000
1100
0000
0110
0000
,
0011
0000
0000
0100
0000
0100
0010
0000
1010
0000
0000
0000
1010
0000
0000
0000
,
0100
0001
0100
0010
0000
0010
1000
0000
0100
0000
0000
0000
2000
0000
3002
0000
,
0013
0000
0000
0000
0010
0000
0001
0100
1000
0000
0000
0000
1000
0000
0000
0000
,
1000
0000
0000
0000
0000
0000
0000
0000
0000
0000
0000
0000
1000
0000
0000
0010
0000
0000
0100
0000
0000
0010
0000
0000
1000
0000
0000
0000
0000
0000
0001
0000
0100
0000
0001
0000
0100
0000
0000
0000
0000
0000
0010
0000
0000
0000
0000
0000
,
1000
0000
0100
0010
0001
0100
0001
0000
0010
0000
1000
0100
1000
0001
0010
0000
,
0100
0000
0010
0001
1000
0001
0100
0000
0010
0000
1000
0100
0010
0001
1000
0000
,
0001
1000
0100
0010
0100
0010
0100
0010
0001
0010
0001
1000
0100
1000
0001
1000
,
0100
0001
1000
0100
0010
1000
0010
0001
0100
0010
1000
0000
0001
0000
0100
0000
,
1010
0000
0000
0000
0010
0000
1000
0100
0001
0000
0000
0000
0001
0000
0000
0000
,
0010
0001
0100
1000
0010
0100
1000
0000
,
0001
0000
0000
0000
0001
0000
0010
0100
1000
0000
0000
0000
1000
0000
0000
0000
,
1000
0000
0000
0000
0001
0000
0100
0000
0010
0000
1000
0100
1000
0100
1000
0100
,
0010
0000
0000
0000
0010
0000
0001
0100
1000
0000
0000
0000
1000
0000
0000
0000
,
0001
0000
0010
0000
1000
0000
0100
0000
0010
0000
1000
0000
0001
0000
0100
0010
,
1000
0000
0000
0101
0000
0000
1100
0000
0000
0000
0010
0001
0100
0000
0010
1000
,
0001
0000
0000
0000
0000
0000
0100
0000
0000
0010
0000
0000
1000
0000
0000
0001
0010
0001
0010
0000
0000
0100
0000
0000
,
1100
0000
0000
0000
0100
0000
1000
0010
0001
0000
0000
0000
0001
0000
0010
0001
,
0100
0000
0010
0000
1000
0000
0100
0000
0001
0000
1000
0000
0010
0000
0001
0100
,
0001
0000
0010
0100
1000
0000
0010
0100
0001
0000
0000
0000
0001
0000
0000
0000
,
1000
0000
0000
0000
0000
0000
0010
0000
0000
1000
0000
0000
0100
0000
0000
0000
0000
0000
0010
0000
0001
0000
0010
0000
0001
0000
0000
0000
0000
0000
0100
0000
0000
0010
0000
0000
1000
0000
0000
0000
0000
0000
0001
0000
1000
0000
0001
0000
,
1000
1000
0010
0010
0100
0100
0001
0001
,
1000
1000
0010
0010
0100
0100
0001
0001
,
0010
0001
1000
0100
0001
0100
0001
1000
0010
0100
0010
1000
0010
0001
1000
0100
,
0010
0000
0001
1000
0000
0001
1000
0000
0000
0001
1000
0000
0110
0000
0100
0000
,
1001
0000
0000
0000
0010
0000
1000
0100
0001
0000
0000
0000
0001
0000
0000
0000
,
0001
0010
1000
0001
0010
1000
0100
0000
,
0010
0000
0000
0000
0010
0000
0001
0100
1000
0000
0000
0000
1000
0000
0000
0000
,
1000
0000
0010
1000
0100
0001
0010
0100
,
0001
0000
0000
0000
1010
0000
0001
0100
1000
0000
0000
0000
1000
0000
0000
0000
,
0010
1000
0100
0001
1000
0010
0001
0000
,
0101
0000
0000
0000
0000
0000
0000
0000
0000
0000
0000
0000
0010
0000
0000
0000
0000
0000
1000
0000
0000
0100
0000
0000
0001
0000
0000
0000
0000
0000
0000
0000
0000
0000
0000
0000
0001
0000
0000
0000
0000
0000
1000
0000
0010
0000
1000
0000
,
0010
0000
1000
0100
0000
0100
0010
0000
0011
0000
1100
0000
0001
0000
0000
0000
,
0001
0000
0000
0000
0100
0000
0010
1000
0001
0000
0000
0000
0001
0000
0000
0000
,
1000
0100
0001
1000
0010
0100
1000
0000
,
0010
0000
0000
0000
0010
0000
1000
0100
0001
0000
0000
0000
0001
0000
0000
0000
,
0010
0000
0000
0000
0010
0000
0001
0000
1000
0000
0010
0100
0000
0100
0001
0000
,
1010
0000
0000
0000
0100
0000
0010
1000
0100
0010
0001
0000
1000
0000
0000
0001
,
0100
0010
1000
0100
0001
0010
1000
0000
,
0100
0000
0000
0000
0010
0000
0001
0100
1000
0000
0000
0000
1000
0000
0000
0000
,
0110
0000
0000
0000
0010
0000
1000
0000
0100
0010
0001
0000
1000
0000
0010
0100
,
0001
0000
0010
0001
0010
0100
1000
0000
,
0020
0000
0000
0000
0030
0000
0000
1000
0002
0000
0000
0000
0003
0000
0000
0200
,
0000
0000
0000
0000
0000
0300
0000
0010
0000
0000
1000
0000
0002
0000
0000
0000
,
0000
0000
0000
0003
;

//---------------dance-double - ----------------
#NOTES:
     dance-double:
     :
     Easy:
     7:
     :
00000000
00000000
00000000
00000000
,
00000000
00000000
00000000
00000000
,
00000000
00000000
00000000
00000000
,
00000000
00000000
00000000
00000000
,
00000000
00000000
00000000
00000000
,
00000001
00001000
00000100
00010000
,
00001000
01000000
00010000
00100000
,
01000000
10000000
00100000
01000000
,
00001000
00010000
00000100
00000010
,
00001001
00000100
00000010
00000010
,
00001000
00000000
00000100
00000000
00010000
00001000
00010000
00000000
,
00001000
00100000
01000000
01000000
,
10000000
00000000
00100000
00000000
01000000
00010000
00100000
00000000
,
00011000
00001000
00000100
00000010
,
00001000
00000100
00010000
00000000
00001000
00000000
00001000
00000000
,
00010000
00001000
00100000
00000000
01000000
00000000
01000000
00000000
,
00100000
00010000
00022000
00033000
,
00002000
00000000
00100000
01003000
,
00010000
10000000
01000000
00100000
,
00002000
00000000
00100000
01003000
,
00001000
00010000
00000010
00000100
,
00000020
00000000
00000100
00001030
,
00000001
00001000
00000010
00000110
,
00001000
00000100
00010000
00010000
,
00001000
00000000
00010000
00000000
01000000
10000000
00100000
00000000
,
01000000
00100000
01000000
01100000
,
00000000
01000000
00001000
00010000
,
00000100
00000010
00000001
00001001
,
00000000
00001000
00000100
00010000
,
00001000
00001000
00100000
10010000
,
00000000
01000000
00100000
00010000
,
00100000
00010000
00100000
00000000
00001000
00010000
00001000
00000000
,
00010000
00000100
00000010
00000001
,
00001000
00000100
00001000
00000100
,
00010000
00001000
00010000
00001000
,
01000000
00010000
01000000
00010000
,
00100000
01000000
00100000
00000000
10010000
00000000
00000000
00000000
,
20000000
00000000
00000000
00000000
,
30020000
00000000
00000000
00000000
,
00230000
00000000
00000000
00000000
,
00302000
00000000
00000000
00000000
,
00013000
00000100
00000010
00000000
,
00000001
00000100
00000010
00000000
,
00001000
00000100
00010000
00000000
,
00001000
01000000
00100000
00000000
,
10000000
01000000
00100000
00010000
,
01000000
00100000
00010000
00001000
,
00100000
00010000
00001000
00000100
,
00010000
00001000
00000100
00000000
00000100
00000010
00001000
00000000
,
00000001
00000100
00000010
00001000
,
00000100
00010000
00001000
00100000
,
00010000
01000000
00100000
10000000
,
20020000
00000000
00000000
30030000
,
10000000
10000000
00100000
01000000
,
00001000
00000000
00001000
00000000
00010000
00001000
00010000
00000000
,
00000100
00000010
00000001
00000100
,
00000010
00000000
00000010
00000000
00000100
00000010
00000100
00000000
,
00000020
00000130
00000010
00010000
,
00001000
00000000
00010000
00000000
00001000
00010000
00001000
00000000
,
02000000
03000000
00200000
00300000
,
01000000
00001000
00010000
00011000
,
00001000
00000100
00000001
00000010
,
00000100
00000010
00000100
00000000
00001000
00000100
00001000
00000000
,
00000100
00010000
01000000
10000000
,
00100000
10000000
01000000
00000000
00100000
00010000
01000000
00000000
,
00000000
00011000
00010000
00001000
,
00010000
00001000
00010000
00000000
00001000
00010000
00001000
00000000
,
00000100
00000010
00001000
00001000
,
00000010
00001000
00010000
01000000
,
01100000
00000000
00000000
00000000
,
00000000
00000000
00000000
00000000
;

//---------------dance-double - ----------------
#NOTES:
     dance-double:
     :
     Medium:
     11:
     :
00000000
00000000
00000000
00000000
,
00000000
00000000
00000000
00000000
,
00000000
00000000
00000000
00000000
,
00000000
00000000
00000000
00000000
,
00000000
00000000
00000000
00000000
,
00000000
10000000
00000000
01010000
00000000
00100000
00000000
00011000
,
00000000
00000100
00000000
00000110
00000000
00000001
00000000
00000011
,
00000000
00001001
00000000
00001100
00000000
00010000
00000000
00011000
,
00000000
01000000
00000000
10100000
00000000
01000000
00100000
00000000
,
10010000
00000000
01000000
00001000
00010000
00000000
00011000
00000000
,
00001000
00000100
00000001
00000100
00001000
00010000
01000000
00000000
,
00100000
00000000
01000000
10000000
00100000
00000000
10010000
00000000
,
00110000
00000000
00001000
00000010
00000001
00000010
00001000
00010000
,
01000000
00000000
10000000
01000000
00010000
00000000
00011000
00000000
,
00001000
00010000
00001000
00000100
00000010
00001000
00000001
00000100
,
00000010
00000000
00001000
00000100
00010000
00000000
00011000
00000000
,
00001000
00100000
10000000
00100000
00020000
00000000
20030000
00000000
,
30010000
00000000
00000000
00100000
00000000
00001000
00010000
00000000
00001000
00000000
00000000
00000000
00001100
00000000
00000000
00000000
,
00001000
00000100
00000001
00000100
00001000
00000000
00011000
00000000
,
00001000
00000000
00000000
01000000
00000000
00100000
01000000
00000000
00010000
00000000
00000000
00000000
10010000
00000000
00000000
00000000
,
00010000
01000000
10000000
01000000
00010000
00100000
00001000
00010000
,
00000100
00000000
00000000
00000010
00000000
00000100
00000010
00000000
00000001
00000000
00000000
00000000
00001001
00000000
00000000
00000000
,
00001000
00000100
00000001
00000100
00002000
00000000
00023000
00000000
,
00130000
00000000
01000000
10000000
00100000
00000000
01100000
00000000
,
01010000
00000000
00001000
00100000
00001000
00010000
00000100
00000010
,
00000001
00000000
00000000
00000100
00000000
00000001
00000100
00000000
00000001
00000000
00000000
00000000
00000101
00000000
00000000
00000000
,
00000001
00001000
00000100
00010000
00001000
00100000
00010000
01000000
,
01100000
00000000
00000000
10000000
00000000
00010000
10000000
00000000
01000000
00000000
00000000
00000000
10010000
00000000
00000000
00000000
,
01000000
00100000
10000000
01000000
00010000
00001000
00000100
00000001
,
00000101
00000000
00000000
00001000
00000000
00000001
00000100
00000000
00000010
00000000
00000000
00000000
00001001
00000000
00000000
00000000
,
00000001
00000100
00001000
00000100
00000002
00000000
00002003
00000000
,
00003100
00000000
00010000
00001000
00100000
00000000
00110000
00000000
,
01100000
00000000
10000000
01000000
00100000
00010000
00100000
01000000
,
10000000
01000000
10000000
00000000
00010000
00100000
00010000
00000000
,
00100000
00001000
00100000
00000000
00000010
00010000
00000010
00000000
,
00001000
00000100
00001000
00000100
00000010
00000001
00000010
00000001
,
00000100
00000010
00000100
00000010
00002000
00000000
00003100
00000000
,
00010000
00001000
00000010
00000010
,
00000001
00000100
00000010
00000010
,
00001000
00000100
00010000
00010000
,
00001000
00000000
00010000
00000000
00001000
00001000
00001000
00000000
,
00110000
00000000
10000000
00100000
01000000
00000000
01000000
00000000
,
00100000
01000000
00001000
00010000
,
00011000
00000000
00010000
00000100
00001000
00000000
00001000
00000000
,
00000100
00000000
00000010
00000001
00000100
00001000
00010000
00000100
,
00001100
00000000
00010000
00001000
00100000
00000000
01000000
00000000
,
01100000
00000000
01000000
00100000
00010000
00001000
00000100
00000000
,
00000110
00000000
00000001
00000100
00000010
00000000
00000100
00000000
,
00000110
00000000
00000100
00001000
00010000
00100000
01000000
00010000
,
10010000
00000000
10000000
01000000
00100000
00000000
00010000
00000000
,
10000000
00100000
01000000
00001000
00010000
00000010
00001000
00000000
,
00000110
00000000
00001000
00000100
00000010
00000000
00000011
00000000
,
00001000
00000000
00000000
00000100
00000000
00000000
00010000
00000000
00000000
00000000
00000100
00000000
00010100
00000000
00000000
00000000
,
00000100
00001000
00000010
00000000
00000100
00000001
00000010
00000000
,
00000100
00001000
00000010
00000100
00000001
00000100
00001000
00000000
,
00010000
00001000
00100000
00000000
00010000
00100000
00001000
00000000
,
00010000
00001000
00010000
01000000
10000000
00100000
01000000
00010000
,
20000000
00000000
30010000
00000000
10000000
01000000
00010000
00000000
,
00001000
00010000
00001000
00000100
00000001
00001000
00000100
00000000
,
00000010
00000001
00000100
00000000
00000010
00001000
00000100
00000000
,
00000010
00000001
00000010
00000001
00000100
00000010
00020000
00000000
,
00031000
00000000
00010000
00001000
00100000
00000000
00110000
00000000
,
00100000
10000000
00100000
00010000
00100000
00001000
00010000
00000000
,
00011000
00000000
00001000
00000100
00000001
00000000
00000011
00000000
,
00000010
00000001
00000010
00001000
00000010
00000100
00010000
00001000
,
00022000
00000000
00000000
00000000
00033000
00000000
00000000
00000000
00000000
00001000
00000000
00000000
00010000
00000000
00000000
00001000
,
00010000
00001000
00100000
00000000
00010000
10000000
01000000
00000000
,
00100000
00000000
00100000
00001000
00010000
00000000
00011000
00000000
,
00001000
00000100
00000001
00000100
00001000
00010000
01000000
10000000
,
00020000
00000000
00000000
00000000
,
00030000
00000000
00000000
00000000
,
00000000
00000000
00000000
00000000
;

//---------------dance-double - ----------------
#NOTES:
     dance-double:
     :
     Hard:
     15:
     :
00000000
00000000
00000000
00000000
,
00000000
00000000
00000000
00000000
,
00000000
00000000
00000000
00000000
,
00000000
00000000
00000000
00000000
,
00000000
00000000
00000000
00000000
,
00000000
10000000
00100000
01000000
00000000
00010000
01000000
00100000
,
00000000
01000000
00001000
00100000
00000000
00001000
00010000
00000100
,
00000000
00001010
00000000
00000101
00000000
00000001
00001000
00000100
,
00000000
00000000
00010000
00000000
00001000
00000000
00000100
00000000
00000000
00000000
00000000
00000001
00000100
00000010
00000000
00000000
,
00001001
00000000
00000000
00000000
00000010
00000000
00000001
00000100
00000010
00000000
00000000
00000000
00000110
00000000
00000000
00000000
,
00000001
00000100
00001000
00010000
01000000
10000000
00010000
00000000
,
01100000
00000000
00000000
00000000
10000000
00000000
01000000
00100000
00010000
00000000
00000000
00000000
11000000
00000000
00000000
00000000
,
01000000
00000000
00000000
00000000
00100000
00000000
01000000
00100000
00010000
00000000
00100000
00000000
00001000
00010000
00001000
00010000
,
00000100
00001000
00001000
00000100
00000010
00000010
00000001
00000000
,
00001000
00001000
00000100
00010000
00010000
00001000
00100000
00000000
,
00010000
01000000
00100000
00000000
10000000
01000000
00100000
00000000
00010000
00100000
00010000
00100000
00001000
00010000
00001000
00010000
,
00000100
00001000
00000100
00001000
00000001
00000100
00000001
00000100
00000010
00000000
00000100
00000000
00000010
00001000
00000001
00000000
,
00001001
00000000
00000001
00000100
00000000
00000100
00001000
00000000
00020000
00000000
00000000
00000000
00031000
00000000
00000000
00000000
,
00011000
00000000
00010000
00001000
00000000
01000000
00010000
00000000
00200000
00000000
00000000
00000000
01300000
00000000
00000000
00000000
,
01100000
00000000
10000000
01000000
00000000
01000000
00100000
00000000
00002000
00000000
00000000
00000000
00103000
00000000
00000000
00000000
,
00000000
00001000
00010000
00001000
00000000
00010000
00001000
00000000
00000100
00000000
00001000
00000000
00010000
00000000
01000000
00000000
,
01100000
00000000
00100000
00010000
00000000
00010000
00100000
00000000
02000000
00000000
00000000
00000000
13000000
00000000
00000000
00000000
,
00000000
10000000
01000000
00010000
00000000
00001000
00010000
00000000
00002000
00000000
00000000
00000000
00003200
00000000
00000000
00000000
,
00000310
00000000
00000000
00000000
00000110
00000000
00000010
00001000
00000002
00000000
00000000
00000000
00001003
00000000
00000000
00000000
,
00011000
00000000
00001000
00010000
00100000
10000000
00100000
01000000
,
10010000
00000000
00100000
00010000
00000000
00010000
00100000
00000000
00002000
00000000
00000000
00000000
00013000
00000000
00000000
00000000
,
00000000
00010000
00001000
00010000
00000000
00000100
00001000
00000000
00000100
00000000
00001000
00000010
00000001
00000000
00000010
00000000
,
00000100
00000000
00000010
00000100
00000000
00000100
00000010
00000000
00000200
00000000
00000000
00000000
00000310
00000000
00000000
00000000
,
00000000
00000001
00000100
00001000
00000000
00000100
00001000
00000000
00010000
00000000
01000000
00000000
10000000
00000000
00100000
00000000
,
01100000
00000000
01000000
00100000
00000000
00100000
10000000
00000000
00020000
00000000
00000000
00000000
01030000
00000000
00000000
00000000
,
00000000
01000000
00001000
00010000
00000000
00001000
00010000
00000000
00002000
00000000
00000000
00000000
00003200
00000000
00000000
00000000
,
00000310
00000000
00000000
00000000
00000110
00000000
00001000
00000001
00001000
00000000
00000000
00000000
00001001
00000000
00000000
00000000
,
00001100
00000000
00000000
00000000
00000100
00001000
00000100
00010000
00001000
00000000
00100000
00000000
00010000
00000000
01000000
00000000
,
00100000
00000000
10000000
00000000
01000000
00100000
01000000
00000000
00100000
00000000
00010000
00000000
00100000
00001000
00100000
00000000
,
00001000
00000000
00010000
00000000
00000100
00010000
00000100
00000000
00001000
00000000
00000010
00000000
00000100
00000010
00000100
00000000
,
00000001
00000010
00000001
00000000
00000100
00000010
00000100
00000000
00000010
00001000
00000010
00000000
00001000
00000100
00001000
00000000
,
00000100
00010000
00001000
00010000
00001000
00100000
00010000
00100000
00010000
01000000
00100000
00000000
10000000
00010000
01000000
00000000
,
20020000
00000000
00000000
00000000
,
00000000
00000000
00000000
30030000
,
00220000
00000000
00000000
00030000
,
00302000
00000000
00020000
00033000
,
00011000
00000000
00001000
00100000
00010000
00000000
00110000
00000000
,
00010000
01000000
00100000
00000000
01000000
00100000
10000000
00000000
,
01100000
00000000
00000000
00110000
00000000
00000000
00011000
00000000
00000000
00000000
00001000
00000000
00000100
00000000
00000000
00000000
,
00000110
00000000
00000010
00001000
00000100
00000001
00000100
00001000
,
00011000
00000000
00000000
00000000
00001000
00000000
00010000
00001000
00010000
00000000
00000000
00000000
00011000
00000000
00000000
00000000
,
00110000
00000000
00010000
00100000
10000000
00100000
00010000
00000000
,
00110000
00000000
00000000
00000000
00011000
00000000
00001000
00010000
00001000
00000000
00000000
00000000
00001100
00000000
00000000
00000000
,
00000110
00000000
00000001
00000010
00001000
00000010
00000001
00000100
,
00000110
00000010
00001000
00000100
00001000
00010000
00100000
10000000
,
00100000
01000000
10000000
00100000
00010000
00001000
00000100
00000001
,
00000010
00000001
00000010
00000001
00000100
00000010
00000100
00000010
00001000
00000100
00001000
00000100
00010000
00001000
00010000
00001000
,
00010000
00000000
00000000
00001000
00000000
00000000
00011000
00000000
00000000
00001000
00010000
00000000
00011000
00000000
00110000
00000000
,
00010000
00000000
00100000
00000000
00010000
00000000
00100000
00010000
10000000
00000000
00100000
00000000
10000000
00000000
00010000
00000000
,
00100000
01000000
00100000
00000000
01000000
10000000
01000000
00000000
00100000
00000000
00010000
00000000
00001000
00000000
00000100
00000000
,
00001000
00000000
00000010
00000000
00000100
00000000
00000001
00000100
00000010
00000000
00001000
00000000
00000100
00000000
00000010
00000000
,
00000001
00000010
00000001
00000000
00000100
00000010
00000100
00000000
00001000
00010000
00001000
00000000
00100000
00010000
00100000
00000000
,
00110000
00000000
00000000
00000000
10010000
00000000
00010000
01000000
00100000
00000000
10000000
00000000
01000000
00000000
00100000
00000000
,
00010000
00100000
00010000
00000000
00100000
00001000
00010000
00000000
00001000
00010000
00000100
00000000
00001000
00000000
00000100
00000000
,
00002000
00000000
00000000
00000000
00003001
00000000
00001000
00000100
00000010
00000000
00000000
00000000
00000110
00000000
00000001
00000100
,
00001000
00000000
00000000
00010000
00000000
00000000
00001000
00000000
00000000
00010000
00001000
00000000
00022000
00000000
00003000
00000000
,
00031000
00000000
00100000
00000000
00010000
00000000
10000000
00100000
00010000
00000000
00100000
00000000
01000000
00000000
00010000
00000000
,
00100000
00010000
00100000
00000000
00100000
00010000
00100000
00000000
00001000
00000000
00010000
00000000
00001000
00000000
00000100
00000000
,
00000001
00000000
00000010
00000000
00000100
00000000
00001000
00000010
00000001
00000000
00000010
00000000
00001000
00000000
00000100
00000000
,
00001000
00000100
00001000
00000000
00001000
00000100
00001000
00000000
00001100
00000000
00000000
00011000
00000000
00000000
00110000
00000000
,
00011000
00000000
00000000
00000000
00011000
00000000
00001000
00100000
00010000
00000000
01000000
00000000
01010000
00000000
00010000
00000000
,
01000000
00010000
01000000
00000000
00010000
00100000
00010000
00000000
00100000
00001000
00010000
00000000
00001000
00000000
00010000
00000000
,
00011000
00000000
00001000
00000000
00000100
00000000
00000010
00001000
00000100
00000000
00000010
00000000
00000001
00000000
00000100
00000000
,
00000110
00000000
00000000
00000000
00000001
00000100
00001000
00000000
00010000
00001000
00010000
00001000
00100000
00010000
00100000
00010000
,
20000000
00000000
00000000
00000000
,
30000000
00000000
00000000
00000000
,
00000000
00000000
00000000
00000000
;
