#TITLE:BATTERY BOOM;
#ARTIST:Huckleberry Finn & Sound Solution;
#BANNER:BATTERY BOOM-bn.png;
#BACKGROUND:BATTERY BOOM-bg.png;
#JACKET:BATTERY BOOM-jacket.png;
#MUSIC:BATTERY BOOM.ogg;
#SAMPLESTART:28.235;
#SAMPLELENGTH:20;
#DISPLAYBPM:136;
#BPMS:0=136;
#BGCHANGES:;

//---------------dance-single - ----------------
#NOTES:
     dance-single:
     :
     Beginner:
     2:
     :
0000
0000
0000
0000
,
0000
0000
0000
0000
,
0000
0000
0000
0000
,
0000
0000
0000
0000
,
1000
0000
0000
0000
,
0010
0000
0000
0000
,
0100
0000
0000
0000
,
0001
0000
0000
0000
,
0010
0000
0010
0000
,
0100
0100
0100
0000
,
1000
0000
1000
0000
,
0002
0003
0000
0000
,
0100
0000
0100
0000
,
0010
0010
0010
0000
,
1000
0000
0001
0000
,
2000
3000
0000
0000
,
0001
0000
0001
0000
,
0001
0000
0000
0000
,
0010
0000
0100
0000
,
0020
0030
0000
0000
,
0001
0000
1000
0000
,
0100
0000
1000
0000
,
0010
0000
0010
0000
,
0100
0100
0100
0200
,
0300
0000
0000
1001
,
0000
0000
0000
1001
,
0000
0000
0000
1001
,
0000
0010
0000
1001
,
0000
0100
0000
0010
,
0000
0100
0000
0010
,
0000
1000
0000
0001
,
0000
1000
0000
0001
,
0000
1000
0000
0100
,
0000
0010
0000
0001
,
0000
1000
0000
0001
,
0000
0000
1001
0000
,
0010
0000
0010
0000
,
0000
0000
0000
0000
,
1000
0000
0001
0000
,
0100
0000
0000
0000
,
0010
0000
0100
0000
,
0000
0000
0000
0000
,
1000
0000
0001
0000
,
1000
0000
0000
1001
;

//---------------dance-single - ----------------
#NOTES:
     dance-single:
     :
     Easy:
     5:
     :
0000
0000
0000
0000
,
0000
0000
0000
0000
,
0000
0000
0000
0000
,
0000
0000
0000
0000
,
1000
0001
0000
0100
,
0010
1000
0000
0001
,
0010
0100
0000
0010
,
0001
0000
1000
1001
,
0010
0100
0010
0000
,
1000
0010
0001
0100
,
0000
0001
0000
0000
1000
0000
0000
0002
,
0000
0013
0000
0010
,
0001
1000
0001
0000
,
0100
0001
0010
1000
,
0000
0100
0000
0000
0010
0000
0000
0200
,
0000
1300
0001
1001
,
0000
0010
0000
0000
0010
0000
0000
0010
,
0000
0000
0000
1000
0000
0000
0001
0000
,
0000
1000
0000
0000
0001
0000
0000
2000
,
0000
3010
0000
0010
,
0100
0001
1000
0000
,
0100
1000
0001
0000
,
0010
0010
0100
0100
,
1000
0001
1000
0001
,
0000
0000
0000
0200
0000
0000
0310
0000
,
0000
0000
0000
0200
0000
0000
0310
0000
,
0000
0000
0000
0200
0000
0000
0310
0000
,
0000
1000
0000
0002
0000
0000
0103
0000
,
0001
0010
0000
1000
,
0100
0010
0000
0001
,
1000
0001
0000
0100
,
0001
0010
0000
0100
,
1000
0010
0000
1000
,
0100
0010
0000
0001
,
1000
0100
0000
1000
,
0000
0000
0000
0020
0000
0000
0130
0000
,
0001
0010
0100
1000
,
0000
0110
0000
0110
,
0001
1000
0010
0100
,
0010
0000
1000
1001
,
0001
1000
0100
0010
,
0000
0110
0000
0110
,
0010
0100
1000
0001
,
0100
0000
0010
1001
;

//---------------dance-single - ----------------
#NOTES:
     dance-single:
     :
     Medium:
     8:
     :
0000
0000
0000
0000
,
0000
0000
0000
0000
,
0000
0000
0000
0000
,
0000
0000
0000
0000
,
1000
0000
0000
0000
0010
0000
0100
0000
0000
0001
0000
0000
0000
0000
0000
0000
,
0010
0000
0000
0000
0001
0000
1000
0000
0000
0100
0000
0000
0000
0000
0000
0000
,
1000
0000
0000
0000
0001
0000
0100
0000
0000
0010
0000
0000
0000
0000
0000
0000
,
1000
0001
0000
1000
0001
0100
0010
0000
,
1000
0000
1000
0001
1000
0100
0000
0000
,
0002
0000
2003
0000
3001
0100
0010
0000
,
0000
1010
0000
0000
0101
0000
0000
2200
,
0000
0300
0000
0000
3001
0000
0100
0000
0000
0010
0000
0000
0000
1000
0000
0000
,
0001
0000
0001
1000
0001
0100
0000
0000
,
0020
0000
0230
0000
0310
1000
0001
0000
,
0000
0011
0000
0000
1100
0000
0000
0202
,
0000
0003
0000
0310
0000
0000
0010
0000
1000
0000
0001
0000
0100
0000
0000
0000
,
0001
0010
0000
0001
1000
0000
0001
0100
,
0000
0000
0000
0000
0010
0000
1000
0000
0000
0100
0000
0000
0000
0001
0000
0000
,
0000
1001
0000
0000
0110
0000
1000
0002
,
0000
0000
0000
0000
0013
0000
0100
0000
0000
1000
0000
0000
0000
0001
0000
0000
,
0200
0000
0310
1000
0000
0001
0000
1000
,
0002
0000
0013
0100
0000
1000
0100
0000
,
0010
0001
0010
0000
0001
1000
0100
0000
,
2000
0000
3002
0000
0013
0001
0200
0000
,
0300
0000
0110
0002
0000
0000
1003
0000
,
0000
0000
0110
2000
0000
0000
3001
0000
,
0000
0000
0110
0002
0000
0000
1003
0000
,
0000
0010
0100
0020
0000
1030
0001
0000
,
0010
0000
0001
0200
0000
0310
1000
0000
,
0100
0000
1000
0002
0000
0013
0100
0000
,
0010
0000
0100
0020
0000
0031
1000
0000
,
0001
0000
1000
0200
0000
0310
0001
0000
,
1000
0000
0001
2000
0000
3100
0010
0000
,
0100
0000
1000
0002
0000
1003
0010
0000
,
1000
0000
0100
0020
0000
0031
0010
0000
,
0001
1000
0000
0020
0000
1030
0001
0000
,
2000
0000
3100
0010
0000
0001
0100
0000
,
1001
0000
0000
0000
0010
0000
1000
0000
0000
0001
0000
0000
0000
0100
0000
0000
,
0002
0000
0013
0100
0000
1000
0100
0000
,
1000
0001
0000
1000
0001
0100
0010
0000
,
0200
0000
0301
1000
0000
0010
1000
0000
,
0001
0000
0000
0000
0010
0000
0100
0000
0000
1000
0000
0000
0000
0001
0000
0000
,
2000
0000
3100
0010
0000
0001
0100
0000
,
0001
1000
0000
0001
1000
0100
0010
0000
;

//---------------dance-single - ----------------
#NOTES:
     dance-single:
     :
     Hard:
     11:
     :
0000
0000
0000
0000
,
0000
0000
0000
0000
,
0000
0000
0000
0000
,
0000
0000
0000
0000
,
1000
0000
0000
0100
0010
0000
0001
0000
0000
0100
0000
0000
0000
0010
0000
0010
,
1000
0000
0000
0001
0100
0000
0010
0000
0000
1000
0000
0000
0000
0001
0000
0001
,
0010
0000
0000
0001
1000
0000
0100
0000
0000
1000
0000
0000
0000
0000
0000
0010
,
0100
0000
0000
0001
1000
0000
0010
0000
1000
0000
0100
0010
0100
0000
0000
0000
,
1000
0010
0100
0010
2000
0001
3001
0100
,
0010
0000
0000
0000
1010
0000
0000
1000
0001
0000
0010
0000
0100
0000
0000
1000
,
0001
0101
0000
1000
1000
0010
0100
0002
,
0010
0000
0000
0013
0100
0000
1000
0000
0000
0001
0000
0000
0000
0100
0000
0100
,
0010
0100
0001
0100
0020
1000
1030
0001
,
1000
0000
0000
0000
1100
0000
0000
0001
0100
0000
0010
0000
1000
0001
0000
0001
,
0010
0011
0000
1000
1000
0001
0010
0200
,
1000
0000
0000
1300
0001
0000
0100
0000
0010
0000
1000
0001
1000
0000
0000
0010
,
0100
1001
0000
0010
0010
1000
0001
0100
,
0110
0000
0000
1000
0000
0000
1010
0000
0000
0001
0000
0000
0011
0000
0000
0100
,
1000
1001
0000
0100
0100
0001
1000
0020
,
0100
0000
0000
0130
0001
0000
1000
0000
0000
0010
0000
0000
0000
1000
0000
1000
,
0001
0000
0010
0000
0100
0000
0010
0000
0001
0000
1000
0000
0001
0000
0000
0100
,
0010
0000
1000
0000
0001
0000
2000
0000
0000
0000
0100
0000
3100
0000
0000
0010
,
0001
0100
0010
0100
0001
0010
0100
1000
,
1100
0000
0000
0000
0101
0000
0000
0000
1100
0000
0000
0000
0001
1000
0001
0000
,
0000
0000
0000
0000
0110
0000
0002
0000
0000
0000
1003
0100
1000
0000
0000
0000
,
0000
0000
0000
0000
0110
0000
0002
0000
0000
0000
1003
0100
1000
0000
0000
0000
,
0000
0000
0000
0000
0110
0000
0002
0000
0000
0000
1003
0100
1000
0000
0000
0000
,
0000
0000
0001
0100
0001
0000
2000
0000
0000
0000
3010
0100
0010
0000
0000
0000
,
1000
0000
0000
0001
0100
0000
0020
0000
0000
0000
0130
0001
0100
0000
0000
0000
,
0001
0000
0000
1000
0100
0000
0020
0000
0000
0000
0031
1000
0001
0000
0000
0000
,
0100
0000
0000
0001
1000
0000
0200
0000
0000
0000
0310
0001
0010
0000
0000
0000
,
0100
0000
0000
1000
0010
0000
2000
0000
0000
0000
3001
0100
0001
0000
0000
0000
,
1000
0000
0000
0001
0010
0000
0200
0000
0000
0000
1300
0010
1000
0000
0000
0001
,
1000
0000
0000
0001
0100
0000
0020
0000
0000
0000
1030
0100
1000
0000
0000
0001
,
0010
0000
0000
0001
1000
0000
0020
0000
0000
0000
0130
0001
0100
0000
0000
0010
,
1000
0000
0100
0000
0100
0000
1000
0000
1000
0000
0001
0100
0001
0000
0000
0000
,
0010
0000
0000
0001
1000
0000
1000
0000
0000
0000
0010
0000
0100
0001
0000
0100
,
0001
0000
0000
1000
0100
0000
0100
0000
0000
0000
1000
0000
0001
0010
0000
0010
,
0100
0000
0000
0010
0001
0000
0001
0000
0000
0000
1000
0000
0100
1000
0000
0010
,
1000
0000
0101
0000
0000
0000
0001
0000
0001
0000
0100
0010
0100
0000
0000
0000
,
0001
0000
0000
1000
0100
0000
0100
0000
0000
0000
1000
0000
0001
0010
0000
0010
,
0001
0000
0000
0100
0010
0000
0010
0000
0000
0000
0100
0000
0001
1000
0000
1000
,
0001
0000
0000
0010
0100
0000
0100
0000
0000
0000
1000
0000
0001
1000
0000
0010
,
0100
0000
0001
0000
0000
0000
1000
0000
1000
0000
0010
0100
0020
0000
0030
0000
;

//---------------dance-single - ----------------
#NOTES:
     dance-single:
     :
     Challenge:
     14:
     :
0000
0000
0000
0000
,
0000
0000
0000
0000
,
0000
0000
0000
0000
,
0000
0000
0000
0000
,
1000
0000
0001
0100
0001
0000
0010
0000
0100
1000
0000
0000
0000
0010
0000
0010
,
0100
0000
0001
1000
0001
0000
0010
0000
0100
1000
0000
0000
0000
0001
0000
0001
,
0100
0000
0001
0010
0001
0000
1000
0000
0010
0100
0000
0000
0000
0001
0000
0001
,
1000
0000
1100
0000
0000
0000
0101
0000
0001
0000
1000
0001
0100
0000
0000
0000
,
0010
0000
1000
0000
0100
0000
0010
0000
0001
0000
0100
0000
0001
0000
1000
0010
,
0100
0000
0001
0000
1000
0000
0010
0000
1000
0000
0100
0000
0010
0000
0001
1000
,
0001
0011
0010
0100
1100
0010
1000
0102
,
0010
0000
0000
1003
0001
0000
0100
0000
0001
1000
0000
0000
0000
0100
0000
0010
,
0001
0000
0100
0000
0010
0000
1000
0000
0100
0000
0010
0000
0001
0000
1000
0001
,
0100
0000
0010
0000
1000
0000
0001
0000
0010
0100
0000
0000
1000
0001
0000
1000
,
0010
0101
1000
0001
0011
0100
1000
2100
,
0001
0000
0000
3001
1000
0000
0010
0000
0100
0000
0001
1000
0100
0000
0000
0010
,
0001
1001
1000
0010
0110
0100
0001
0011
,
1000
0000
0000
0100
0010
0000
0001
0000
0100
0010
0000
0000
1000
0001
0000
0001
,
0100
0110
0001
0010
0011
1000
0001
2010
,
0100
0000
0000
3100
0010
0000
0001
0000
1000
0010
0000
0000
1000
0001
0000
0001
,
0100
0000
0001
0000
0010
0000
0100
0000
1000
0010
1000
0000
0001
0000
0010
0100
,
0010
0000
0001
1000
0001
0000
0100
0000
0010
0000
1000
0000
0100
0010
0000
0010
,
0001
0100
1000
0100
0001
0010
1000
0010
,
0002
0000
0000
0000
1003
0100
1000
0100
1000
0000
0001
1000
0010
0100
0000
0000
,
0000
0000
0000
0000
0110
0000
0002
0000
0000
0000
1003
0100
1000
0000
0000
0000
,
0000
0000
0000
0000
0110
0000
0002
0000
0000
0000
1003
0100
1000
0000
0000
0000
,
0000
0000
0000
0000
0110
0000
0002
0000
0000
0000
1003
0100
1000
0000
0000
0000
,
0010
0000
1000
0001
0100
0000
0100
0000
0010
0000
1000
0100
0010
0001
0000
0001
,
0100
0000
0000
0000
0000
0000
0010
0000
0000
1000
0000
0000
0010
0000
0000
0000
0000
0000
0202
0000
0000
0000
0300
0000
0000
0000
0000
1003
0000
0000
0001
0000
0000
1000
0000
0000
0001
0000
0000
0010
0000
0000
0000
0000
0000
0100
0000
0000
,
1000
0000
0000
0000
0000
0000
0001
0000
0000
0010
0000
0000
0001
0000
0000
0000
0000
0000
2200
0000
0000
0000
0300
0000
0000
0000
0000
3010
0000
0000
1000
0000
0000
0010
0000
0000
0100
0000
0000
0001
0000
0000
0000
0000
0000
0001
0000
0000
,
1000
0000
0000
0000
0000
0000
0010
0000
0000
1000
0000
0000
0001
0000
0000
0000
0000
0000
0022
0000
0000
0000
0030
0000
0000
0000
0000
0013
0000
0000
0100
0000
0000
0010
0000
0000
0001
0000
0000
1000
0000
0000
0000
0000
0000
0001
0000
0000
,
0100
0000
0000
0000
0000
0000
0010
0000
0000
1000
0000
0000
0001
0000
0000
0000
0000
0000
2020
0000
0000
0000
3000
0000
0000
0000
0000
0130
0000
0000
0010
0000
0000
1000
0000
0000
0001
0000
0000
0100
0000
0000
0000
0000
0000
0001
0000
0000
,
1000
0000
0000
0000
0000
0000
0001
0000
0000
0010
0000
0000
0001
0000
0000
0000
0000
0000
0202
0000
0000
0000
0003
0000
0000
0000
0000
0310
0000
0000
1000
0000
0000
0100
0000
0000
1000
0000
0000
0001
0000
0000
0000
0000
0000
0010
0000
0000
,
0100
0000
0000
0000
0000
0000
1000
0000
0000
0100
0000
0000
0010
0000
0000
0000
0000
0000
0022
0000
0000
0000
0030
0000
0000
0000
0000
1003
0000
0000
0001
0000
0000
0010
0000
0000
0001
0000
0000
1000
0000
0000
0000
0000
0000
0001
0000
0000
,
0100
0000
0000
0000
0000
0000
0010
0000
0000
1000
0000
0000
0010
0000
0000
0000
0000
0000
2200
0000
0000
0000
3000
0000
0000
0000
0000
0310
0000
0000
0001
0000
0000
1000
0000
0000
0001
0000
0000
0100
0000
0000
0000
0000
0000
0010
0000
0000
,
1000
0000
0001
0010
0001
0000
0200
0000
0310
0000
1000
0001
0100
0000
0000
0000
,
0001
0000
1000
0100
1000
0000
0010
0000
0000
0100
0001
0000
0010
0001
0000
1000
,
0001
0000
0010
0100
1000
0000
1000
0000
0001
0100
0000
0000
0001
1000
0000
0010
,
0100
0000
0001
0010
0001
0000
1000
0000
0000
0100
0010
0000
0100
1000
0000
0001
,
1000
0000
0101
0000
0000
0000
1010
0000
0100
0000
0010
1000
0001
0000
0000
0000
,
0010
0000
0001
0100
1000
0000
1000
0000
0000
0010
1000
0000
0100
0010
0000
0001
,
1000
0000
0010
0100
0001
0000
0001
0000
1000
0010
0000
0000
0100
0001
0000
0001
,
0010
0000
0100
1000
0001
0000
0100
0000
0000
0010
1000
0000
0001
0010
0000
0100
,
1000
0000
1100
0000
0000
0000
0011
0000
1000
0000
0001
0100
0010
0000
0000
0000
;
