#TITLE:BALLAD FOR YOU ~想いの雨~;
#ARTIST:NM feat. Thomas Howard;
#TITLETRANSLIT:BALLAD FOR YOU ~omoi no ame~;
#BANNER:BALLAD FOR YOU ~omoi no ame~-bn.png;
#BACKGROUND:BALLAD FOR YOU ~omoi no ame~-bg.png;
#JACKET:BALLAD FOR YOU ~omoi no ame~-jacket.png;
#MUSIC:BALLAD FOR YOU ~omoi no ame~.ogg;
#SAMPLESTART:51.423;
#SAMPLELENGTH:20;
#DISPLAYBPM:65;
#BPMS:0=65.35,4=65.335;
#BGCHANGES:;

//---------------dance-single - ----------------
#NOTES:
     dance-single:
     :
     Beginner:
     2:
     :
0000
0000
0000
0000
,
0000
0000
0000
0000
,
0000
0000
0000
0000
,
0000
1000
0000
1000
,
0000
0001
0001
0001
,
0000
1000
0000
0100
,
0000
0010
0000
0001
,
0000
1000
0000
0100
,
0000
0001
0000
0100
,
0000
0000
0001
0000
,
1000
0000
1000
0000
,
0100
0000
0100
0000
,
0010
0010
0000
0100
,
0000
1000
0000
0001
,
0000
0100
0000
0010
,
0000
0001
0001
0000
,
1000
0000
0100
0000
,
0000
0000
0010
0000
,
0001
0000
0001
0000
,
0010
0000
0010
0000
,
0001
0000
0001
0000
,
0010
0000
0010
0000
,
0001
0001
0000
1000
,
1000
0000
0010
0000
,
0010
0010
0010
0010
,
0000
0000
0000
0000
,
1000
0000
1000
0000
,
0010
0000
0001
0000
,
0000
0000
0010
0000
;

//---------------dance-single - ----------------
#NOTES:
     dance-single:
     :
     Easy:
     5:
     :
0000
0000
0000
0000
,
0000
0000
0000
0000
,
0000
0000
0000
0000
,
0000
1000
0000
1000
,
0000
0001
0001
0001
,
1000
1000
0100
0100
,
0000
0010
0000
0001
,
0000
1000
0000
0100
,
0010
0001
1000
0100
,
2000
3000
0002
0003
,
1000
0000
0000
0000
0000
1000
1000
0000
0000
0010
0000
0000
,
0100
0000
0000
0000
0000
0100
0100
0000
0000
0001
0000
0000
,
0010
0010
0100
0100
,
1000
1000
0001
0001
,
0100
0000
0100
0100
0000
0000
0010
0000
0010
0010
0000
0000
,
2000
0002
3000
0003
,
1000
0010
0100
0001
,
0000
0001
0001
0000
1000
1000
0010
0000
0000
0100
0000
0000
,
0001
1000
0001
0000
,
0010
0100
0010
0000
,
0001
0001
0001
1000
1000
1000
0001
0000
0000
1000
0000
0000
,
0010
0010
0010
0100
0100
0100
0010
0000
0000
0100
0000
0000
,
0001
0001
1000
1000
,
2000
3200
0320
0032
,
0013
0010
0010
0010
,
0000
0001
0001
0000
0100
0100
0000
0010
0010
0000
1000
1000
,
1000
0010
2000
3100
,
0020
0001
0001
0130
,
0000
0000
0010
0000
;

//---------------dance-single - ----------------
#NOTES:
     dance-single:
     :
     Medium:
     7:
     :
0000
0000
0000
0000
,
0000
0000
0000
0000
,
0010
0000
0001
0100
,
1000
0000
1000
0100
,
0002
0023
0230
2300
,
3001
1000
0100
0010
,
0002
0103
2000
3100
,
0010
0100
0020
0030
,
0001
1000
0001
0100
,
0020
0030
1000
0100
,
0001
1000
0100
0010
0000
0000
0100
0010
0100
1000
0000
0000
,
0002
2003
3200
0300
,
1000
0100
0010
0100
0000
0000
0010
0001
0100
0001
0000
0000
,
0010
0010
0010
0100
0100
0100
2000
0000
0000
3100
0000
0000
,
1000
0000
0000
0000
0010
0000
0000
0000
0100
0000
0000
0000
0001
0000
0000
0000
1000
0000
0000
0000
0100
0000
0000
0000
2000
0000
0000
0000
0000
0000
0000
0000
0000
3000
0000
0000
0000
0000
0000
0000
0100
0000
0000
0000
1000
0000
0000
0000
,
0001
0000
0000
0000
0100
0000
0000
0000
0010
0000
0000
0000
1000
0000
0000
0000
0001
0000
0000
0000
0100
0000
0000
0000
0002
0000
0000
0000
0000
0000
0000
0000
0000
0003
0000
0000
0000
0000
0000
0000
0100
0000
0000
0000
0010
0000
0000
0000
,
1000
0100
1000
0000
0010
0100
0001
1000
0001
0000
0010
0001
,
0200
0300
0020
0030
,
0002
1000
0010
0003
,
2000
0100
0001
3000
,
0100
0000
0000
0000
0010
0000
0000
0000
1000
0000
0000
0000
0100
0000
0000
0000
0010
0000
0000
0000
0100
0000
0000
0000
2000
0000
0000
0000
0000
0000
0000
0000
0000
3000
0000
0000
0000
0000
0000
0000
0001
0000
0000
0000
0010
0000
0000
0000
,
0100
1000
0100
1000
1000
1000
0002
0000
0000
0003
0000
0000
,
1000
0100
1000
0010
0000
0000
0001
0010
0001
0100
1000
0100
,
0002
2003
3200
0300
,
0010
0000
0000
0000
0010
0000
0000
0000
0010
0000
0000
0000
1000
0000
0000
0000
0001
0000
0000
0000
0100
0000
0000
0000
0002
0000
0000
0000
0000
0000
0000
0000
0000
0003
0000
0000
0000
0000
0000
0000
1000
0000
0000
0000
0100
0000
0000
0000
,
1000
0000
0000
0000
1000
0000
0000
0000
1000
0000
0000
0000
0001
0000
0000
0000
0010
0000
0000
0000
0100
0000
0000
0000
2000
0000
0000
0000
0000
0000
0000
0000
0000
3000
0000
0000
0000
0000
0000
0000
0000
0000
0000
0000
0000
0000
0000
0000
,
0001
0001
0001
1000
0100
0010
0100
0100
0100
1000
0100
0010
,
0002
0000
2003
0000
,
0000
0000
3000
0000
;

//---------------dance-single - ----------------
#NOTES:
     dance-single:
     :
     Hard:
     8:
     :
0000
0000
0000
0000
,
0000
0000
0000
0000
,
0020
0000
0000
0000
0000
0000
0000
0000
0000
0030
0000
0000
0000
0000
0000
0000
0001
0000
0000
0000
0100
0000
0000
0000
0001
0000
0000
0000
0010
0000
0000
0000
0100
0000
0000
0000
1000
0000
0000
0000
0001
0000
0000
0000
0100
0000
0000
0000
,
0020
0000
0000
0000
0000
0000
0000
0000
0000
0030
0000
0000
0000
0000
0000
0000
1000
0000
0000
0000
0100
0000
0000
0000
1000
0000
0000
0000
0010
0000
0000
0000
0100
0000
0000
0000
0001
0000
0000
0000
1000
0000
0000
0000
0100
0000
0000
0000
,
2000
0000
0000
0000
0000
0000
0000
0000
0000
3000
0000
0000
0000
0000
0000
0000
0010
0000
0000
0000
1000
0000
0000
0000
0100
0000
0000
0000
0010
0000
0000
0000
0100
0000
0000
0000
1000
0000
0000
0000
0001
0000
0000
0000
0001
0000
0000
0000
,
0010
0000
0000
0000
0001
0000
0000
0000
0100
0000
0000
0000
0000
0000
0000
0000
0000
0000
0000
0000
0000
0000
0000
0000
0002
0000
0000
0000
0000
0000
0000
0000
0000
0000
0000
0000
2003
0000
0000
0000
0000
0000
0000
0000
0000
3000
0000
0000
,
0010
1000
0010
0100
0001
1000
0100
0000
0000
1000
1000
1000
,
0001
0000
0000
0000
0100
0000
0000
0000
1000
0000
0000
0000
0100
0000
0000
0000
0001
0000
0000
0000
0100
0000
0000
0000
2000
0000
0000
0000
0000
0000
0000
0000
0000
3000
0000
0000
0100
0000
0000
0000
0001
0000
0000
0000
1000
0000
0000
0000
,
0100
0100
1000
0100
0000
0000
1000
0000
0000
0100
1000
0001
,
0100
0000
0000
0000
0001
0000
0000
0000
0100
0000
0000
0000
0200
0000
0000
0000
0000
0000
0000
0000
0000
0000
0000
0000
0302
0000
0000
0000
0000
0000
0000
0000
0000
0000
0000
0000
2003
0000
0000
0000
0000
0000
0000
0000
0000
3000
0000
0000
,
0010
0000
0000
0000
0010
0000
0000
0000
0010
0000
0000
0000
1000
0000
0000
0000
1000
0000
0000
0000
1000
0000
0000
0000
0001
0000
0000
0000
0001
0000
0000
0000
0001
0000
0000
0000
2000
0000
0000
0000
0000
0000
0000
0000
0000
3000
0000
0000
,
0010
0000
0000
0000
0010
0000
0000
0000
0010
0000
0000
0000
1000
0000
0000
0000
0001
0000
0000
0000
0100
0000
0000
0000
2000
0000
0000
0000
0000
0000
0000
0000
0000
3000
0000
0000
0001
0000
0000
0000
0010
0000
0000
0000
0001
0000
0000
0000
,
1000
0000
0000
0000
0010
0000
0000
0000
0100
0000
0000
0000
0002
0000
0000
0000
0000
0000
0000
0000
0000
0003
0000
0000
1000
0000
0000
0000
0001
0000
0000
0000
0100
0000
0000
0000
2000
0000
0000
0000
0000
0000
0000
0000
0000
3000
0000
0000
,
0001
0000
0000
0000
1000
0000
0000
0000
0100
0000
0000
0000
0001
0000
0000
0000
1000
0000
0000
0000
0100
0000
0000
0000
0002
0000
0000
0000
0000
0000
0000
0000
0000
0000
0000
0000
0203
0000
0000
0000
0000
0000
0000
0000
0000
0300
0000
0000
,
0010
0000
0000
0000
0010
0000
0000
0000
0010
0000
0000
0000
1000
0000
0000
0000
0001
0000
0000
0000
0100
0000
0000
0000
2000
0000
0000
0000
0000
0000
0000
0000
0000
3000
0000
0000
0001
0000
0000
0000
1000
0000
0000
0000
0100
0000
0000
0000
,
1000
0000
0000
0000
1000
0000
0000
0000
1000
0000
0000
0000
0010
0000
0000
0000
0100
0000
0000
0000
0001
0000
0000
0000
0200
0000
0000
0000
0000
0000
0000
0000
0000
0300
0000
0000
0001
0000
0000
0000
1000
0000
0000
0000
0100
0000
0000
0000
,
0001
0100
1000
0001
0010
0001
1000
0100
1000
0010
1000
0100
,
0020
0000
0000
0030
,
0000
0000
0000
0000
,
0020
2030
3002
0003
,
0010
0010
0010
0001
1000
0100
0001
0000
0000
1000
0001
0100
,
1000
1000
1000
0001
1000
0100
0001
0000
0000
1000
0001
0100
,
1000
0100
0001
1000
0010
1000
0001
0100
0001
0010
0001
0100
,
0020
2030
3002
0003
,
0100
0001
1000
0100
0010
0001
1000
0010
0100
1000
0100
0001
,
0010
0100
1000
0010
0100
0010
1000
0100
0001
0100
0010
0001
,
1000
0100
0010
0001
1000
0010
0100
0100
0100
0001
0100
1000
,
0002
0000
2003
3000
;

//---------------dance-single - ----------------
#NOTES:
     dance-single:
     :
     Challenge:
     13:
     :
0000
0000
0000
0000
,
0000
0000
0000
0000
,
1001
0000
0010
0000
0100
0000
0110
0000
0001
0000
1000
0000
0001
0100
1000
0100
0001
0000
0010
0000
0100
0000
1000
0000
,
1010
0000
0100
0000
0001
0000
0011
0000
1000
0000
0010
0000
1000
0100
0001
0100
1000
0000
0010
0000
0100
0000
0001
0000
,
0010
0100
1000
0002
0100
0010
2003
0001
0100
3020
1000
0001
,
0230
0000
0010
0000
0001
0000
1300
0000
0100
0000
0001
0000
0010
0100
1000
0000
0001
0000
0101
0000
0100
0000
0010
0000
,
2010
0000
0001
0000
0100
0000
3010
0000
0100
0000
0001
0000
1000
0000
0100
0000
0010
0001
0100
0000
0110
0000
1000
0000
,
2010
0000
0001
0000
0100
0000
3010
0000
1000
0000
0001
0000
0100
1000
0100
0001
0100
0010
1000
0000
1100
0000
1100
0000
,
1001
0100
0010
2000
0001
0100
3020
0001
1000
0230
1000
0010
,
0302
0000
0100
0000
1000
0000
0013
0000
0100
0000
1000
0001
0100
0000
0010
1000
0001
0000
0101
0000
1100
0000
0101
0000
,
0010
0000
0001
0000
1000
0000
1000
0000
0100
0000
0001
0000
0010
1000
0010
0001
0100
0000
0010
0001
0010
1000
0100
0000
,
0001
0000
0010
0000
0100
0000
1000
0000
0010
0000
1000
0000
0001
0100
0010
1000
0100
0010
0001
0000
1001
0000
0110
0000
,
1001
0000
0010
0000
1000
0000
0001
0000
0100
0000
0100
0000
0010
0000
1000
0000
0100
0000
0010
0000
0001
0000
0100
0001
,
1000
0010
0100
0000
0001
0000
0011
0000
0100
0000
1000
0000
0001
0100
0010
0100
0001
1000
0100
0001
0100
1000
0010
0100
,
0001
0000
0100
0000
1000
0000
0010
0000
1000
0000
0100
0000
0010
0001
1000
0001
0010
0000
0100
0001
0100
1000
0010
0000
,
0100
0000
0100
0000
0001
0000
0010
0000
0001
0000
1000
0000
0010
0100
0001
1000
0100
0010
0001
0000
0011
0000
0110
0000
,
1100
0001
1000
0000
0010
0100
0002
0000
1000
0000
1000
0000
0103
0010
1000
0000
0001
0000
0010
0100
1000
0000
0001
0000
,
0110
0001
1000
0010
0100
0000
0101
1000
0100
0010
0001
0000
0200
0000
0010
0000
0010
0000
0310
1000
0100
0010
0001
0000
,
1001
0000
0001
0100
1000
0000
0010
0000
0110
0000
0110
0000
0110
1000
0001
0000
0010
0001
0100
0000
0010
0000
1000
0000
,
1100
0100
0010
0001
1000
0000
0010
0000
0200
0000
0302
0000
1003
0010
0001
0010
1000
0010
0100
0000
1010
0000
0001
0100
,
0010
0000
0000
0000
0010
0000
0000
0000
0010
0000
1000
0000
0100
0000
1000
0001
1000
0001
1000
0001
1000
0001
1000
0001
0100
0000
0010
0000
1000
0000
0001
0100
0001
0000
0010
0000
1000
0000
0010
0000
0100
0000
0010
0000
0001
0000
0000
0000
,
1001
0100
0010
1000
0001
0000
0010
0000
0110
0000
1001
0000
0110
1000
0010
0100
0010
1000
0001
0000
0100
0010
1000
0000
,
0101
0001
0010
0100
1000
0000
0002
0000
0100
0000
0100
0000
0013
0001
1000
0010
0100
0000
0001
0100
1000
0100
0001
0000
,
0011
0000
0110
0000
1100
0000
1010
0000
1001
0000
0101
0000
0011
0001
0010
1000
0100
0000
1010
1000
0010
0001
0100
0010
,
1000
0100
0001
0000
0010
0000
0200
0000
1000
0000
0001
0000
0310
0100
1000
0000
0001
0000
1010
0000
0100
0000
0001
0000
,
0010
0100
1000
0001
0100
0000
1100
0000
0010
0000
0100
0000
0001
0100
0010
0100
1000
0100
0010
0100
1000
0100
0001
0000
,
0010
0000
0001
0000
1000
0000
0100
0000
0010
0001
1000
0000
0010
0000
0100
0001
0100
0000
0110
0000
1000
0000
0001
0000
,
0012
0000
0100
0000
0103
0010
1000
0000
1000
0000
1000
0000
0001
0010
0100
1000
0002
0000
0103
0010
1000
0010
0100
0000
,
0001
0000
2000
0000
0000
0000
0000
0000
0000
0000
0000
0000
3000
0000
0000
0010
0200
0000
0000
0000
0000
0000
0000
0000
0000
0000
0000
0000
0000
0000
0000
0000
,
0300
0000
0000
0000
;

//---------------dance-double - ----------------
#NOTES:
     dance-double:
     :
     Easy:
     4:
     :
00000000
00000000
00000000
00000000
,
00000000
00000000
00000000
00000000
,
00000000
00000000
00000000
00000000
,
00010000
10000000
00000000
01000000
,
00100000
00001000
00010000
00000010
,
00001000
00001000
00000001
00000001
,
00000000
00000010
00000000
00000100
,
00000000
00010000
00000000
00001000
,
00100000
00010000
00100000
00010000
,
20000000
30000000
00020000
00030000
,
01000000
00000000
01000000
00001000
,
00010000
00000000
00010000
00000010
,
00001000
00001000
00000001
00000001
,
00000100
00000100
00001000
00000000
,
00100000
00100000
00010000
00010000
,
20000000
30000000
00020000
00030000
,
02000000
03100000
02000000
03100000
,
00010000
00000000
00000000
00000000
,
00000010
00000100
00000010
00000000
,
00010000
00001000
00010000
00000000
,
00021000
00000000
00000000
00030000
,
00001000
00010000
00001000
00100000
,
00010000
00010000
10000000
10000000
,
00020000
00000000
00000000
00030000
,
00100000
00001000
00010000
00000010
,
00001000
00000001
00000100
00000010
,
00001000
00000100
00010000
00001000
,
00020000
00000000
00000000
00030000
,
00000000
00000000
10000000
00000000
;

//---------------dance-double - ----------------
#NOTES:
     dance-double:
     :
     Medium:
     7:
     :
00000000
00000000
00000000
00000000
,
00000000
00000000
00000000
00000000
,
00000000
00000000
00000000
00000000
,
00000001
00001000
00000010
00010000
,
02000000
03020000
20030000
30200000
,
01300000
00010000
00100000
00001000
,
00010000
00000000
00000000
00001000
00000000
00010000
00010000
00000000
00000000
00000010
00000000
00000000
,
00001000
00000000
00000000
00000001
00000000
00001000
00001000
00000000
00000000
00000010
00000000
00000000
,
00010000
00001000
00001000
00010000
00000000
00000000
00001000
00000000
00000000
00100000
00000000
00000000
,
00010000
00000000
00000000
00000000
00000000
00000000
00000000
00000000
00000000
00000000
00000000
00000000
00100000
00000000
00000000
00000000
01000000
00000000
00000000
00000000
01000000
00000000
00000000
00000000
20000000
00000000
00000000
00000000
00000000
00000000
00000000
00000000
00000000
30000000
00000000
00000000
00200000
00000000
00000000
00000000
00000000
00000000
00000000
00000000
00000000
00300000
00000000
00000000
,
01000000
00001000
00010000
00001000
00000000
00000000
00010000
00000100
00000010
00000100
00000000
00000000
,
00001000
00000010
00000100
00000001
00000100
00001000
00010000
00000000
00000000
01000000
00000000
00000000
,
00100000
00010000
00100000
00010000
00000000
00000000
10000000
01000000
10000000
01000000
00000000
00000000
,
00010000
00001000
00000100
00000001
00000010
00000100
00000010
00000001
00000001
00000000
00000000
00000000
,
00001000
00000100
00001000
00000100
00000000
00000000
00010000
00100000
00010000
00100000
00000000
00000000
,
00100000
10000000
01000000
00010000
00001000
00010000
00001000
00000000
00000000
00010000
00000000
00000000
,
00000000
00000010
00000010
00000000
00001000
00001000
00000000
00000001
00000001
00000000
00000100
00000100
,
00000010
00000000
00010000
01000000
,
00200000
01000000
01000000
00300000
,
20000000
00010000
00010000
30000000
,
00100000
01000000
00100000
01000000
00010000
10000000
00010000
10000000
01000000
00010000
00001000
00010000
,
00001000
00000100
00000010
00000100
00000010
00001000
00000001
00000000
00000000
00000100
00000000
00000000
,
00001000
00010000
00010000
00001000
00000000
00000000
01000000
00100000
00100000
01000000
00000000
00000000
,
10000000
00000000
01000000
00010000
00000000
00001000
00000100
00000000
00000001
00000010
00000000
00000100
,
00001000
00000100
00010000
00001000
00010000
00001000
00100000
00000000
00000000
01000000
00000000
00000000
,
00001000
00010000
00010000
00001000
00000000
00000000
00010000
00001000
00001000
00010000
00000000
00000000
,
00000100
00000010
00000100
00000010
00000000
00000000
00000001
00001000
00000001
00001000
00000000
00000000
,
00000100
00000000
00010000
00001000
,
00000000
00000000
00100000
00000000
;

//---------------dance-double - ----------------
#NOTES:
     dance-double:
     :
     Hard:
     9:
     :
00000000
00000000
00000000
00000000
,
00000000
00000000
00000000
00000000
,
00000001
00000000
00000000
00001000
00000001
00000010
00001000
00000000
00010000
00000000
00001000
00000000
,
01000000
00000000
00000000
00010000
10000000
00100000
00010000
00000000
00001000
00000000
00010000
00000000
,
00002000
00000000
00010000
00013000
00000000
00000000
00020000
00000000
00001000
00031000
00010000
00001000
,
00000100
00000000
00000000
00000000
00000010
00000000
00000000
00000000
00001000
00000000
00000000
00000000
00000001
00000000
00000000
00000000
00000100
00000000
00000000
00000000
00000100
00000000
00000000
00000000
00000020
00000000
00000000
00000000
00000000
00000000
00000000
00000000
00000000
00000030
00000000
00000000
00020000
00000000
00000000
00000000
00000000
00000000
00000000
00000000
00000000
00030000
00000000
00000000
,
00002000
00000000
00003100
00000001
00001000
00001000
00000020
00000000
00000000
00000130
00001000
00001000
,
00020000
00000000
00032000
00000000
00013000
01000000
10000000
00100000
01000000
00010000
10000000
01000000
,
00010000
00001000
00010000
00000100
00000000
00000010
00000001
00000000
00000100
00000010
00010000
00001000
,
00100000
00000000
00000000
00000000
00010000
00000000
00000000
00000000
10000000
00000000
00000000
00000000
01000000
00000000
00000000
00000000
00000000
00000000
00000000
00000000
00010000
00000000
00000000
00000000
00002000
00000000
00000000
00000000
00000000
00000000
00000000
00000000
00000000
00003000
00000000
00000000
00020000
00000000
00000000
00000000
00000000
00000000
00000000
00000000
00000000
00030000
00000000
00000000
,
00001000
00000100
00000001
00000100
00001000
00010000
00001000
00001000
00001000
00010000
01000000
10000000
,
01000000
00010000
00001000
00010000
00010000
00010000
00001000
00000000
00000000
00100000
00000000
00000000
,
10000000
00010000
01000000
00001000
00000000
00010000
00000010
00001000
00000001
00000100
00000000
00000010
,
00001000
00000100
00010000
00001000
00100000
00010000
01000000
01000000
01000000
00100000
10000000
10000000
,
01000000
00010000
00001000
00000100
00000010
00000010
00000010
00001000
00000001
00000100
00000000
00001000
,
00010000
00100000
10000000
01000000
00010000
00001000
00100000
00001000
00010000
00000100
00000000
00000001
,
00000010
00001000
00010000
00011000
00000000
00001000
00010000
01000000
10000000
10010000
10000000
10000000
,
00200000
00000000
00000000
20300000
00000000
30100000
10000000
01000000
00010000
00001000
00000100
00000001
,
00000020
00000230
00020300
00030000
,
00002000
00203000
00320000
00030000
,
00100000
00100000
00100000
10000000
01000000
00010000
00001000
00000100
00000100
00000100
00000001
00001000
,
00000010
00001000
00001000
00000001
00000100
00001000
00010000
00001000
00001000
00010000
00100000
10000000
,
01000000
00100000
00100000
00001000
00100000
00100000
01000000
10000000
10000000
01000000
00010000
00001000
,
00000100
00000001
00000001
00000010
00000010
00000100
00001000
00000010
00000100
00001000
00010000
00000010
,
00001000
00000100
00010000
00001000
00100000
00010000
02000000
00000000
10000000
13000000
01000000
00010000
,
00100000
00001000
00010000
00000010
00001000
00000100
00000200
00000000
00000001
00000301
00000000
00000000
,
00001000
00001000
00000100
00010000
00010000
00001000
00100000
00100000
00010000
10000000
01000000
00010000
,
00002000
00000000
00000000
00000000
00000000
00000000
00000000
00000000
00000000
00000000
00000000
00000000
00000000
00000000
00000000
00000000
00000000
00010000
00000000
00000000
00000000
00000000
00000000
00000000
00000000
00000000
00000000
00000000
00003000
00000000
00000000
00000000
00000000
00010000
00000000
00000000
00000000
00000000
00000000
00001000
00000000
00000000
00000000
00000000
00000000
00000100
00000000
00000000
00000000
00000000
00000001
00000000
00000000
00000000
00000000
00000010
00000000
00000000
00000000
00000000
00000000
00000100
00000000
00000000
,
00000000
00000000
00100000
00000000
;
