#TITLE:BABY LOVE ME;
#ARTIST:JUDY CRYSTAL;
#BANNER:BABY LOVE ME-bn.png;
#BACKGROUND:BABY LOVE ME-bg.png;
#JACKET:BABY LOVE ME-jacket.png;
#MUSIC:BABY LOVE ME.ogg;
#SAMPLESTART:37.52;
#SAMPLELENGTH:20;
#DISPLAYBPM:160;
#BPMS:0=158.359,4=160.006;
#BGCHANGES:0=BABY LOVE ME.mp4=1=0=0=0,
;

//---------------dance-single - ----------------
#NOTES:
     dance-single:
     :
     Beginner:
     2:
     :
0000
0000
0000
0000
,
0000
0000
0000
0000
,
0000
0000
0000
0000
,
0010
0000
0010
0000
,
1000
0000
0000
0000
,
0001
0000
0000
0000
,
1000
0000
0000
0000
,
0100
0000
1000
0000
,
0001
0000
0001
0000
,
0000
0000
0010
0000
,
0001
0000
0100
0000
,
0010
0000
0000
0000
,
1000
0000
0000
0000
,
0000
0000
0100
0000
,
0010
0000
0001
0000
,
1000
0000
0000
0000
,
0001
0000
0000
0000
,
0010
0000
0000
0000
,
0100
0000
0000
0000
,
1000
0000
1000
0000
,
1000
0000
0000
0000
,
0010
0000
0000
0000
,
1000
0000
0000
0000
,
0001
0000
0001
0000
,
0100
0000
0000
0000
,
0010
0000
0010
0000
,
1000
0000
1000
0000
,
0100
0000
1000
0000
,
0001
0000
0000
0000
,
1000
0000
1000
0000
,
0001
0000
0001
0000
,
0010
0000
0001
0000
,
0100
0000
0000
0000
,
0010
0000
0100
0000
,
0010
0000
0010
0000
,
1000
0000
0100
0000
,
0001
0000
0000
0000
,
0100
0000
0010
0000
,
1000
0000
0001
0000
,
0010
0000
0001
0000
,
0100
0000
0000
0000
,
0010
0000
0000
0000
,
1000
0000
0000
0000
,
0001
0000
0001
0000
,
1000
0000
0000
0000
,
0100
0000
0000
0000
,
0010
0000
0000
0000
,
0001
0000
0100
0000
,
0001
0000
1000
0000
,
0010
0000
0000
0000
,
1000
0000
0000
0000
,
0100
0000
0010
0000
,
0001
0000
0000
0000
,
1000
0000
0000
0000
,
0001
0000
0000
0000
,
0010
0000
0010
0000
,
0001
0000
1000
0000
;

//---------------dance-single - ----------------
#NOTES:
     dance-single:
     :
     Easy:
     5:
     :
0000
0000
0000
0000
,
0000
0000
0000
0000
,
0000
0000
0000
0000
,
1000
0000
0001
0000
,
0100
0100
0100
0000
,
0001
0000
0001
0000
,
1000
0000
1000
0000
,
0001
0000
1000
0000
,
0010
0010
0010
0000
,
1000
0000
0100
0000
,
0001
0000
0100
0000
,
0020
0000
0000
0030
,
2000
0000
0000
3000
,
0001
0000
0100
0000
,
1000
0000
0100
0000
,
0002
0000
0000
0003
,
0200
0000
0000
0300
,
0100
0000
0001
0000
,
0001
0000
0001
0000
,
0010
0000
1000
0000
,
1000
0000
1000
0000
,
0010
0000
1000
0000
,
0001
0000
0100
0000
,
0110
0000
0110
0000
,
2002
0000
3003
0000
,
0001
0000
0001
0000
,
1000
0000
1000
0000
,
0001
0000
1000
0000
,
0110
0000
1001
0000
,
0010
0000
0010
0000
,
0100
0000
0100
0000
,
1000
0000
0001
0000
,
1000
0001
1000
0001
,
0001
0000
2000
3000
,
1000
0000
0002
0003
,
0010
0000
0100
0000
,
1000
0001
1000
0000
,
0100
0000
2000
3000
,
0001
0000
0200
0300
,
1000
0000
0001
0000
,
2002
0000
0000
3003
,
0001
0100
2000
3000
,
1000
0100
0002
0003
,
1001
0000
0110
0000
,
0001
0000
1000
0000
,
0002
0000
0000
0003
,
2000
0000
0000
3000
,
1001
0000
1001
0000
,
1000
0100
0001
0000
,
1000
0100
0002
0003
,
0001
0100
2000
3000
,
1001
0000
0110
0000
,
0001
0100
1000
0100
,
1000
1000
1000
0000
,
0001
0001
0001
0000
,
1000
0000
0001
0000
,
2002
0000
0000
3003
;

//---------------dance-single - ----------------
#NOTES:
     dance-single:
     :
     Medium:
     8:
     :
0000
0000
0000
0000
,
0000
0000
0000
0000
,
0000
0000
0000
0000
,
0001
0000
1000
0000
,
0001
0000
1000
0000
,
0011
0011
2000
3100
,
1010
1010
0002
0103
,
2000
3100
0002
0103
,
2002
0000
0000
3003
,
0001
1000
0100
0000
1000
0001
0100
0000
,
0001
0100
1000
0010
,
1000
0001
0100
0000
1000
0001
0100
0000
,
1000
0100
0001
0010
,
0010
1000
0100
0000
0010
0001
0100
0000
,
0001
0001
1000
1000
,
0002
0103
2000
3010
,
2002
0000
0000
3003
,
0100
2000
0002
0003
,
0002
0003
0002
3003
,
0010
0002
2000
3000
,
2000
3000
2000
3003
,
0001
0100
0001
0000
1000
0100
1000
0000
,
0010
1000
0010
0000
0001
1000
0001
0000
,
1000
1000
0001
0001
,
2002
0000
0000
3003
,
0011
0011
1100
1100
,
1010
1010
0101
0101
,
0100
1000
0010
0001
,
1001
0100
1001
0100
,
1010
1010
0101
0101
,
0011
0011
1100
1100
,
0001
0100
1000
0100
,
1010
0001
0011
1000
,
0001
0100
0001
0000
2000
0000
3100
0000
,
1000
0100
1000
0000
0002
0000
0103
0000
,
0001
0100
1000
0000
1000
0100
0001
0000
,
2002
3003
0220
0330
,
1000
0001
0100
0001
1000
0000
0001
0000
,
0001
1000
0010
1000
0001
0000
1000
0000
,
0001
0101
1000
1100
,
2002
0000
0000
3003
,
1100
1100
0002
0103
,
0011
0011
2000
3100
,
0002
0103
2000
3010
,
0022
0000
0033
0011
,
1010
1010
0002
0103
,
0101
0101
2000
3010
,
0001
1000
0001
0000
1000
0001
1000
0000
,
0010
0001
0100
1000
,
1000
0100
1000
0001
1000
0000
0001
0000
,
0001
0100
0001
1000
0001
0000
1000
0000
,
0011
1000
1010
0001
,
0002
0100
2000
3003
,
0010
1000
0100
1000
0001
0000
1000
0000
,
0010
0001
0100
0001
1000
0000
0001
0000
,
0001
1000
0001
0000
1000
0001
1000
0000
,
2002
0000
0000
3003
;

//---------------dance-single - ----------------
#NOTES:
     dance-single:
     :
     Hard:
     12:
     :
0000
0000
0000
0000
,
0000
0000
0000
0000
,
0000
0000
0000
0000
,
0001
0010
0000
0010
0001
0000
1000
0000
0002
0000
0000
0000
1003
0000
0000
0000
,
0010
1000
0001
0100
0000
1001
1001
0000
,
1000
0010
0000
0010
1000
0000
0001
0000
2000
0000
0000
0000
3001
0000
0000
0000
,
0001
0010
0000
0010
0001
0000
1000
0000
0020
0000
0000
0000
0130
0000
0000
0000
,
0001
0100
0000
0100
0001
0000
1000
0000
0020
0000
0000
0000
0130
0000
0000
0000
,
0010
1000
0001
0100
0001
1001
0000
0000
,
0001
1000
0100
0100
1000
0001
0100
0100
,
0001
0010
0100
0100
1000
0010
0100
0000
,
0001
0010
0100
0000
1000
0010
0100
0000
,
0001
1000
0001
0100
0010
1000
1001
0000
,
0010
0100
0100
0000
1000
0001
0001
0000
,
0001
0010
0010
0000
0100
1000
1000
0000
,
0001
0010
0100
1000
1000
0100
0010
0001
,
0001
0100
0010
1000
0001
1001
0000
0000
,
0011
0010
0010
0010
0100
0010
0001
0010
,
0000
1100
0010
1000
0100
0010
0001
0010
,
0001
0100
0010
0001
0010
1000
0100
0010
,
0000
1000
0001
1000
0001
0100
0010
0000
,
1010
0010
0010
0010
0100
0001
0001
0001
,
0011
0100
0100
0100
1000
0010
0100
0100
,
0001
0010
0100
1000
1000
0100
0010
2002
,
0000
0000
0000
0000
3003
1001
1001
0000
,
0001
0010
1000
0010
0001
1001
0000
1001
,
0000
1000
0001
0001
1000
0100
0000
1001
,
0000
0010
0100
1000
0001
0010
0100
1000
,
0001
0100
0010
0001
0010
1000
0100
0000
,
1000
0010
0001
0010
1000
1001
0000
1001
,
0000
0001
1000
1000
0001
0100
0000
0101
,
0000
1100
0001
1000
0001
0010
0000
0001
,
1000
0010
0100
0001
1000
0100
0000
0000
,
0010
0001
0100
1000
0100
0001
0010
0100
,
1000
0010
0100
0001
0010
0001
0100
1000
,
0100
0010
1000
0100
0001
0100
0010
0001
,
0100
1000
0100
0001
0010
0100
1000
0000
,
0010
1000
1000
0010
0100
0001
0001
0100
,
0001
0010
0010
0001
1000
0100
0100
1000
,
0001
1000
1000
0100
1000
0010
0100
0001
,
1000
0100
1000
0010
1001
1001
0000
0000
,
0001
0010
0000
0010
0001
0000
1000
0000
0001
0000
0000
0000
1000
0000
0000
0000
,
1000
0010
0000
0010
1000
0000
0001
0000
1000
0000
0000
0000
0001
0000
0000
0000
,
0001
0100
0000
0100
0001
0000
1000
0000
0001
0000
0000
0000
1000
0000
0000
0000
,
1000
0010
0100
0001
0000
1001
1001
0000
,
1000
0010
1000
0010
0100
0000
0001
0000
2000
0000
0000
0000
3000
0000
0000
0000
,
0001
0010
0001
0010
0100
0000
1000
0000
0002
0000
0000
0000
0003
0000
0000
0000
,
1000
0100
1000
0100
0010
0000
0001
0000
0010
0000
0000
0000
0100
0000
0000
0000
,
1000
0010
0100
0001
0010
0100
0100
0100
,
0010
0001
0000
1000
0100
0000
1000
0000
0002
0000
0000
0000
0003
0000
0100
0000
,
0010
1000
0000
0001
0100
0000
0001
0000
2000
0000
0000
0000
3000
0000
0100
0000
,
1000
0100
0000
0001
0100
0000
0001
0000
1000
0000
0000
0000
0001
0000
0000
0000
,
0010
0001
0100
1000
0000
0001
1001
0000
,
0010
1000
0010
1000
0100
0000
0001
0000
0100
0000
0000
0000
0001
0000
0000
0000
,
0010
0001
0010
0001
0100
0000
1000
0000
0100
0000
0000
0000
1000
0000
0000
0000
,
0100
0010
0100
0010
0100
0000
0010
0000
0001
0000
0000
0000
1000
0000
0000
0000
,
0001
1000
0001
1000
0001
1000
0001
1000
0010
0000
0100
0000
0000
0000
0000
0000
;

//---------------dance-single - ----------------
#NOTES:
     dance-single:
     :
     Challenge:
     16:
     :
0000
0000
0000
0000
,
0000
0000
0000
0000
,
0000
0000
0000
0000
,
0010
1000
0000
1000
0100
0010
0001
0000
0011
0000
0000
0000
1100
0000
0000
0000
,
1001
1010
1100
0110
0000
0011
0101
0000
,
0010
1000
0000
0100
1000
0001
0100
0000
0110
0000
0000
0000
1001
0000
0000
0000
,
0001
0010
0000
0001
0010
0100
1000
0000
1100
0000
0000
0000
0101
0000
0000
0000
,
0010
1000
0000
0100
0010
0001
1000
0000
1100
0000
0000
0000
1001
0000
0000
0000
,
0001
0010
0100
0010
0001
0100
0010
0100
0001
0000
1100
0000
0000
0000
0000
0000
,
1001
0010
1000
0100
0001
0100
0010
0100
,
1000
0010
0001
0010
1000
0100
0001
0100
,
0010
0100
1000
0010
0100
1000
0100
0001
,
1000
0100
0010
0001
0100
1000
0100
0001
,
0010
0100
0010
0001
1000
0010
0001
0010
,
0100
0010
0001
0010
1000
0100
0001
0100
,
1000
0010
1000
0100
0001
0010
0100
1000
,
0010
1000
0100
0010
0001
1000
0100
1000
,
0001
2000
0000
0010
3010
1000
0100
0001
,
1000
0100
0010
0001
0010
0100
1000
0000
0001
0010
0100
1000
0100
0010
0001
0000
,
0100
1000
0100
0010
1000
0100
0001
0010
,
0100
1000
0010
1000
0100
0010
0001
0000
1000
0010
0100
0010
1000
0001
0100
0000
,
0110
0000
0010
0000
1000
0000
0002
0000
0000
0000
0013
0000
0001
0000
0100
0010
,
1000
0100
0001
0020
0000
0130
1000
0001
,
0100
0010
0100
1000
0100
0001
1000
0100
,
0010
0000
0001
0000
0100
0000
1000
0000
0000
0000
1010
0000
0101
0000
1000
0001
,
0100
0000
0010
0000
1000
0000
0100
0000
0001
0000
0010
0000
0001
1000
0100
0000
,
0010
0000
1000
0000
0010
0000
0001
0000
0100
0010
1000
0000
0100
0010
0001
0000
,
1000
0000
0010
0000
1000
0000
0001
0010
0100
0000
1000
0000
0001
0000
0100
0000
,
0010
0000
1000
0000
0100
0010
0001
0000
0100
0000
2020
0000
3030
0000
0001
0000
,
1000
0000
0010
0000
0001
0000
0010
0000
0100
0001
1000
0000
0100
0010
0001
0000
,
1000
0000
0100
0000
0001
0000
0100
0000
1000
0010
1000
0000
0100
0010
0001
0000
,
0100
0000
0010
0000
1000
0000
0100
0010
0001
0000
1000
0000
0010
0000
0100
0000
,
0001
0010
0100
0000
1000
0010
0100
0000
0001
1000
0100
0000
0010
0001
1000
0000
,
0010
1000
0100
0000
0010
0001
0100
0000
0010
1000
0010
1000
0100
0000
0001
0000
,
0100
1000
0010
0000
1000
0001
0100
0000
0010
0000
1000
0000
0001
0000
0100
0000
,
0001
0010
0001
0000
1000
0100
1000
0000
0010
0000
0100
0000
0001
0000
1000
0000
,
0100
0000
0010
0000
0001
0000
0100
0010
1000
0000
0202
0000
0303
0000
0010
1000
,
0100
0000
0010
0000
0001
0000
1000
0001
0100
0010
1000
0000
0001
1000
0100
0000
,
0010
0000
0001
0000
0100
0000
1000
0001
0010
0000
0100
0000
1000
0010
1000
0000
,
0100
0010
0001
0100
1000
0010
1000
0001
,
0100
0001
0010
0000
0001
1000
0100
0000
1100
0000
0011
0000
0000
0000
0000
0000
,
0010
1000
0000
0100
1000
0001
0100
0000
0110
0000
0000
0000
0101
0000
0000
0000
,
0001
0010
0000
1000
0100
1000
0001
0000
1010
0000
0000
0000
1100
0000
0000
0000
,
0010
0001
0000
1000
0001
0100
0010
0000
1001
0000
0000
0000
0110
0000
0000
0000
,
1010
1001
0011
0110
0000
1100
0101
0000
,
0010
1000
0000
0100
1000
0001
0010
0000
1100
0000
0000
0000
0011
0000
0000
0000
,
0100
0001
0000
0001
1000
0100
0010
0000
0011
0000
0000
0000
1010
0000
0000
0000
,
0100
0010
0000
0100
0001
1000
0010
0000
1100
0000
0000
0000
0110
0000
0000
0000
,
0001
0010
0100
0010
0001
0100
0010
0100
0001
0010
0100
0010
0001
0100
0010
0100
,
0001
1000
0010
1000
0100
0010
0001
0000
1001
0000
0000
0000
1010
0000
0000
0000
,
0100
0001
0010
0100
1000
0001
0100
0000
1010
0000
0000
0000
0110
0000
0000
0000
,
0001
0010
0100
0010
0100
1000
0001
0000
0011
0000
0000
0000
1100
0000
0000
0000
,
1001
1010
0101
0011
0000
1100
0110
0000
,
0001
1000
0100
1000
0010
0100
0001
0000
0011
0000
0000
0000
0101
0000
0000
0000
,
0100
0010
1000
0001
0010
0100
1000
0000
1001
0000
0000
0000
1100
0000
0000
0000
,
0010
0001
0100
0010
1000
0100
0010
0000
0011
0000
0000
0000
1100
0000
0000
0000
,
0001
0010
0100
0010
0001
0100
0010
0100
0001
0000
2020
0000
3030
0000
0000
0000
;

//---------------dance-double - ----------------
#NOTES:
     dance-double:
     :
     Easy:
     5:
     :
00000000
00000000
00000000
00000000
,
00000000
00000000
00000000
00000000
,
00000000
00000000
00000000
00000000
,
00100000
00100000
00001000
00001000
,
00010000
00010000
00000100
00000100
,
00000010
00000000
00000001
00000000
,
00000010
00000000
00001000
00000000
,
00001000
00000000
00010000
00000000
,
00100000
00000000
10010000
00000000
,
00100000
00000000
00100000
00000000
,
01000000
00000000
01000000
00000000
,
00010000
00000000
10000000
00000000
,
00100000
00010000
00001000
00000100
,
00000001
00000000
00000001
00000000
,
00000010
00000000
00000100
00000000
,
00001001
00000000
00000010
00000000
,
00000010
00000000
00000000
00000000
,
00000010
00000000
00000001
00000000
,
00000100
00000000
00001000
00000000
,
00010000
00000000
01000000
00000000
,
10000000
00000000
01000000
00000000
,
20020000
00000000
00000000
30030000
,
02200000
00000000
00000000
03300000
,
00022000
00000000
00000000
00033000
,
00000210
00000000
00000000
00000300
,
00001000
00000001
00001000
00000000
,
00001000
00000000
00010000
00000000
,
00100000
00010000
01000000
00000000
,
00010000
00000000
00001000
00000000
,
00000010
00000010
00000010
00000000
,
00000100
00001000
00010000
00000000
,
00100000
00000000
00100000
00000000
,
10010000
10010000
10010000
00000000
,
00100000
01000000
00010000
00000000
,
00001000
00000010
00000100
00000000
,
00001000
00000000
00010000
00000000
,
00010000
00000000
01000000
00000000
,
00100000
00010000
00001000
00000000
,
00000010
00001000
00010000
00000000
,
00100000
00000000
00100000
00000000
,
10000000
00010000
10000000
00000000
,
00200000
00300000
00020000
00030000
,
00002000
00003000
00000010
00000000
,
00000200
00000300
00000002
00000003
,
00002000
00003000
00000000
00000000
,
00000010
00000010
00000100
00000000
,
00001000
00010000
00010000
00000000
,
00100000
00000000
00100000
00000000
,
10010000
00000000
00000000
00000000
,
00100000
01000000
00010000
00000000
,
00001000
00000100
00000010
00000000
,
00000010
00000000
00000010
00000000
,
00000001
00000100
00001000
00000000
,
00100000
00000000
00100000
00000000
,
00010000
00000000
00001000
00000000
,
00000010
00000000
00000010
00000000
,
00000100
00001000
00010000
00000000
;

//---------------dance-double - ----------------
#NOTES:
     dance-double:
     :
     Medium:
     7:
     :
00000000
00000000
00000000
00000000
,
00000000
00000000
00000000
00000000
,
00000000
00000000
00000000
00000000
,
00001000
00001000
00010000
00010000
,
01000000
00010000
00001000
00000110
,
00001010
00000001
00000001
00001100
,
00010000
00100000
00100000
00011000
,
00010010
00001000
00001000
00000101
,
00000110
00000000
00001010
00000000
00010000
00001000
00000000
00000000
,
00010000
00001000
00010000
00100000
,
10000000
01000000
00100000
00010000
,
00100000
00001000
00010000
00000010
,
00001000
00000100
00000010
00000001
,
00000000
00001000
00010000
01000000
,
00010000
01000000
10000000
01000000
,
10010000
00001000
00010000
01000000
,
00010000
00001000
00000100
00001001
,
00000101
00000100
00001000
00010000
,
00001000
00010000
01000000
10010000
,
01000000
01001000
00010000
00101000
,
01000000
00010000
00001000
00010010
,
00001000
00000000
00010000
01000000
00000000
00000000
00010000
00000000
,
00010000
00000000
00001000
00000100
00000000
00000000
00000001
00000000
,
00000110
00000000
00001100
00000000
00010100
00000000
00001000
00020000
,
00000000
00000000
00000000
00000000
00030000
00110000
00110000
00000000
,
01100000
00000000
01010000
00000000
10000000
01000000
00000000
01100000
,
00000000
00110000
00000000
00101000
00000000
00011000
00011000
00000000
,
00000010
00001000
00000001
00000100
,
00001000
00000000
00010000
00000000
01000000
10000000
01000000
00000000
,
10010000
00000000
00110000
00000000
00001000
00010000
00001000
00000000
,
00010010
00000000
00001010
00000000
00000001
00000100
00000001
00000000
,
00000010
00001000
00000001
00000100
,
00001000
00010000
01000000
11000000
,
00100000
00001000
00010000
00001010
,
00000010
00010000
00001000
00110000
,
00001000
00010100
00010000
01001000
,
00100000
10000000
01000000
01010000
,
00010000
00001000
00000100
00000101
,
00000010
00001000
00010000
00110000
,
00100000
10000000
01000000
00010000
,
00011000
00000000
00101000
00000000
00011000
00011000
00000000
00000000
,
00002000
00003000
00020000
00030000
,
00200000
00300000
20000000
30000000
,
02000000
03000000
00020000
00030000
,
00001000
00000010
00000001
00000100
,
00000011
00000100
00001100
00010000
,
00110000
10000000
11000000
00010000
,
00001000
00000100
00000001
00000010
,
00001001
00000000
00000101
00000000
00002200
00000000
00000000
00003300
,
00010100
00100000
10000000
11000000
,
00100000
00001000
00010000
00010010
,
00001000
00000001
00000100
00001000
,
00010000
01000000
10000000
01010000
,
10000000
01000000
00010000
00010100
,
00000010
00000001
00000100
00001100
,
00100000
00010000
10000000
01000000
,
01100000
00000000
01001000
00000000
00011000
00011000
00000000
00000000
;

//---------------dance-double - ----------------
#NOTES:
     dance-double:
     :
     Hard:
     12:
     :
00000000
00000000
00000000
00000000
,
00000000
00000000
00000000
00000000
,
00000000
00000000
00000000
00000000
,
00001000
00001000
00010000
00010000
,
01000000
00010000
00001000
00000110
,
00000010
00000000
00000000
00000100
00000000
00000000
00000001
00000000
00001000
00000000
00000000
00000000
00011000
00000000
00000000
00000000
,
00100000
00000000
00000000
01000000
00000000
00000000
10000000
00000000
00010000
00000000
00000000
00000000
00011000
00000000
00000000
00000000
,
00010000
00000000
00000000
00100000
00000000
00000000
10000000
00000000
01000000
00000000
00000000
00000000
11000000
00000000
00000000
00000000
,
00100000
00010000
00001000
00000100
00000010
00000001
00000000
00000000
,
00000100
00001000
00001000
00000100
00000000
00000101
00000000
00001100
,
00000000
00011000
00000000
00110000
00000000
01100000
00000000
10010000
,
00000000
00000000
00100000
01000000
00000000
00011000
00000000
00000110
,
00000000
00002001
00000000
00000001
00000000
00000001
00003001
00000000
,
00000000
00000110
00000000
00001001
00000000
00000101
00000000
00001100
,
00000000
00010000
00100000
01000000
00000000
10100000
00000000
01020000
,
00000000
00000000
00000000
00000000
00000000
01000000
01000000
02030000
,
00000000
00010000
00010000
03010000
00000000
00000000
01100000
00000000
,
10010000
00000000
00000000
00010000
00001000
00000100
00000000
00000010
,
00000000
00000002
00000000
00000000
00000000
00000100
00000103
00000000
,
00000010
00000000
00000001
00000000
00001000
00000000
00000100
00000010
,
00000000
00001001
00000000
00000000
00000000
00000001
00001000
00000000
,
00011000
00000000
00100000
00010000
00000000
00010000
00001000
00000000
,
00000010
00000100
00000001
00001000
00000000
00000100
00000100
00000100
,
00000000
00001000
00000000
00000001
00000000
00000100
00001000
00010000
,
00000000
00000000
01100000
00000000
00000000
00010000
10010000
00000000
,
00100000
00000000
01000000
00000000
00010000
00001000
00000000
00001010
,
00000000
00000101
00000000
00001000
00010000
01000000
00000000
10100000
,
00000000
01010000
00000000
10000000
00000000
01000000
00000000
00011000
,
00000000
00000010
00000001
00000100
00000000
00000001
00000000
00001010
,
00000000
00000100
00000101
00000000
00001000
00010000
00000000
00110000
,
00000000
00011000
00000100
00000000
00000010
00000001
00000000
00001100
,
00000000
00010100
00000000
00011000
00000000
00010010
00000000
00002010
,
00000000
00000000
00000100
00000100
00003100
00000000
00011000
00000000
,
00100000
01000000
10000000
00010000
01000000
00010000
00000000
00001000
,
00000001
00001000
00000001
00000100
00000010
00000001
00000000
00001000
,
00000000
00000010
00000001
00000100
00001000
00010000
00000000
10010000
,
00000000
01000000
00100000
10000000
00000000
01000000
00000000
00100000
,
00010000
01000000
00000000
00010000
00001000
00000100
00000000
00000010
,
00000000
00000001
00000100
00001000
00000001
00000100
00000000
00000110
,
00000000
00000100
00001000
00010000
00100000
01000000
00000000
20000000
,
00000000
00010000
00000000
00010000
30010000
00000000
01100000
00000000
,
20000000
01000000
00000000
01000000
00000000
01000000
31000000
00000000
,
02000000
00010000
00000000
00010000
00000000
00010000
03010000
00000000
,
00020000
00001000
00000000
00001000
00001000
00000000
00031000
00000000
,
00002000
00000100
00000000
00000100
00000000
00000100
00003100
00000000
,
00001002
00000103
00000110
00001000
,
00021000
01030000
02100000
13000000
,
20020000
00000000
00000000
30030000
,
00100000
10000000
00010000
01000000
00001000
00011000
00000000
00000000
,
00000010
00000100
00000000
00000001
00001000
00000000
00000001
00000000
00000200
00000000
00000001
00000000
00000301
00000000
00000000
00000000
,
00000010
00000100
00000000
00001000
00010000
00000000
01000000
00000000
20000000
00000000
00010000
00000000
30010000
00000000
00000000
00000000
,
00100000
00010000
00000000
10000000
01000000
00000000
00010000
00000000
01000000
00000000
00000000
00000000
01000000
00000000
00000000
00000000
,
10000000
01000000
00010000
00001000
00000000
00000100
00000010
00000000
,
00000001
00001000
00000000
00000001
00001000
00000000
00000010
00000000
00000200
00000000
00000001
00000000
00000301
00000000
00000000
00000000
,
00001000
00000100
00000000
00001000
00000100
00000000
00001000
00000000
00020000
00000000
01000000
00000000
01030000
00000000
00000000
00000000
,
00100000
10000000
00000000
00010000
10000000
00000000
01000000
00000000
00200000
00000000
00000000
00000000
00301000
00000000
00000000
00000000
,
00011000
00000010
00010010
00000100
00000101
00000101
00000000
00000000
;
