#TITLE:B4U (Rising Sun mix);
#ARTIST:NAOKI with J-RAVERS;
#BANNER:B4U (Rising Sun mix).png;
#BACKGROUND:B4U (Rising Sun mix)-bg.png;
#JACKET:B4U (Rising Sun mix)-jacket.png;
#MUSIC:B4U (Rising Sun mix).ogg;
#SAMPLESTART:9.28;
#SAMPLELENGTH:20;
#DISPLAYBPM:155;
#BPMS:0=155;
#BGCHANGES:;

//---------------dance-single - ----------------
#NOTES:
     dance-single:
     :
     Beginner:
     2:
     :
0000
0000
0000
0000
,
0000
0000
0000
0000
,
0000
0000
0000
0000
,
0000
0000
0000
0000
,
1000
0000
0000
0000
,
0001
0000
0000
0000
,
0010
0000
0010
0000
,
0010
0000
0000
0000
,
0100
0000
0100
0000
,
0100
0000
0000
0000
,
1000
0000
0000
0000
,
0100
0000
0000
0000
,
0001
0000
0000
0000
,
0010
0000
0000
0000
,
0001
0000
0000
0000
,
0100
0000
0000
0000
,
1000
0000
0000
0000
,
0010
0000
0000
0000
,
1000
0000
0000
0000
,
0001
0000
0000
0000
,
1000
0000
0000
0000
,
0001
0000
0000
0000
,
0010
0000
0000
0000
,
0100
0000
0000
0000
,
0010
0000
0000
0000
,
0100
0000
0000
0000
,
1000
0000
1000
0000
,
1000
0000
0000
0000
,
0001
0000
0001
0000
,
0001
0000
0000
0000
,
0010
0000
0010
0000
,
0010
0000
0000
0000
,
0100
0000
0100
0000
,
0100
0000
0000
0000
,
1000
0000
0000
0000
,
0100
0000
0000
0000
,
0001
0000
0000
0000
,
0100
0000
0000
0000
,
1000
0000
0000
0000
,
0010
0000
0000
0000
,
0001
0000
0000
0000
,
0010
0000
0000
0000
,
1000
0000
0000
0000
,
0100
0000
0000
0000
,
0010
0000
0000
0000
,
0001
0000
0000
0000
,
1000
0000
0000
0000
,
0100
0000
0000
0000
,
0010
0000
0000
0000
,
0001
0000
0000
0000
,
2000
0000
0000
3000
,
1000
0000
1000
0000
,
0002
0000
0000
0003
,
0001
0000
0001
0000
,
0020
0000
0000
0030
,
0010
0000
0010
0000
,
0200
0000
0000
0300
,
0100
0000
0100
0000
,
1001
0000
0000
0000
;

//---------------dance-single - ----------------
#NOTES:
     dance-single:
     :
     Easy:
     4:
     :
0000
0000
0000
0000
,
0000
0000
0000
0000
,
0000
0000
0000
0000
,
0000
0000
0000
0000
,
0001
0000
0100
0000
,
0100
0000
0100
0000
,
0010
0000
1000
0000
,
1000
0000
0100
0000
,
0010
0000
0001
0000
,
0001
0000
0100
0000
,
0010
0000
1000
0100
,
1000
0000
0001
0100
,
0001
0000
1000
0010
,
1000
0000
0001
0010
,
0001
0000
1000
0001
,
1000
0000
0001
1000
,
0001
0000
0010
0100
,
0010
0000
0100
0010
,
0100
0000
1000
0000
,
0010
0000
0001
0000
,
0100
0000
1000
0000
,
0010
0000
0001
0000
,
0100
0000
0001
0000
,
0010
0000
1000
0000
,
0100
0000
0001
0000
,
0010
0000
1000
0000
,
0100
0000
0100
0000
,
0020
0000
0030
0000
,
0001
0000
0001
0000
,
2000
0000
3000
0000
,
0010
0000
0010
0000
,
0200
0000
0300
0000
,
0001
0000
0001
0000
,
2000
0000
3000
0000
,
0200
0000
0300
0000
,
0010
0001
1000
0000
,
0020
0000
0030
0000
,
0100
0001
1000
0000
,
0002
0000
0003
0000
,
0010
0100
1000
0000
,
0002
0000
0003
0000
,
0100
0010
1000
0000
,
0001
0000
0001
0000
,
1000
0100
0010
0000
,
0100
0000
0100
0000
,
1000
0010
0100
0000
,
0010
0000
0010
0000
,
0100
0001
0010
0000
,
0100
0000
0100
0000
,
1000
0010
0100
0000
,
0002
0000
1003
0000
,
2000
0000
3001
0000
,
0020
0000
0130
0000
,
0200
0000
0310
0000
,
0002
0000
0103
0000
,
2000
0000
3100
0000
,
0002
0000
0013
0000
,
2000
0000
3010
0000
,
1001
0000
0000
0000
;

//---------------dance-single - ----------------
#NOTES:
     dance-single:
     :
     Medium:
     8:
     :
0000
0000
0000
0000
,
0000
0000
0000
0000
,
0000
0000
0000
0000
,
0000
0000
0000
0000
,
1000
0010
1000
0100
,
0010
0001
0100
0000
0010
0001
0100
0000
,
0001
1000
0010
0100
,
0001
1000
0100
0000
1000
0010
0100
0000
,
0001
0010
0100
1000
,
0001
0010
0100
0000
1000
0001
0100
0000
,
0010
1000
0001
0010
,
0100
1000
0001
0100
,
0010
1000
0100
0001
,
0100
1000
0010
0001
,
0010
0100
0001
1000
,
0100
0010
0001
1000
,
0001
0010
0100
1001
,
1000
0010
0100
1001
,
0020
1030
0200
0301
,
0100
1000
0001
0000
0100
0000
0001
0000
,
0200
0301
0020
1030
,
0010
0001
1000
0000
0010
0000
0100
0000
,
0002
1003
2000
3010
,
0100
0001
1000
0000
0100
0000
0010
0000
,
0200
1300
0020
0130
,
0001
0010
0100
0000
1000
0000
0001
0000
,
1000
0100
0010
0001
,
0100
0000
0010
0000
1000
0100
0001
0000
,
0100
0010
0001
0100
,
0010
0000
1000
0000
0001
0100
1000
0000
,
0100
0010
1000
0100
,
0010
0000
0001
0000
1000
0010
0001
0000
,
0010
1000
0100
1000
,
0010
0000
0100
0000
0001
0010
1000
0000
,
0010
0100
0010
1001
,
0100
0000
0010
0000
0001
1000
0100
1000
,
0010
0100
0010
1001
,
0100
0000
0100
0000
0100
0000
1000
0100
,
0010
0001
1000
1001
,
0100
0000
0010
0000
0001
1000
0100
0010
,
0100
1000
0001
0100
,
0220
0000
0000
0330
,
0001
0001
0001
0000
1000
1000
1000
0000
,
0100
0010
0001
0000
,
0100
0100
0100
0000
0010
0010
0010
0000
,
1000
0001
0100
0000
,
0001
0010
0001
0000
1000
0010
1000
0000
,
0100
0010
0100
0000
,
1000
0010
1000
0000
0001
0010
0001
0000
,
0100
0010
0100
0000
,
0001
1000
0100
0100
,
1000
0001
0100
0101
,
0010
1000
0100
0100
,
0010
0001
0100
0110
,
0010
0001
1000
1000
,
0010
1000
0001
1001
,
0100
1000
0100
0010
,
0100
0001
0100
1001
,
0110
0000
0000
0000
;

//---------------dance-single - ----------------
#NOTES:
     dance-single:
     :
     Hard:
     12:
     :
0000
0000
0000
0000
,
0000
0000
0000
0000
,
0000
0000
0000
0000
,
0000
0000
0000
0000
,
1000
0100
1000
0000
0001
0100
0001
0000
,
1000
0010
0001
0010
1000
0010
0100
0000
,
0001
1000
0001
0000
0010
0100
0010
0000
,
0001
0100
0010
1000
0100
0010
0001
0000
,
1000
1000
0001
0000
0001
0001
0100
0000
,
2002
0000
0000
3003
,
0010
1000
0100
1000
0001
0100
0010
0001
,
0010
1000
0100
0000
0100
0010
0001
0100
,
0001
1000
0010
0100
1000
0100
0001
0000
,
0001
1000
0100
0001
0100
0010
0001
0100
,
0010
1000
0001
0000
0001
0100
0010
1000
,
0100
0010
0100
0001
0100
0010
0001
0100
,
0010
0100
0000
0000
0100
0010
1000
0000
,
1000
0001
0010
0000
0010
0100
1000
0100
,
1000
0000
0001
0100
0000
0000
0001
0000
1000
0100
0000
0000
1000
0000
0001
0010
,
0000
0100
1000
0100
0010
0001
0100
0001
,
1000
0000
0010
0100
0000
0000
0001
0000
0010
0100
0000
0000
1000
0000
0100
0010
,
0000
0001
1000
0010
1000
0100
0010
0001
,
0100
0000
0001
0010
0000
0000
0100
0000
1000
0010
0000
0000
0100
0000
0001
1000
,
0000
0010
1000
0010
0100
0001
0010
0100
,
0010
0000
0001
0100
0000
0000
0010
0000
1000
0100
0000
0000
0010
0000
0001
1000
,
0000
0010
0100
0010
0100
0000
1001
0000
,
1000
0100
0010
0000
0001
0100
0010
0000
,
1000
0010
1000
0001
0010
0100
1000
0000
,
0001
0100
0010
0000
1000
0100
0010
0000
,
0001
0010
0001
1000
0010
0100
0001
0000
,
1000
0100
0100
0000
0001
0100
0100
0000
,
0010
1000
0100
0001
0100
1000
0010
0000
,
0001
0100
0100
0000
1000
0100
0100
0000
,
2002
0000
0000
3003
,
0200
0001
0001
0000
0010
0310
0100
0001
,
0010
0000
0100
0000
1000
0001
0100
0000
,
0020
1000
1000
0000
0100
0130
0010
1000
,
0001
0000
0010
0000
0100
0001
1000
0000
,
0002
1000
1000
0000
0010
0013
0001
0100
,
1000
0000
0100
0000
0001
0010
0100
0000
,
2000
0001
0001
0000
0010
3010
1000
0100
,
0001
0000
0100
0000
1000
0010
0100
0000
,
0001
0010
0000
0001
0000
1000
0000
0001
0000
1000
0000
0010
0100
0000
0001
0000
,
2002
0000
0000
3003
,
1000
0010
0000
1000
0000
0001
0000
1000
0000
0001
0000
0010
0100
0000
1000
0000
,
2002
0000
0000
3003
,
0010
1000
0000
0100
0000
1000
0000
0100
0000
1000
0000
0001
0010
0000
0100
0000
,
0220
0000
0000
0330
,
0010
0001
0000
0100
0000
0001
0000
0100
0000
0001
0000
1000
0010
0000
0100
0000
,
0220
0000
0000
0330
,
0001
0000
0000
0010
0000
0000
0001
0000
0000
0010
0000
0000
0100
0000
1000
0000
,
0010
0000
0000
1000
0000
0000
0010
0000
0000
1000
0000
0000
0100
0000
0010
0000
,
0001
0000
0000
1000
0000
0000
0001
0000
0000
1000
0000
0000
0001
0000
0100
0000
,
0010
0000
0000
0100
0000
0000
0010
0000
0000
0100
0000
0000
0010
0000
1000
0000
,
0100
0000
0000
1000
0000
0000
0001
0000
0000
0010
0000
0000
0001
0000
1000
0000
,
0010
0000
0000
0100
0000
0000
0001
0000
0000
0010
0000
0000
0001
0000
1000
0000
,
0010
0000
0000
0100
0000
0000
0001
0000
0000
1000
0000
0000
0100
0000
0010
0000
,
0001
0000
0000
1000
0000
0000
0010
0000
0000
0100
0000
0000
0001
0000
1000
0000
,
0110
0000
0000
0000
;

//---------------dance-single - ----------------
#NOTES:
     dance-single:
     :
     Challenge:
     14:
     :
0000
0000
0000
0000
,
0000
0000
0000
0000
,
0000
0000
0000
0000
,
0000
0000
0000
0000
,
1000
0000
0010
0100
0000
0000
0001
0000
0010
0100
0000
0000
1000
0000
0001
0000
,
0100
0000
0010
0000
1000
0000
0000
0001
0000
0000
0010
0000
0001
0000
0100
0000
,
1000
0000
0001
1000
0000
0000
0100
0000
0010
0001
0000
0000
0100
0000
0010
1000
,
0000
0000
0100
0000
0010
0000
1000
0000
0010
0000
0001
0100
0000
0100
0010
0000
,
1000
0000
0100
0001
0000
0000
0010
0000
0001
1000
0000
0000
0100
0000
0010
0000
,
0001
1000
0001
1000
0001
0000
0010
0000
0100
0000
0100
0000
0000
0000
1000
0000
,
0010
0000
0100
0001
0000
0100
0001
0000
0010
0000
0100
0000
1000
0000
0000
0000
,
0001
1000
0000
1000
0001
0000
1000
0001
0000
0001
1000
0000
0100
0000
0000
0000
,
0010
0000
0001
1000
0000
0001
0100
0000
0010
0000
0010
0000
1000
0000
0001
0000
,
0000
0000
1000
0100
1000
0000
0001
0000
0100
0000
0100
0000
0100
0000
0010
0000
,
1010
0000
0000
0001
0000
0000
0100
0010
1000
0000
0000
0001
0000
0000
0010
0100
,
1000
0001
1000
0000
0010
0000
0100
0000
0101
0000
0000
1100
0000
0000
0000
0000
,
0001
0001
1000
0010
1000
0100
0100
0010
,
0011
0000
1100
0000
0001
0001
0001
0001
,
0010
0001
0010
0200
0000
0000
1300
0010
1000
0200
0000
0000
0310
0001
1000
0002
,
0000
0000
0103
0000
0010
0000
1000
0000
0100
0010
0100
1000
0000
0000
0001
0000
,
0010
0001
1000
0002
0000
0000
0103
0010
1000
0020
0000
0000
1030
0100
1000
0100
,
0010
0001
0100
0001
0010
0001
1000
1000
,
1000
0000
0010
0200
0000
0000
0301
1000
0001
0020
0000
0000
0130
1000
0010
2000
,
0000
0000
3001
0000
1000
0000
0100
0000
0010
0001
1000
0001
0000
0000
0100
0000
,
0010
1000
0001
0020
0000
0000
0130
0010
0001
0020
0000
0000
0130
1000
0100
0000
,
0010
0001
0100
0001
0010
0000
0100
0000
1000
0000
1000
0000
0001
0000
0100
0000
,
0010
0000
0000
1000
0000
0000
0100
0000
1000
0001
0000
0000
0010
0000
0001
0000
,
0100
0010
1000
0100
0001
0100
1000
0000
,
0010
0000
0000
0100
0000
0000
0001
0000
1000
0100
0000
0000
1000
0000
0001
0000
,
0011
0000
1100
0000
0101
0000
1000
0001
,
0100
0000
0010
2000
0000
0000
3100
0000
0010
0002
0000
0000
1003
0000
0001
0100
,
0000
0100
0010
0000
1000
0000
0001
0000
0010
0100
0010
0100
0000
0000
1000
0001
,
1000
0010
0100
0002
0000
0000
0013
0001
1000
0200
0000
0000
1300
0010
0100
0001
,
0010
0100
0010
0100
1000
0000
0001
0000
0100
0000
0100
0000
0010
0000
1000
0000
,
0001
0100
0000
0010
0000
1000
0000
0100
0000
0100
0000
0100
1000
0000
0001
0000
,
0010
0001
0010
0100
0000
0000
1000
0100
1000
0000
0001
0000
1000
0000
0100
0000
,
0010
0001
0000
1000
0000
0001
0000
0100
0000
0100
0000
0100
0010
0000
0000
0000
,
1000
0100
1000
0010
1000
0100
0001
0001
,
0001
0010
0000
0001
0000
0100
0000
1000
0000
1000
0000
1000
0010
0000
0100
0000
,
0001
1000
0001
0100
0000
0000
0010
1000
0010
0000
0100
0000
0001
0000
0010
0000
,
0100
1000
0000
0001
0000
0100
0000
0010
0000
0010
0000
0010
0100
0000
0001
0000
,
1000
0100
0010
0100
1000
0000
0001
0000
0100
0000
0100
0000
0100
0000
0010
0000
,
1000
0100
0000
0010
0000
0001
0000
0100
0000
0010
0000
0100
0001
0000
1000
0000
,
0010
1000
0010
0100
0000
0010
1000
0010
0100
0000
0001
0000
1000
0000
0001
0000
,
0010
0001
0000
1000
0000
0100
0000
0010
0000
0100
0000
1000
0001
0000
0000
0000
,
0010
0001
1000
0001
0010
0001
0100
0100
,
0100
0010
0000
0100
0000
0001
0000
1000
0000
0010
0000
0100
0001
0000
1000
0000
,
0001
0010
0100
0010
0000
0001
0010
0100
0010
0000
0100
0000
1000
0000
0001
0000
,
0100
0010
0000
0100
0000
0001
0000
1000
0000
1000
0000
1000
0100
0000
0000
0000
,
0010
0001
1000
0001
0010
0000
0100
0000
0100
0000
0100
0000
1000
0010
0100
0001
,
0010
0000
0000
0001
0000
0000
0100
0000
0000
1000
0001
0000
1000
0000
0100
0000
,
0010
0000
0000
0100
0000
0000
0010
0000
0000
0001
1000
0000
0001
0000
0100
0000
,
0010
0000
0000
1000
0000
0000
0001
0000
0000
0010
0100
0000
0010
0000
0001
0000
,
0100
0000
0000
0010
0000
0000
1000
0000
0000
0100
1000
0000
0001
0000
0100
0000
,
0001
0000
0000
1000
0000
0000
0001
0100
0000
0010
1000
0000
0001
0000
0100
0000
,
0001
0000
0000
0010
0000
0000
0100
1000
0000
0001
1000
0000
0010
0000
0100
0000
,
0001
0010
0000
0010
0100
0000
0100
1000
0000
1000
0001
0000
0100
0000
0010
0000
,
1000
0001
0000
0001
0010
0000
0010
0100
0000
0100
1000
0000
0001
0000
0100
0000
,
0010
0000
0000
0000
;
