#TITLE:Avalon no oka;
#SUBTITLE:;
#ARTIST:Nekomata Master;
#TITLETRANSLIT:;
#SUBTITLETRANSLIT:;
#ARTISTTRANSLIT:;
#GENRE:;
#CREDIT:;
#BANNER:Avalon no oka-bn.png;
#BACKGROUND:Avalon no oka-bg.png;
#LYRICSPATH:;
#CDTITLE:;
#MUSIC:Avalon no oka.ogg;
#OFFSET:0.000000;
#SAMPLESTART:69.874001;
#SAMPLELENGTH:20.000000;
#SELECTABLE:YES;
#DISPLAYBPM:158.000000;
#BPMS:0.000000=158.000000
;
#STOPS:
;
#BGCHANGES:;
#KEYSOUNDS:;
#ATTACKS:;

//---------------dance-single - ----------------
#NOTES:
     dance-single:
     :
     Hard:
     16:
     0.803177,0.803566,0.078450,0.209200,1.586430,645.000000,636.000000,9.000000,24.000000,0.000000,0.000000,0.803177,0.803566,0.078450,0.209200,1.586430,645.000000,636.000000,9.000000,24.000000,0.000000,0.000000:
0000
0000
0000
0000
,
0000
0000
0000
0000
,
0000
0000
0000
0000
,
0000
0000
0000
0000
,
0000
0000
0000
0000
,
0000
0000
0000
0000
,
1000
0000
0001
0100
0010
0100
0001
0010
0100
1000
0000
1000
,
0001
0000
0100
0010
1000
0100
0010
0001
1000
0001
0010
0100
,
1000
0000
0001
1000
0010
1000
0100
0010
0001
0100
0000
0001
,
0010
0100
1000
0010
1000
0001
1000
0100
0010
0001
0000
0001
,
0100
0000
0100
0010
1000
0001
0010
0001
1000
0010
1000
0001
,
0010
0100
1000
0100
0010
0100
1000
0010
0100
0001
0000
0001
,
1000
0001
1000
0010
0100
0001
0100
0000
0000
0010
1000
0010
,
1000
0100
0010
0001
0000
0000
0001
0010
0100
1000
0000
0000
,
0001
0100
0001
0100
0000
0010
1000
0100
1000
0001
0100
0001
,
1000
0100
0010
0100
0010
0100
1000
0010
0100
0010
0100
0010
,
1000
0001
1000
0001
1000
0100
0010
0000
0000
0001
1000
0001
,
1000
0000
0000
0010
0100
0001
0010
0100
0010
0100
1000
0001
,
1000
0010
1000
0001
0000
0000
0100
0001
0010
0001
1000
0100
,
0010
0001
0010
0001
0010
0001
1000
0100
1000
0100
1000
0100
,
0020
0000
0000
0031
1000
0001
0200
0000
0000
0310
0100
0010
,
1000
0000
0000
0001
0010
0001
0010
0001
0100
0001
1000
0100
,
0020
0000
0000
0031
0100
0010
2000
0000
0000
3100
1000
0001
,
1000
0000
0000
0001
1000
0001
0010
0100
1000
0002
0000
0000
,
2003
0000
0000
3001
1000
0100
0020
0000
0000
0032
0000
0000
,
1003
0001
0100
0010
0000
0010
1000
0100
1000
0001
0000
0010
,
0001
0000
0100
1000
0000
0001
0100
0001
0010
0001
1000
0100
,
0010
0001
1000
0200
0000
0000
1300
0001
1000
0001
0100
0010
,
2000
0000
0000
3001
1000
0001
0200
0000
0000
0310
0100
0001
,
1000
0000
0000
0100
0010
0001
1000
0000
0001
1000
0000
1000
,
0200
0000
0000
0310
0100
1000
0020
0000
0000
0130
0001
0100
,
0001
0000
0000
1000
0010
1000
0010
0000
0000
0200
0000
0000
,
0302
0000
0000
0013
0100
0010
0002
0000
0000
2003
0000
0000
,
3001
1000
0001
0010
0000
0001
0100
0010
1000
0100
0000
0010
,
0001
0000
0100
2000
0000
0000
3001
1000
0001
0020
0000
0000
,
0130
0010
0001
2000
0000
0000
3001
1000
0001
1000
0100
0010
,
0200
0000
0000
1300
0001
1000
0001
0000
0000
0100
0010
1000
,
0001
0010
0001
1000
0000
0001
1000
0100
0010
0001
0000
0100
,
0002
0000
0000
1003
0001
1000
0010
0000
0000
0010
0100
0001
,
1000
0100
0010
0100
0000
1000
0001
0010
0001
0100
0000
0010
,
1000
0000
0001
0100
0000
0010
1000
0000
0000
1000
0001
0010
,
0100
0000
1000
0001
0000
0000
0010
0001
0010
0100
1000
0010
,
0100
0000
0010
0100
0000
0001
1000
0000
0100
0010
0000
0001
,
1000
0100
1000
0001
0000
0010
0001
1000
0001
0100
0010
1000
,
0001
0010
0100
1000
0100
0010
0001
0010
0100
1000
0100
0010
,
0001
0010
0100
1000
0100
0010
0001
0010
0100
1000
0000
0000
,
1000
0001
1000
0100
0000
0010
0001
0100
0001
0010
0000
1000
,
0001
1000
0010
0100
0000
0001
0010
0100
1000
0001
0000
0100
,
0010
0000
0000
1010
0000
1000
0001
0000
0000
0011
0000
0000
,
1000
0001
1000
0010
0000
0100
0001
0010
0100
1000
0000
0000
,
1001
0000
0000
0010
0000
1000
0100
0000
1000
0100
0000
0001
,
0010
0001
1000
0001
0000
1000
0001
0010
0100
1000
0000
0000
,
0101
0000
0001
1000
0000
1000
0100
0000
0100
0010
0000
0010
,
0001
0100
0001
1000
0100
1000
0001
0100
0001
1000
0100
1000
,
0001
0010
0100
1000
0000
0001
1000
0001
1000
0100
0000
0010
,
0001
1000
0010
1000
0000
0100
0001
0010
1000
0100
0000
0010
,
0001
1000
0001
1000
0000
1000
0100
0000
0010
0001
0000
0100
,
0001
0010
0100
1000
0001
1000
0001
0100
0010
1000
0000
0000
,
1100
0000
0100
0010
0000
0010
0001
0000
0001
1000
0000
1000
,
0001
0100
0001
0010
0000
0100
1000
0010
0100
0001
0000
0000
,
0110
0000
0010
1000
0000
0100
1000
0001
0010
0100
0000
0100
,
1000
0010
1000
0001
0010
0100
2000
0000
0000
3002
0000
0000
,
1003
0000
0000
0101
0000
0010
1000
0100
0010
0001
0100
0010
,
1000
0001
1000
0001
0010
0100
1000
0010
0100
0001
0000
1000
,
0001
0000
0010
0100
0010
0001
1000
0100
0010
0100
0000
1000
,
0001
1000
0010
1000
0100
0010
0100
1000
0001
0010
0000
0010
,
0001
0000
1000
0001
1000
0100
0010
0001
0100
0010
0000
1000
,
0100
0000
1000
0100
0010
0001
1000
0001
1000
0010
0000
0100
,
0001
0000
0100
0001
0010
1000
0100
0010
0001
0100
0000
0010
,
1000
0100
1000
0100
0010
0001
0010
0001
1000
0001
0000
0100
,
0010
1000
0010
1000
0000
0000
1010
0000
0000
0001
0010
0100
,
1000
0100
1000
0010
0100
0001
1000
0010
0100
0001
0000
0001
,
1000
0100
0010
0001
0000
0000
1001
0000
0010
1000
0100
0010
,
0001
1000
0001
1000
0010
0100
0001
0000
1000
0100
0000
0000
;

//---------------dance-single - ----------------
#NOTES:
     dance-single:
     :
     Medium:
     12:
     0.587751,0.610710,0.174333,0.357383,0.832440,472.000000,452.000000,20.000000,41.000000,0.000000,0.000000,0.587751,0.610710,0.174333,0.357383,0.832440,472.000000,452.000000,20.000000,41.000000,0.000000,0.000000:
0000
0000
0000
0000
,
0000
0000
0000
0000
,
0000
0000
0000
0000
,
0000
0000
0000
0000
,
0000
0000
0000
0000
,
0000
0000
0000
0000
,
1000
0000
1000
0100
0000
0100
0010
0000
0010
0001
0000
0001
,
0100
0000
0100
0010
0000
0010
0100
0000
0001
1000
0000
0000
,
0001
0000
0001
0010
0000
0010
0100
0000
0100
1000
0000
1000
,
0010
0000
0100
0010
0000
1000
0001
0000
0001
1000
0000
0100
,
0020
0001
1000
0130
,
0110
0000
0000
0001
1000
0001
1000
0000
0010
0100
0000
0100
,
0001
0000
1000
0001
0000
0000
1010
0000
0000
1000
0100
1000
,
0100
0000
0000
1100
0000
0000
1000
0001
1000
0001
0000
0000
,
0010
0001
0010
0001
0000
0000
1000
0000
0001
0100
0000
0100
,
0010
0000
0010
1000
0000
1000
0010
0000
0010
0100
0000
0100
,
0001
0000
1000
0001
0000
0000
0101
0000
0000
0100
0010
0100
,
0010
0000
0000
1000
0001
1000
0001
0000
0001
0010
0000
0010
,
0100
0000
0100
1000
0000
0000
0010
1000
0010
1000
0000
0001
,
0100
0000
0100
0010
0000
0010
1000
0000
1000
0001
0000
0001
,
0200
0000
0000
0301
0100
0001
0200
0000
0000
0000
0000
0000
,
0010
0000
0000
1000
0000
0000
0010
0000
0000
0301
0000
0100
,
0020
0000
0000
1030
0010
1000
0020
0000
0000
0000
0000
0130
,
0001
0000
0000
0010
0100
0010
0100
0000
0000
2000
0000
0000
,
3002
0000
0000
1003
0010
1000
0020
0000
0000
0230
0000
0000
,
0301
1000
0001
2000
0000
0000
3100
0010
0100
0010
0000
0010
,
0001
0000
0001
2000
0000
0000
0010
0000
0000
3200
0000
0000
,
1300
0001
2000
0002
0000
0000
0000
0000
0000
3003
0000
0100
,
0002
0000
0000
1003
0010
1000
0020
0000
0000
0100
0000
0000
,
0001
0000
0000
1030
0100
1000
0100
0000
0000
0000
0000
0010
,
0002
0000
0000
0103
0010
0100
0020
0000
0000
1000
0000
0000
,
0001
0000
0000
0100
0000
0000
1030
0010
1000
0010
0000
0000
,
1001
0000
0000
0100
0001
0100
0002
0000
0000
2003
0000
0000
,
3100
1000
0100
1000
0000
0001
0100
0000
0100
0010
0000
0010
,
1000
0000
0001
0200
0000
0000
1000
0000
0000
0320
0000
0000
,
1030
0001
1000
0002
0000
0000
0103
0000
0100
0010
0000
0000
,
0102
0000
0000
1000
0000
0000
0100
0000
0000
1003
0000
0100
,
0001
0000
1000
0001
0000
1000
0100
0000
0100
0010
0000
0001
,
2000
0000
0000
0001
0000
0000
0010
0000
0000
3001
0000
1000
,
0010
0000
0010
1000
0000
1000
0100
0000
0100
0010
0000
0001
,
0200
0000
0000
0320
0000
0000
0230
0000
0000
0301
0100
0001
,
0200
0000
0000
0320
0000
0000
1030
0010
1000
0010
0000
0100
,
0002
0010
2003
3200
,
0320
0000
0000
0001
0000
0000
0130
0010
0100
0010
0100
0010
,
0100
1100
0101
1100
,
0001
1000
0001
1000
0000
0000
0010
0100
0010
0100
0000
0000
,
0001
0010
0100
1000
0000
0000
1000
0100
0010
0001
0000
0000
,
0001
0100
0010
1000
0000
0000
1000
0010
0100
0001
0000
0000
,
0201
0310
1010
0101
,
2100
0000
0000
0001
0000
0000
0100
0000
3100
1000
0000
0000
,
1001
0000
0000
0000
0000
0010
0100
0000
0100
0001
0000
0001
,
1000
0000
1000
0010
0000
1000
0001
0000
1000
0100
0000
0000
,
0110
0000
0000
0000
0000
0001
0100
0000
0100
0010
0000
0010
,
1000
0000
1000
0001
0000
0001
1000
0000
0000
1001
0000
0000
,
0001
0010
0100
1000
0000
0000
1000
0100
0010
0001
0000
0000
,
0001
0100
0010
1000
0000
0000
1000
0010
0100
0001
0000
0000
,
0012
0100
1000
0010
,
1003
0001
0100
0010
0000
0000
1000
0001
0100
0010
0000
0000
,
0110
0000
0000
0000
0000
0100
0001
0000
0100
0001
0000
0100
,
0010
0000
0010
1000
0000
1000
0100
0000
0100
0010
0000
0000
,
0011
0000
0000
0000
0000
0100
1000
0000
0010
1000
0000
0001
,
1000
0000
0010
1000
0000
0001
0020
0000
0000
0230
0000
0000
,
2300
0010
0001
0100
,
3010
0000
1000
0001
0000
1000
0100
0000
0100
0010
0000
0000
,
0001
0000
1000
0001
0000
1000
0100
0000
0100
0010
0000
0000
,
0001
0100
0001
0100
0000
0000
0010
1000
0010
1000
0000
0000
,
0001
0000
1000
0001
0000
0010
0100
1000
0100
1000
0000
0000
,
0010
0000
0100
0001
0000
0100
0010
1000
0010
0100
0000
0000
,
0001
0000
1000
0010
0000
0100
0010
0100
0001
1000
0000
1000
,
0100
0000
0100
0010
0000
0010
0100
0010
0001
1000
0000
0001
,
0200
0010
1000
0301
,
1001
0000
0000
0000
0010
1000
0010
0100
0001
1000
0000
0000
,
0001
0010
0100
1000
0000
0000
0000
0000
0000
1000
0010
0100
,
0001
0000
0001
1000
0000
1000
0001
0000
1000
0100
0000
0000
;

//---------------dance-single - ----------------
#NOTES:
     dance-single:
     :
     Easy:
     7:
     0.305083,0.417854,0.139466,0.331233,0.000000,245.000000,229.000000,16.000000,38.000000,0.000000,0.000000,0.305083,0.417854,0.139466,0.331233,0.000000,245.000000,229.000000,16.000000,38.000000,0.000000,0.000000:
0000
0000
0000
0000
,
0000
0000
0000
0000
,
0000
0000
0000
0000
,
0000
0000
0000
0000
,
0000
0000
0000
0000
,
0000
0000
0000
0000
,
1000
0010
1000
0001
,
0010
0100
1000
0010
,
0100
0010
0100
0001
,
1000
0001
0010
0100
,
2000
0000
0002
3003
,
0200
0000
0310
0100
,
0002
0010
1000
0010
,
0100
0100
0100
0013
,
0001
0010
0001
1000
,
0010
0100
0001
0010
,
0100
1000
0010
1000
,
0001
0001
1000
1000
,
0001
0010
0001
0100
,
0010
1000
0100
0010
,
0002
1000
0200
0000
,
0000
0000
0000
0303
,
0020
0001
2000
0000
,
0000
0000
3000
0130
,
0110
0001
0100
0100
,
0010
1000
0010
1000
,
0002
2000
0003
3020
,
2030
0002
0000
3003
,
1000
0100
0020
0001
,
0100
0100
0200
0330
,
1000
0001
2000
0010
,
0100
0100
0100
3001
,
1001
0010
1000
0100
,
1000
1000
0001
0001
,
0020
0200
0030
1300
,
0020
0200
0030
0301
,
2000
0000
3001
0000
,
0010
0010
0001
0100
,
0020
0000
1030
0000
,
0100
1000
0001
1000
,
0020
2030
3020
0130
,
0002
0023
0032
0103
,
0002
0000
1000
0103
,
2000
0000
3010
0100
,
0001
0001
1000
1000
,
0001
0010
0100
1000
,
0010
1010
0010
1010
,
0001
0101
0001
0101
,
2000
3000
0001
0100
,
0020
0000
0000
0130
,
0110
0000
1000
0001
,
1000
0001
0010
0100
,
1001
0000
0100
0010
,
0100
0100
0100
0001
,
1000
1100
1000
1100
,
0001
0011
0001
0011
,
0200
0000
0000
0000
,
0002
0300
1000
0103
,
1001
0000
0010
1000
,
0100
0100
1000
0001
,
0110
0000
0001
1000
,
0010
0010
1000
0001
,
0200
0000
0000
0000
,
0000
0001
0010
0310
,
0100
0001
0100
0010
,
1000
0100
0010
0001
,
1000
0001
0010
0001
,
0100
0001
0010
0100
,
1000
0010
0100
0010
,
1000
0100
1000
0001
,
0020
0000
0200
0330
,
2000
0000
3001
1000
,
1010
0101
0000
0010
,
1000
0001
0100
0100
;

//---------------dance-single - ----------------
#NOTES:
     dance-single:
     :
     Beginner:
     3:
     0.148183,0.224998,0.017433,0.104600,0.000000,119.000000,117.000000,2.000000,12.000000,0.000000,0.000000,0.148183,0.224998,0.017433,0.104600,0.000000,119.000000,117.000000,2.000000,12.000000,0.000000,0.000000:
// measure 0
0000
0000
0000
0000
,  // measure 1
0000
0000
0000
0000
,  // measure 2
0000
0000
0000
0000
,  // measure 3
0000
0000
0000
0000
,  // measure 4
0000
0000
0000
0000
,  // measure 5
0000
0000
0000
0000
,  // measure 6
1000
0000
0001
0000
,  // measure 7
0010
0000
0100
0000
,  // measure 8
0010
0000
0001
0000
,  // measure 9
0100
0000
0010
0000
,  // measure 10
2000
0000
0000
0000
,  // measure 11
3000
0000
0001
0000
,  // measure 12
0200
0000
0000
0000
,  // measure 13
0000
0000
0300
0000
,  // measure 14
0001
0000
0001
0000
,  // measure 15
1000
0000
0010
0000
,  // measure 16
1000
0000
0100
0000
,  // measure 17
1000
0000
0001
0000
,  // measure 18
0100
0000
0100
0000
,  // measure 19
0010
0000
0010
0000
,  // measure 20
1000
0000
0002
0000
,  // measure 21
0000
0000
0003
0000
,  // measure 22
0010
0000
0200
0000
,  // measure 23
0000
0000
0300
0000
,  // measure 24
1000
0000
1000
0000
,  // measure 25
0001
0000
0001
0000
,  // measure 26
0100
0100
0000
0000
,  // measure 27
0010
0010
0000
0000
,  // measure 28
1000
1000
2000
0000
,  // measure 29
0000
0000
3000
0000
,  // measure 30
0001
0001
0002
0000
,  // measure 31
0000
0000
0003
0000
,  // measure 32
0010
0010
0010
0000
,  // measure 33
0001
0000
1000
0000
,  // measure 34
0010
0010
0000
0000
,  // measure 35
0100
0100
0000
0000
,  // measure 36
0020
0000
0030
0000
,  // measure 37
1000
0000
0001
0000
,  // measure 38
0200
0000
0300
0000
,  // measure 39
0001
0000
0010
0000
,  // measure 40
0100
0100
0100
0000
,  // measure 41
0010
0010
0010
0000
,  // measure 42
0001
0000
1000
0000
,  // measure 43
0100
0000
0000
0000
,  // measure 44
0110
0000
0000
0000
,  // measure 45
1001
0000
0000
0000
,  // measure 46
1000
0000
0001
0000
,  // measure 47
1000
0000
0001
0000
,  // measure 48
0010
0000
0001
0001
,  // measure 49
0002
0000
0003
0000
,  // measure 50
0100
0000
0100
0000
,  // measure 51
0010
0000
1000
0000
,  // measure 52
0010
0000
1000
0000
,  // measure 53
0001
0000
0010
0000
,  // measure 54
0100
0000
0100
0000
,  // measure 55
0010
0000
0010
0000
,  // measure 56
0002
0000
0000
0000
,  // measure 57
0000
0000
0003
0000
,  // measure 58
1000
0000
1000
0000
,  // measure 59
0001
0000
1000
0000
,  // measure 60
0010
0000
0100
0000
,  // measure 61
0010
0000
1000
0000
,  // measure 62
0200
0000
0000
0000
,  // measure 63
0000
0000
0300
0000
,  // measure 64
0010
0000
0001
0000
,  // measure 65
0010
0000
0100
0000
,  // measure 66
1000
0000
1000
0000
,  // measure 67
0001
0000
0001
0000
,  // measure 68
0100
0000
0100
0000
,  // measure 69
0010
0000
0010
0000
,  // measure 70
2000
0000
0000
0000
,  // measure 71
3000
0000
0001
0000
,  // measure 72
0010
0010
0000
0001
,  // measure 73
0001
0000
0100
0100
;
