#TITLE:Attention;
#ARTIST:Charlie Puth;
#BANNER:Attemtion-bn.png;
#BACKGROUND:Attemtion-bg.png;
#JACKET:Attemtion-jacket.png;
#MUSIC:Attention.ogg;
#SAMPLESTART:46.816;
#SAMPLELENGTH:20;
#DISPLAYBPM:100;
#BPMS:0=99.96;
#BGCHANGES:;

//---------------dance-single - ----------------
#NOTES:
     dance-single:
     :
     Beginner:
     1:
     :
0000
0000
0000
0000
,
0000
0000
0000
0000
,
0000
0000
0000
0000
,
0000
0000
0000
0000
,
1000
0000
0000
0000
,
0010
0000
0000
0000
,
1000
0000
0000
0000
,
0100
0000
0000
0000
,
0001
0000
0000
0000
,
0010
0000
0000
0000
,
0001
0000
0000
0000
,
0100
0000
0000
0000
,
0010
0000
0000
0000
,
0100
0000
0000
0000
,
0001
0000
0000
0000
,
1000
0000
0000
0000
,
0001
0000
0000
0000
,
0010
0000
0000
0000
,
0100
0000
0000
0000
,
1000
0000
0000
0000
,
0001
0000
0001
0000
,
0100
0000
0010
0000
,
1000
0000
0100
0000
,
1000
0000
0000
0000
,
0010
0000
0010
0000
,
1000
0000
0001
0000
,
1000
0000
0100
0000
,
0010
0000
0000
0000
,
0001
0000
1000
0000
,
0001
0000
0010
0000
,
0100
0000
1000
0000
,
0001
0000
0010
0000
,
0001
0000
0100
0000
,
1000
0000
0010
0000
,
1000
0000
0100
0000
,
1000
0000
0010
0000
,
0100
0000
0000
0000
,
0001
0000
0000
0000
,
0100
0000
0000
0000
,
0010
0000
0000
0000
,
1000
0000
0000
0000
,
0100
0000
0000
0000
,
1000
0000
0000
0000
,
0001
0000
0000
0000
;

//---------------dance-single - ----------------
#NOTES:
     dance-single:
     :
     Easy:
     5:
     :
0000
0000
0000
0000
,
0000
0000
0000
0000
,
0000
0000
0000
0000
,
0000
0000
0000
0000
,
1000
0000
0010
0000
,
1000
0100
0001
0000
,
0010
0000
0001
0000
,
0100
0010
1000
0000
,
0001
0000
0010
0000
,
0001
0100
1000
0000
,
0010
0000
1000
0000
,
0100
0010
0001
0000
,
1001
0000
0010
0100
,
0001
0100
1000
0000
,
0010
1000
0100
1000
,
0001
0000
0100
0000
,
0110
0000
1000
0010
,
1000
0100
0001
0000
,
0010
0001
0100
0010
,
1000
0000
0001
0100
,
0110
0000
1000
0001
,
0010
0000
0001
0100
,
1000
1000
0001
0001
,
0100
0000
0001
0010
,
1001
0000
1000
0100
,
0001
0000
0010
0100
,
1000
1000
0001
0001
,
0100
0000
0010
0000
,
1000
0000
0100
1000
,
0001
1000
0010
0000
,
0100
0000
0001
0010
,
1000
0100
0010
0000
,
0001
0000
0010
0001
,
0100
1000
0010
0000
,
1000
0000
0001
0010
,
0001
0100
0010
0000
,
1000
0000
0100
0000
,
1000
0010
0001
0000
,
0010
0000
0001
0000
,
0100
0001
1000
0000
,
0001
0000
0010
0000
,
1000
0100
0010
0000
,
0100
0000
1000
0000
,
0010
1000
0001
0000
;

//---------------dance-single - ----------------
#NOTES:
     dance-single:
     :
     Medium:
     9:
     :
0000
0000
0000
0000
,
0000
0000
0000
0000
,
0000
0000
0000
0000
,
0000
0000
0000
0000
,
1000
0010
0001
0100
,
0010
0000
1000
0001
0100
0000
0000
0000
,
0001
0010
1000
0100
,
0001
0010
0001
0100
1000
0000
0000
0000
,
0010
1000
0100
0001
,
1000
0000
0001
0010
0100
0000
0000
0000
,
1000
0100
0001
0010
,
0100
1000
0010
1000
0001
0000
0000
0000
,
0000
0100
0001
0010
0001
0010
0100
1000
,
0000
0010
1000
0100
0001
0000
0000
0000
,
1000
0010
1000
0010
0100
0001
0100
0001
,
0010
0000
0100
1000
0001
0000
0000
0000
,
0000
0010
1000
0001
1000
0100
0010
0001
,
0000
0100
0001
0010
1000
0000
0000
0000
,
0010
0100
0010
0100
0001
1000
0001
1000
,
0100
0000
0000
0000
1000
0010
0100
0001
,
0010
0000
0000
0010
0000
0000
0000
0000
0001
0000
1000
0000
0001
0000
0100
0000
,
0010
0000
1010
0000
0001
0100
0010
1000
,
1100
0000
0101
0000
1100
0000
0001
0100
,
1000
0000
0101
0000
0001
0010
0100
1000
,
0001
0000
0000
0001
0000
0000
0000
0000
0010
0000
0100
0000
1000
0000
0010
0000
,
1000
0000
1100
0000
0100
0010
0001
1000
,
1010
0000
0011
0000
1010
0000
0001
0100
,
1000
0000
0011
0000
0100
0000
0010
1000
,
0001
0000
0010
0100
1000
0001
1000
0000
,
0001
0100
1000
0001
0010
0000
1100
0000
,
0101
0000
0010
1000
0100
0010
0001
0000
,
1000
0100
0001
1000
0010
0000
0110
0000
,
1001
0000
0010
1000
0001
0010
0100
0000
,
1000
0001
0100
1000
0010
0000
0101
0000
,
1010
0000
0100
0001
0010
0001
1000
0000
,
0100
1000
0001
0100
0010
0000
0000
0000
,
0000
1000
0100
1000
0010
0100
0001
1000
,
0000
0001
0010
1000
0100
0000
0000
0000
,
0010
0001
0010
0001
1000
0100
1000
0100
,
0001
0000
1000
0010
0100
0000
0000
0000
,
0000
0001
0010
0001
0010
0100
1000
0001
,
0000
0100
1000
0010
0001
0000
0000
0000
,
0100
0010
1000
0001
1000
0100
0010
0001
,
0100
0000
0010
1000
0001
0000
0000
0000
;

//---------------dance-single - ----------------
#NOTES:
     dance-single:
     :
     Hard:
     11:
     :
0000
0000
0000
0000
,
0000
0000
0000
0000
,
0000
0000
0000
0000
,
0000
0000
0000
0000
,
1000
1000
0010
0010
0100
0100
0001
0001
,
0010
0010
0001
0100
0100
0000
0000
0000
,
0010
0010
1000
1000
0001
0001
0100
0100
,
0001
0001
1000
0100
0100
0000
1000
0001
,
0010
0010
0100
0100
1000
1000
0001
0001
,
1000
1000
0010
0100
0100
0000
0000
0000
,
0001
0001
1000
1000
0100
0100
0010
0010
,
0001
0001
1000
0010
0010
0000
0100
0001
,
1000
0100
0010
0001
0100
0010
0100
0001
,
0010
0100
1000
0001
0100
0000
0000
0000
,
0001
0010
0001
0100
0010
1000
0100
0010
,
0001
0100
0001
0010
1000
0000
0100
1000
,
0001
0010
0001
0100
0010
1000
0100
0010
,
0100
1000
0100
0010
0001
0000
0000
0000
,
1000
0001
0010
0001
0010
0100
1000
0001
,
0100
0000
0000
0000
0001
0010
0100
1000
,
1100
0000
0000
0001
0000
0001
0100
0000
0010
0000
1000
0000
0001
0000
0010
0000
,
0011
0000
0000
1000
0000
1000
0100
0000
0010
0000
0001
0000
1000
0000
0001
0000
,
1000
0100
0000
0000
0001
0100
0000
0000
1000
0010
0000
0000
0001
0000
0010
0000
,
0100
1000
0001
1000
0010
0100
0001
1000
,
1010
0000
0000
0100
0000
0100
0001
0000
0010
0000
0100
0000
1000
0000
0001
0000
,
0101
0000
0000
0010
0000
0010
1000
0000
0100
0000
0010
0000
0001
0000
1000
0000
,
0001
0100
0000
0000
1000
0100
0000
0000
0001
0010
0000
0000
1000
0000
0010
0000
,
0100
0000
0001
0000
1000
0000
0001
0000
0010
0000
0000
0001
1000
0000
0100
0000
,
0010
0000
0000
0001
0000
0001
1000
0000
0001
0000
0100
0000
0010
1000
0000
0100
,
0000
1000
0001
0000
1000
0000
0100
0000
0010
0000
0000
0000
0011
0000
0001
0000
,
1000
0000
0000
0010
0000
0010
0100
0000
0001
0000
0010
0000
0001
1000
0000
0100
,
0000
1000
0001
0000
1000
0000
0100
0000
0010
0000
0000
0000
1100
0000
0001
0000
,
1000
0000
0000
0001
0000
0001
0010
0000
0001
0000
1000
0000
0100
0010
0000
0100
,
0000
1000
0001
0000
1000
0000
0100
0000
0010
0000
0000
0000
0101
0000
1000
0000
,
0100
0000
0000
0010
0000
0010
0001
0000
0100
0000
0001
0000
1000
0100
0000
1000
,
0000
0001
1000
0000
0001
0000
0100
0000
0010
0000
0000
0000
1010
0000
0000
0000
,
0001
0001
0010
0010
1000
1000
0100
0100
,
0010
0010
0100
1000
1000
0000
0000
0000
,
0001
0001
0100
0100
0010
0010
1000
1000
,
0100
0100
0010
0001
0001
0000
1000
0001
,
1000
0010
1000
0001
1000
0100
0010
0001
,
0100
0010
1000
0001
0100
0000
0000
0000
,
0001
0010
0001
0100
1000
0010
1000
0001
,
0100
0010
0100
0010
0100
0001
0000
0000
;

//---------------dance-single - ----------------
#NOTES:
     dance-single:
     :
     Challenge:
     14:
     :
0000
0000
0000
0000
,
0000
0000
0000
0000
,
0000
0000
0000
0000
,
0000
0000
0000
0000
,
1000
0100
1000
0000
0001
0100
0001
0000
1000
0010
1000
0000
0001
0010
0001
0000
,
0100
0000
0000
0010
1000
0000
0001
0000
0001
0000
0000
0000
0000
0000
0010
0100
,
1000
0100
0010
0000
0001
0100
0010
0000
1000
0001
0100
0000
0010
0000
1000
0000
,
0001
0000
1000
0000
1000
0000
0001
0000
0001
0000
1010
0000
0100
0000
0010
1000
,
0001
0010
0001
0000
1000
0010
1000
0000
0001
0100
0001
0000
1000
0100
1000
0000
,
0010
0000
0000
1000
0001
0000
0100
0000
0100
0000
0000
0000
0000
0000
0001
0010
,
0100
0010
0001
0000
1000
0010
0100
0000
0001
1000
0100
0000
1000
0000
0001
0000
,
0010
0000
0100
0000
0100
0000
1000
0000
1000
0000
0000
0001
1000
0000
0010
0000
,
0110
0001
0100
0010
1000
0100
1000
0001
,
0011
0000
0100
0000
1000
0000
0001
0000
1000
0000
0000
0000
0000
0000
0000
0010
,
1000
0001
0000
1000
0000
0100
0000
0010
0000
0001
0000
0100
0000
0010
0000
1000
,
0000
0000
0001
0000
0001
0000
0010
0000
0010
0000
0100
0000
1000
0010
1000
0000
,
1100
0001
0010
1000
0100
0010
0100
1000
,
1001
0000
0010
0000
0001
0000
0100
0000
1000
0000
0010
0000
0000
0000
0000
0100
,
0001
1000
0000
0001
0000
0010
0000
0001
0000
0100
0000
0010
0000
1000
0000
0001
,
0000
1000
0100
0000
0010
0001
1000
0001
,
1100
0000
0000
0101
0000
0010
1000
0000
0100
0000
0010
0000
0001
1000
0001
0000
,
0011
0000
0000
1100
0000
0010
0100
0000
0001
1000
0100
0000
1000
0000
0010
0000
,
0100
0100
0000
0001
1000
1000
0100
0000
0010
0010
0001
0000
1000
0000
0001
0000
,
0100
0000
0010
1000
0100
0010
0001
0000
1000
0000
0001
0000
1000
0000
0100
0000
,
0011
0000
0000
1001
0000
0010
0100
0010
1000
0100
1000
0000
0001
0010
0100
0000
,
1100
0000
0001
0100
0010
1000
0001
1000
0100
0010
0001
0000
1000
0000
0001
0000
,
0010
0010
0000
0001
1000
1000
0100
0000
0001
0001
0010
0000
0100
1000
0001
0000
,
0100
0000
0000
0000
0001
0000
0010
0000
1000
0000
0010
0000
0001
0000
0010
0000
0100
0000
0000
0000
0000
0000
1000
0010
1000
0000
0000
0000
0001
0000
0000
0000
,
0100
0000
0000
0010
1000
0010
0100
0000
0001
0000
0010
0000
1000
0100
0000
1000
,
0010
0100
0001
0000
1000
0000
0100
0000
0010
0000
0000
0000
0001
1000
0001
1000
,
0000
0010
0000
1000
0000
0100
0001
0000
1000
0000
0010
0000
1000
0001
0000
0010
,
0100
1000
0001
0000
1000
0000
0100
0000
0010
0000
0000
0000
0001
0100
0010
1000
,
0000
0000
0001
0100
0000
0010
1000
0000
0100
0000
0010
0000
0001
1000
0000
0001
,
0010
0001
1000
0000
0100
0000
1000
0000
0010
0000
0100
0000
0001
0010
0100
1000
,
0000
0000
0010
1000
0000
0100
0001
0000
1000
0000
0001
0000
0010
0100
0000
1000
,
0001
1000
0010
0000
1000
0000
0100
0000
0010
0000
0000
0000
0001
0100
0001
0000
,
1000
0001
0001
0100
0100
0010
0010
1000
,
1000
0000
0100
0000
0100
0000
0001
0000
0001
0000
0000
0000
0000
0000
0000
0010
,
0001
0100
0000
1000
0000
0001
0000
1000
0000
0010
0000
0100
0000
0001
0000
0010
,
0000
0100
0100
1000
1000
0000
0001
1000
,
0110
1000
0001
0010
0001
0100
1000
0010
,
1010
0000
0001
0000
0100
0000
1000
0000
0010
0000
0000
0000
0000
0000
0000
0100
,
0001
0010
0000
0001
0000
0100
0000
1000
0000
0001
0000
0010
0000
0100
0000
1000
,
0010
1000
1000
0100
0001
0001
0000
0000
;
