#VERSION:0.83;
#TITLE:As The Rush Comes (Gabriel & Dresden Sweeping Strings Radio Edit);
#SUBTITLE:;
#ARTIST:Motorcycle;
#TITLETRANSLIT:;
#SUBTITLETRANSLIT:;
#ARTISTTRANSLIT:;
#GENRE:;
#ORIGIN:;
#CREDIT:;
#BANNER:As The Rush Comes (Gabriel & Dresden Sweeping Strings Radio Edit)-bn.png;
#BACKGROUND:As The Rush Comes (Gabriel & Dresden Sweeping Strings Radio Edit)-bg.png;
#PREVIEWVID:;
#JACKET:As The Rush Comes (Gabriel & Dresden Sweeping Strings Radio Edit)-jacket.png;
#CDIMAGE:;
#DISCIMAGE:;
#LYRICSPATH:;
#CDTITLE:;
#MUSIC:As The Rush Comes (Gabriel & Dresden Sweeping Strings Radio Edit).ogg;
#OFFSET:0.000000;
#SAMPLESTART:74.192001;
#SAMPLELENGTH:20.000000;
#SELECTABLE:YES;
#DISPLAYBPM:135.000000;
#BPMS:0.000=136.882,
4.000=135.020;
#STOPS:;
#DELAYS:;
#WARPS:;
#TIMESIGNATURES:0.000=4=4;
#TICKCOUNTS:0.000=4;
#COMBOS:0.000=1;
#SPEEDS:0.000=1.000=0.000=0;
#SCROLLS:0.000=1.000;
#FAKES:;
#LABELS:0.000=Song Start;
#BGCHANGES:7.750=As The Rush Comes (Gabriel & Dresden Sweeping Strings Radio Edit).avi=1.000=1=0=0=StretchNoLoop==CrossFade==,
262.500=As The Rush Comes (Gabriel & Dresden Sweeping Strings Radio Edit)-bg.png=1.000=0=0=1=====,
99999=-nosongbg-=1.000=0=0=0 // don't automatically add -songbackground-
;
#KEYSOUNDS:;
#ATTACKS:
;

//---------------dance-single - ----------------
#NOTEDATA:;
#CHARTNAME:;
#STEPSTYPE:dance-single;
#DESCRIPTION:;
#CHARTSTYLE:;
#DIFFICULTY:Beginner;
#METER:2;
#RADARVALUES:0.130018,0.191127,0.000000,0.033096,0.000000,110.000000,110.000000,0.000000,4.000000,0.000000,0.000000,0.000000,0.000000,0.000000,0.130018,0.191127,0.000000,0.033096,0.000000,110.000000,110.000000,0.000000,4.000000,0.000000,0.000000,0.000000,0.000000,0.000000;
#CREDIT:;
#DISPLAYBPM:135.000000;
#NOTES:
0000
0000
0000
0000
,
0000
0000
0000
0000
,
0000
0000
0000
0000
,
0000
0000
0000
0000
,
0000
0000
0000
0000
,
0000
0000
0000
0000
,
1000
0000
0000
0000
,
1000
0000
0000
0000
,
0001
0000
0000
0000
,
0001
0000
0000
0000
,
1000
0000
1000
0000
,
0001
0000
0001
0000
,
1000
0000
0001
0000
,
1000
0000
0001
0000
,
0010
0000
0000
0000
,
0010
0000
0000
0000
,
0100
0000
0000
0000
,
0100
0000
0000
0000
,
0010
0000
0010
0000
,
0100
0000
0100
0000
,
0010
0000
0100
0000
,
0010
0000
0100
0000
,
1000
0000
0001
0000
,
0100
0000
0001
0000
,
1000
0000
0100
0000
,
1000
0000
0001
0000
,
0010
0000
0001
0000
,
1000
0000
0010
0000
,
1000
0000
0001
0000
,
0100
0000
0010
0000
,
0000
1000
0000
1000
,
0000
0001
0000
0001
,
0000
0100
0000
0001
,
0000
1000
0000
0100
,
0000
0010
0000
0001
,
0000
0100
0000
0010
,
0000
1000
0000
0001
,
0000
0010
0000
0100
,
0200
0000
0000
0300
,
0000
0000
0000
1000
,
2000
0000
0000
3000
,
0000
0000
0000
0000
,
0001
0001
0000
0000
,
1000
1000
0000
0000
,
0010
0000
0010
0000
,
0100
0000
0100
0000
,
0010
0010
0000
0000
,
0100
0100
0000
0000
,
0001
0000
0001
0000
,
1000
0000
1000
0000
,
0010
0010
0010
0000
,
0100
0100
0100
0000
,
0001
0000
0001
0000
,
1000
0000
1000
0000
,
0001
0001
0001
0000
,
1000
1000
1000
0000
,
0100
0000
0100
0000
,
0010
0000
0010
0000
,
0002
0000
0000
0003
,
0001
0000
0001
0000
,
1000
0000
1000
0000
,
0001
0000
0001
0000
,
2000
0000
0000
3000
,
1000
0000
1000
0000
,
0001
0000
1000
0000
,
0010
0000
0100
0000
,
0001
0000
0000
0000
;

//---------------dance-single - ----------------
#NOTEDATA:;
#CHARTNAME:;
#STEPSTYPE:dance-single;
#DESCRIPTION:;
#CHARTSTYLE:;
#DIFFICULTY:Easy;
#METER:6;
#RADARVALUES:0.216303,0.275107,0.082739,0.405421,0.000000,183.000000,173.000000,10.000000,49.000000,0.000000,0.000000,0.000000,0.000000,0.000000,0.216303,0.275107,0.082739,0.405421,0.000000,183.000000,173.000000,10.000000,49.000000,0.000000,0.000000,0.000000,0.000000,0.000000;
#CREDIT:;
#DISPLAYBPM:136.000000;
#NOTES:
0000
0000
0000
0000
,
0000
0000
0000
0000
,
0000
0000
0000
0000
,
0000
0000
0000
0000
,
0000
0000
0000
0000
,
0000
0000
0000
0000
,
1000
0001
1000
0002
,
0000
0003
0010
0100
,
2000
3000
0200
0300
,
0020
0030
0002
0003
,
0100
0010
0100
0020
,
0000
0030
1000
0001
,
0020
0030
0200
0300
,
2000
3000
0002
0003
,
0010
0002
0003
0001
,
1000
0200
0300
0100
,
1000
0020
0030
0010
,
0100
0002
0003
0001
,
0010
0100
0010
0100
,
1000
0100
1000
0100
,
0001
0100
0001
0100
,
1000
1000
0010
0010
,
0100
0100
0001
2000
,
0000
3000
0100
0010
,
0002
0003
0020
0030
,
0200
0300
2000
3000
,
0010
0100
0010
0200
,
0300
0100
0001
1000
,
0200
0300
0020
0030
,
0002
0003
2000
3000
,
0100
2000
3000
1000
,
0001
0020
0030
0010
,
0001
0200
0300
0100
,
0010
2000
3000
1000
,
0100
0010
0100
0010
,
0001
0010
0001
0010
,
1000
0010
1000
0010
,
0001
1000
0001
0010
,
0200
0000
0000
0300
,
0001
1000
0001
1000
,
0002
0000
0000
0003
,
1000
0001
1000
0000
,
1001
2002
3003
0000
,
0110
0220
0330
0000
,
0010
0100
0010
0100
,
0001
1000
0001
0000
,
0101
0202
0303
0000
,
1100
2200
3300
0000
,
0001
1000
0001
1000
,
0010
0100
0010
0000
,
0002
1000
0000
1003
,
0200
0010
0000
0310
,
0002
1000
0000
1003
,
0020
0100
0000
0130
,
0001
1000
1000
1000
,
0100
0010
0010
0010
,
0001
0100
0100
0100
,
0010
1000
1000
1000
,
2002
0000
0000
3003
,
0000
0000
1000
0010
,
0200
0000
0000
0300
,
0000
0000
0001
0010
,
0200
0300
1000
0000
,
1000
0000
0010
0100
,
0002
0003
1000
0000
,
1000
0000
0001
1000
,
2002
0000
3003
0000
;

//---------------dance-single - ----------------
#NOTEDATA:;
#CHARTNAME:;
#STEPSTYPE:dance-single;
#DESCRIPTION:;
#CHARTSTYLE:;
#DIFFICULTY:Medium;
#METER:8;
#RADARVALUES:0.293132,0.414212,0.215121,0.364052,0.000000,248.000000,222.000000,26.000000,44.000000,0.000000,0.000000,0.000000,0.000000,0.000000,0.293132,0.414212,0.215121,0.364052,0.000000,248.000000,222.000000,26.000000,44.000000,0.000000,0.000000,0.000000,0.000000,0.000000;
#CREDIT:;
#DISPLAYBPM:136.000000;
#NOTES:
0000
0000
0000
0000
,
0000
0000
0000
0000
,
0000
0000
0000
0000
,
0000
0000
0000
0000
,
0000
0000
0000
0000
,
0000
0000
0000
0000
,
0110
0010
2000
3002
,
1003
0000
1000
0000
0001
0010
0001
0000
,
2000
3020
0000
1000
,
0000
0100
0000
1030
,
0001
0010
0002
1000
,
0000
0000
1003
0000
1000
0001
0010
0000
,
0200
1000
0000
0010
,
0000
0000
1300
0000
0010
0100
0001
0000
,
2000
0100
0001
3100
,
0020
0000
0001
0000
0100
0000
0031
0100
,
0020
1000
0100
1030
,
0200
0000
0001
0000
0010
0000
0301
1000
,
0200
0010
1000
0310
,
0002
0000
1000
0000
0010
0000
1003
0010
,
0200
0001
0010
0301
,
0020
1000
0000
1030
,
0110
0100
0002
2003
,
3001
0000
0001
0000
1000
0100
1000
0000
,
0002
0203
0000
0001
,
0000
0010
0000
0301
,
0100
0010
2000
0001
,
0000
0000
3001
0000
0001
1000
0100
0000
,
0020
0001
0000
0100
,
0000
0000
0031
0000
1000
0010
1000
0001
,
0100
0110
1000
1010
,
0100
0000
1100
0000
0100
0020
0000
0031
,
0000
0110
0001
0101
,
0010
0000
1100
0000
0001
0010
0001
1000
,
0010
0110
0001
0101
,
0010
0000
0011
0000
0010
0200
0000
1300
,
0000
0110
1000
1100
,
0010
0000
0101
0000
0010
0100
2000
0000
,
0002
3000
0100
0000
0000
0000
0100
0000
,
0000
0000
0103
0000
0001
0100
0020
0000
,
2030
0100
0000
0100
,
0000
0000
3100
0000
0000
0000
1000
0100
,
0000
0000
1100
0000
0000
0000
0001
0100
,
0000
0000
0101
0000
0000
0010
0001
0200
,
0000
0310
1000
1010
,
0100
0000
0101
0000
1000
0000
0001
0010
,
0000
0000
1100
0000
0000
0000
1000
0010
,
0000
0000
0101
0000
0000
0010
1000
0200
,
0000
0310
0001
0011
,
0100
0000
1100
0000
0010
0000
0001
2000
,
0000
0000
3001
0000
0000
0000
1000
0002
,
0000
0000
1003
0000
0000
0010
0100
0002
,
0000
0000
1000
0003
0010
0000
1010
0000
,
0100
0000
0101
0000
0001
0000
0010
0200
,
0000
0000
0310
0000
0000
0000
0100
0020
,
0000
0000
0130
0000
0000
1000
0010
2000
,
0000
3001
0000
1001
,
0100
0000
0110
0000
1000
0001
0200
0000
,
0020
0000
0000
0000
,
0000
0000
0330
0000
0001
1000
0200
0000
,
0020
0000
0000
0000
,
0000
0000
0330
0000
0001
1000
0000
0010
,
0000
0100
0000
0001
1000
0200
0020
0000
,
0000
0330
0000
0001
1000
0020
0000
0200
,
0000
0000
0000
0000
,
0330
0000
0000
0100
0001
0010
0000
0200
,
0000
2000
0000
0000
0000
0000
3300
0000
;

//---------------dance-single - ----------------
#NOTEDATA:;
#CHARTNAME:;
#STEPSTYPE:dance-single;
#DESCRIPTION:;
#CHARTSTYLE:;
#DIFFICULTY:Hard;
#METER:11;
#RADARVALUES:0.398329,0.495193,0.190300,0.405421,0.256491,337.000000,314.000000,23.000000,49.000000,0.000000,0.000000,0.000000,0.000000,0.000000,0.398329,0.495193,0.190300,0.405421,0.256491,337.000000,314.000000,23.000000,49.000000,0.000000,0.000000,0.000000,0.000000,0.000000;
#CREDIT:;
#DISPLAYBPM:136.000000;
#NOTES:
0000
0000
0000
0000
,
0000
0000
0000
0000
,
0000
0000
0000
0000
,
0000
0000
0000
0000
,
0000
0000
0000
0000
,
0000
0000
0000
0000
,
0010
0001
2000
0000
3200
0000
2300
0000
,
0000
0000
3000
0000
0001
0020
0000
0230
,
0000
1300
0020
0000
0000
0000
0001
0000
,
0000
0100
0000
1030
,
0001
1002
0203
0320
,
0000
0030
1000
0010
,
0100
2002
0003
0100
,
0000
0000
3001
0000
1000
0100
0010
0001
,
1000
0000
0000
0010
0000
0000
0100
0000
0000
0010
0000
0000
1000
0000
0000
0000
,
0001
0000
0000
0010
0000
0000
0100
0000
0000
0010
0000
0000
0001
0000
0000
0000
,
0100
0000
0000
0010
0000
0000
0001
0000
0000
0010
0000
0000
1000
0000
0000
0000
,
0001
0000
0000
0100
0000
0000
1000
0000
0000
0100
0000
0000
0010
0000
0000
0000
,
1000
0000
0000
0010
0100
0000
0010
0000
0000
1000
0010
0000
1000
0000
0000
0000
,
0001
0000
0000
0010
0100
0000
0010
0000
0000
0001
0010
0000
0001
0000
0000
0000
,
0010
0000
0000
0100
1000
0000
0100
1000
0000
0100
1000
0000
0001
0000
0000
0000
,
0100
0000
0000
0010
1000
0000
0010
1000
0000
0010
1000
0000
0001
0000
0000
0000
,
1001
0210
0320
0230
,
0001
0000
0010
0000
0301
2000
0000
3020
,
0000
0130
0002
0000
0100
0000
1000
0000
,
0100
0000
1003
0000
0100
0010
1000
0002
,
0000
0003
0100
0000
0001
0000
1200
0000
,
0000
0000
0310
0001
0010
0001
0010
0200
,
0000
1300
0002
0013
,
0020
0000
0130
0000
1000
0200
0000
0310
,
0000
0100
0000
0001
0100
1000
0001
0000
,
1000
0000
0001
0000
1000
0020
0000
0230
,
0000
0301
1000
1100
,
0001
0000
0101
0000
1000
0020
0000
0130
,
0000
0010
0000
0001
0010
1000
0001
0000
,
1000
0000
0001
0000
1000
0200
0000
0320
,
0000
0031
0100
1010
,
0100
0000
1010
0001
0100
0010
2000
0000
,
0000
3000
0001
0000
0010
0000
0011
0000
,
0100
0000
0011
1000
0100
0010
0200
0000
,
0000
0310
0001
0100
0000
0000
1001
0000
,
0010
0000
1001
0000
0010
0000
1000
0200
,
0000
0000
0310
0000
0000
0000
0001
0200
,
0000
0000
0310
0000
0000
0100
0001
2000
,
0000
3100
0010
0011
,
1001
0000
1100
0000
0110
0000
0001
0020
,
0000
0000
0130
0000
0000
0000
1000
0020
,
0000
0000
0130
0000
0000
0010
1000
0002
,
0000
0013
0100
1100
,
1001
0011
0101
1010
,
0010
0000
0000
0100
0001
0000
1000
0000
0000
0001
0010
0000
0200
0000
0000
0000
,
0310
0000
0000
0100
1000
0000
0001
0000
0000
1000
0010
0000
0200
0000
0000
0000
,
0301
0000
0000
0100
0010
0000
1000
0000
0000
0100
0010
0000
0002
0000
0000
0000
,
1003
0000
0000
0100
0010
0000
0001
0000
0000
0100
0010
0000
2000
0000
0000
0000
,
3001
0000
0000
0100
0010
0000
1000
0010
0000
0100
0010
0000
1000
0000
0000
0000
,
0100
0000
0000
0010
0100
0000
1000
0100
0000
0010
0100
0000
1000
0000
0000
0000
,
0010
0000
0000
0100
0001
0000
1000
0100
0000
0001
0100
0000
1000
0000
0000
0000
,
0010
0000
0000
0100
1000
0000
0100
0001
0000
1000
0100
0000
0001
0000
0000
0000
,
1001
0000
0000
1000
0010
0000
1000
0010
0000
0100
0020
0000
0000
0000
0000
0000
,
1030
0000
0000
0001
0010
0000
0001
0010
0000
0100
0020
0000
0000
0000
0000
0000
,
0031
0000
0000
0100
0010
0000
0100
0010
0000
1000
0002
0000
0000
0000
0000
0000
,
1003
0000
0000
0100
0010
0000
0100
0010
0000
0001
2000
0000
0000
0000
0000
0000
,
3010
0000
0000
0001
0010
0000
0001
0010
0000
1000
0002
0000
0000
0000
0000
0000
,
0013
0000
0000
1000
0010
0000
1000
0010
0000
0001
2000
0000
0000
0000
0000
0000
,
3100
0000
0000
1000
0001
0000
1000
0001
0000
0100
0002
0000
0000
0000
0000
0000
,
0103
0000
0000
0001
1000
0000
0001
1000
0000
0100
2000
0000
0000
0000
0000
0000
,
3020
0000
0030
0000
;

//---------------dance-double - ----------------
#NOTEDATA:;
#CHARTNAME:;
#STEPSTYPE:dance-double;
#DESCRIPTION:;
#CHARTSTYLE:;
#DIFFICULTY:Easy;
#METER:6;
#RADARVALUES:0.212757,0.302618,0.082739,0.372325,0.000000,180.000000,170.000000,10.000000,45.000000,0.000000,0.000000,0.000000,0.000000,0.000000,0.212757,0.302618,0.082739,0.372325,0.000000,180.000000,170.000000,10.000000,45.000000,0.000000,0.000000,0.000000,0.000000,0.000000;
#CREDIT:;
#DISPLAYBPM:136.000000;
#NOTES:
00000000
00000000
00000000
00000000
,
00000000
00000000
00000000
00000000
,
00000000
00000000
00000000
00000000
,
00000000
00000000
00000000
00000000
,
00000000
00000000
00000000
00000000
,
00000000
00000000
00000000
00000000
,
00010000
00001000
00010000
00002000
,
00000000
00003000
00001000
00000100
,
00000002
00000003
00000200
00000300
,
00002000
00003000
00020000
00030000
,
00001000
00010000
00001000
00020000
,
00000000
00030000
00010000
01000000
,
20000000
30000000
02000000
03000000
,
00020000
00030000
00002000
00003000
,
00010000
00001000
00010000
00000000
,
00000100
00001000
00000100
00000000
,
00000001
00000100
00000001
00000000
,
00001000
00000010
00001000
00000000
,
00010000
00001000
00010000
00000000
,
00100000
00010000
00100000
00000000
,
01000000
10000000
01000000
00000000
,
00010000
01000000
00010000
00000000
,
00010000
00001000
00010000
00002000
,
00000000
00003000
00001000
00000010
,
00000002
00000003
00000020
00000030
,
00002000
00003000
00020000
00030000
,
00001000
00010000
00001000
00020000
,
00000000
00030000
00010000
00100000
,
20000000
30000000
00200000
00300000
,
00020000
00030000
00002000
00003000
,
00000100
00000020
00000030
00000100
,
00000001
00000200
00000300
00000001
,
00001000
00000200
00000300
00010000
,
00001000
00020000
00030000
00001000
,
00100000
00010000
00100000
00010000
,
10000000
00100000
10000000
00100000
,
01000000
00010000
01000000
00010000
,
00100000
00001000
00010000
00001000
,
00020000
00000000
00000000
00030000
,
00000000
00000100
00001000
00000100
,
00002000
00000000
00000000
00003000
,
00000001
00001000
00000001
00001000
,
00001100
00002200
00003300
00000000
,
00000101
00000202
00000303
00000000
,
00000100
00001000
00000100
00001000
,
00010000
01000000
00010000
01000000
,
01010000
02020000
03030000
00000000
,
11000000
22000000
33000000
00000000
,
10000000
01000000
10000000
01000000
,
00010000
00001000
00010000
00001000
,
00020000
00001000
00000000
00031000
,
00002000
00000001
00000000
00003001
,
00000200
00000010
00000000
00000310
,
00002000
00000100
00000000
00003100
,
00010000
00001000
00001000
00001000
,
00100000
00010000
00010000
00010000
,
10000000
00100000
00100000
00100000
,
01000000
00010000
00010000
00010000
,
20020000
00000000
00000000
30030000
,
00000000
00000000
01000000
00010000
,
00002000
00000000
00000000
00003000
,
00000000
00000000
00010000
00001000
,
00000200
00000300
00000001
00000000
,
00000001
00000000
00000010
00000100
,
00002000
00003000
00000010
00000000
,
00000100
00000000
00001000
00010000
,
00022000
00000000
00033000
00000000
;

//---------------dance-double - ----------------
#NOTEDATA:;
#CHARTNAME:;
#STEPSTYPE:dance-double;
#DESCRIPTION:;
#CHARTSTYLE:;
#DIFFICULTY:Medium;
#METER:8;
#RADARVALUES:0.293132,0.414212,0.215121,0.364052,0.000000,248.000000,222.000000,26.000000,44.000000,0.000000,0.000000,0.000000,0.000000,0.000000,0.293132,0.414212,0.215121,0.364052,0.000000,248.000000,222.000000,26.000000,44.000000,0.000000,0.000000,0.000000,0.000000,0.000000;
#CREDIT:;
#DISPLAYBPM:136.000000;
#NOTES:
00000000
00000000
00000000
00000000
,
00000000
00000000
00000000
00000000
,
00000000
00000000
00000000
00000000
,
00000000
00000000
00000000
00000000
,
00000000
00000000
00000000
00000000
,
00000000
00000000
00000000
00000000
,
00011000
00001000
00200000
00320000
,
00130000
00000000
00010000
00000000
00010000
10000000
01000000
00000000
,
00020000
00032000
00000000
00100000
,
00000000
00010000
00000000
00103000
,
00001000
00010000
00000200
00001000
,
00000000
00000000
00001300
00000000
00001000
00000001
00000100
00000000
,
00002000
00010000
00000000
00000100
,
00000000
00000000
00013000
00000000
00001000
00010000
00001000
00000000
,
00020000
00001000
00000100
00031000
,
00000200
00000000
00010000
00000000
00001000
00000000
00010300
00001000
,
00000200
00001000
00000010
00001300
,
00000020
00000000
00001000
00000000
00000100
00000000
00001030
00000100
,
00020000
00000100
00001000
00030100
,
00002000
00000000
00010000
00000000
00100000
00000000
00013000
00001000
,
02000000
00100000
00010000
03100000
,
00020000
00100000
00000000
00130000
,
00110000
00001000
00020000
00030200
,
00001300
00000000
00000010
00000000
00000010
00000100
00001000
00000000
,
00020000
00032000
00000000
00100000
,
00000000
00010000
00000000
00103000
,
00001000
00010000
00000200
00001000
,
00000000
00000000
00001300
00000000
00001000
00000001
00000100
00000000
,
00002000
00010000
00000000
00000100
,
00000000
00000000
00013000
00000000
00001000
00010000
00001000
00100000
,
00010000
00110000
10000000
10100000
,
00100000
00000000
01100000
00000000
01000000
00020000
00000000
00130000
,
00000000
00101000
00001000
00011000
,
00010000
00000000
00010100
00000000
00000100
00001000
00000100
00000010
,
00000001
00000011
00000001
00000101
,
00000100
00000000
00000110
00000000
00000010
00002000
00000000
00003100
,
00000000
00010100
00010000
00011000
,
00001000
00000000
00101000
00000000
00100000
00010000
20000000
00000000
,
00200000
30000000
01000000
00000000
00000000
00000000
01000000
00000000
,
00000000
00000000
01300000
00000000
00100000
00010000
00002000
00000000
,
00023000
00001000
00000000
00001000
,
00000000
00000000
00031000
00000000
00000000
00000000
00001000
00000100
,
00000000
00000000
00001100
00000000
00000000
00000000
00000001
00000100
,
00000000
00000000
00000101
00000000
00000000
00000001
00001000
00000020
,
00000000
00000130
00001000
00001100
,
00001000
00000000
00011000
00000000
00010000
00000000
00010000
01000000
,
00000000
00000000
01010000
00000000
00000000
00000000
10000000
01000000
,
00000000
00000000
11000000
00000000
00000000
10000000
00010000
00200000
,
00000000
01300000
00010000
01010000
,
00010000
00000000
00011000
00000000
00001000
00000000
00001000
00000020
,
00000000
00000000
00000031
00000000
00000000
00000000
00000100
00002000
,
00000000
00000000
00013000
00000000
00000000
00001000
00100000
00020000
,
00000000
10030000
01000000
01100000
,
00100000
00000000
00101000
00000000
00001000
00000000
00001000
00020000
,
00000000
00000000
00030100
00000000
00000000
00000000
00010000
00002000
,
00000000
00000000
01003000
00000000
00000000
00001000
00010000
00002000
,
00000000
00013000
00000000
00011000
,
00001000
00000000
00001100
00000000
00000100
00000001
00000020
00000000
,
00000200
00000000
00000000
00000000
,
00000000
00000000
00000330
00000000
00001000
00000100
00020000
00000000
,
00002000
00000000
00000000
00000000
,
00000000
00000000
00033000
00000000
00010000
00001000
00000000
00100000
,
00000000
00010000
00000000
10000000
00100000
02000000
00020000
00000000
,
00000000
03030000
00000000
10000000
01000000
00200000
00000000
00020000
,
00000000
00000000
00000000
00000000
,
00330000
00000000
00000000
00010000
00100000
00001000
00000000
00020000
,
00000000
00002000
00000000
00000000
00000000
00000000
00033000
00000000
;

//---------------dance-double - ----------------
#NOTEDATA:;
#CHARTNAME:;
#STEPSTYPE:dance-double;
#DESCRIPTION:;
#CHARTSTYLE:;
#DIFFICULTY:Hard;
#METER:10;
#RADARVALUES:0.385327,0.523686,0.190300,0.413695,0.206847,326.000000,303.000000,23.000000,50.000000,0.000000,0.000000,0.000000,0.000000,0.000000,0.385327,0.523686,0.190300,0.413695,0.206847,326.000000,303.000000,23.000000,50.000000,0.000000,0.000000,0.000000,0.000000,0.000000;
#CREDIT:;
#DISPLAYBPM:136.000000;
#NOTES:
00000000
00000000
00000000
00000000
,
00000000
00000000
00000000
00000000
,
00000000
00000000
00000000
00000000
,
00000000
00000000
00000000
00000000
,
00000000
00000000
00000000
00000000
,
00000000
00000000
00000000
00000000
,
01000000
00010000
00200000
00000000
02300000
00000000
03200000
00000000
,
00000000
00000000
00300000
00000000
01000000
00020000
00000000
00032000
,
00000000
00013000
00000200
00000000
00000000
00000000
00001000
00000000
,
00000000
00000000
00000010
00000000
00000000
00000000
00000301
00000100
,
00002000
00000000
00003010
00000100
00001000
00000000
00020000
00000000
,
00000000
00000000
00030000
00000000
00010000
01000000
10000000
00000000
,
00010000
02000000
00000000
00100000
,
00000000
00000000
13000000
00000000
01000000
00010000
00100000
01000000
,
00010000
00000000
00000000
00001000
00000000
00000000
00100000
00000000
00000000
00001000
00000000
00000000
00010000
00000000
00000000
00000000
,
00001000
00000000
00000000
00010000
00000000
00000000
00000010
00000000
00000000
00010000
00000000
00000000
00001000
00000000
00000000
00000000
,
00010000
00000000
00000000
00001000
00000000
00000000
00000100
00000000
00000000
00000001
00000000
00000000
00000010
00000000
00000000
00000000
,
00001000
00000000
00000000
00010000
00000000
00000000
01000000
00000000
00000000
10000000
00000000
00000000
00100000
00000000
00000000
00000000
,
01000000
00000000
00000000
00010000
01000000
00000000
00100000
00000000
00000000
00010000
00001000
00000000
00000010
00000000
00000000
00000000
,
00000100
00000000
00000000
00001000
00000100
00000000
00000010
00000000
00000000
00001000
00010000
00000000
00100000
00000000
00000000
00000000
,
00010000
00000000
00000000
00001000
00010000
00000000
00001000
00100000
00000000
00001000
01000000
00000000
00010000
00000000
00000000
00000000
,
00001000
00000000
00000000
00010000
00001000
00000000
00010000
00000100
00000000
00010000
00000010
00000000
00001000
00000000
00000000
00000000
,
00000001
00000120
00002030
00003002
,
00000010
00000000
00001000
00000000
00000103
00002000
00000000
00023000
,
00000000
00130000
20000000
00000000
01000000
00000000
00010000
00000000
,
00100000
00000000
00010000
00000000
31000000
10000000
00010000
00200000
,
00000000
00302000
00000000
00023000
00000000
00030100
00002000
00000000
,
00000000
00000000
00003010
00000100
00000001
00002000
00000000
00003200
,
00000000
00000310
00000020
00001030
,
00002000
00000000
00013000
00000000
00100000
20000000
00000000
30100000
,
00000000
01000000
00000000
10000000
01000000
00010000
00100000
00000000
,
00010000
00000000
01000000
00000000
00100000
02000000
00000000
03002000
,
00000000
00013000
00001000
00011000
,
00010000
00000000
00010100
00000000
00001000
00000002
00000000
00000013
,
00000000
00000100
00000000
00000001
00000100
00001000
00000010
00000000
,
00001000
00000000
00000100
00000000
00000010
00000200
00000000
00020300
,
00000000
00031000
00100000
00011000
,
00000100
00000000
00011000
00001000
00100000
00010000
20000000
00000000
,
00000000
30000000
01000000
00000000
00100000
00000000
00110000
00000000
,
00100000
00000000
00101000
00001000
00010000
00000100
00002000
00000000
,
00000000
00003010
00000100
00000001
00000000
00000000
00001010
00000000
,
00000010
00000000
00010010
00000000
00010000
00000000
00001000
00012000
,
00000000
00000000
00103000
00000000
00000000
00000000
00010000
00021000
,
00000000
00000000
00030010
00000000
00000000
00010000
00001000
00200000
,
00000000
01300000
10000000
11000000
,
01100000
00000000
00110000
00000000
00101000
00000000
00001000
00012000
,
00000000
00000000
00003100
00000000
00000000
00000000
00010000
00021000
,
00000000
00000000
01030000
00000000
00000000
00010000
00001000
00000200
,
00000000
00000310
00000000
00000101
,
00000110
00001010
00010010
00011000
,
00001000
00000000
00000000
00100000
00010000
00000000
10000000
00000000
00000000
01000000
10000000
00000000
00020000
00000000
00000000
00000000
,
00130000
00000000
00000000
00001000
00010000
00000000
00000100
00000000
00000000
00001000
00000010
00000000
00000200
00000000
00000000
00000000
,
00000301
00000000
00000000
00000100
00001000
00000000
00010000
00000000
00000000
01000000
10000000
00000000
02000000
00000000
00000000
00000000
,
13000000
00000000
00000000
01000000
00010000
00000000
00001000
00000000
00000000
00000100
00000001
00000000
00000200
00000000
00000000
00000000
,
00000310
00000000
00000000
00001000
00000010
00000000
00010000
00001000
00000000
00100000
00010000
00000000
10000000
00000000
00010000
00000000
,
01000000
00000000
00000000
00010000
01000000
00000000
00001000
00010000
00000000
00000100
00001000
00000000
00000001
00000000
00001000
00000000
,
00000010
00000000
00000000
00000100
00001000
00000000
00001000
00010000
00000000
00010000
01000000
00000000
00100000
00000000
00010000
00000000
,
00100000
00000000
00000000
01000000
00010000
00000000
00010000
00001000
00000000
00001000
00000100
00000000
00000001
00000000
00000000
00000000
,
00001001
00000000
00000000
00000001
00000100
00000000
00000001
00000000
00000000
00000100
00000020
00000000
00000000
00000000
00000000
00000000
,
00000130
00000000
00000000
00001000
00010000
00000000
00001000
00000000
00000000
00010000
00002000
00000000
00000000
00000000
00000000
00000000
,
00103000
00000000
00000000
00010000
00100000
00000000
01000000
00000000
00000000
10000000
02000000
00000000
00000000
00000000
00000000
00000000
,
03100000
00000000
00000000
00001000
00010000
00000000
00001000
00000000
00000000
00010000
00000200
00000000
00000000
00000000
00000000
00000000
,
00001300
00000000
00000000
00000001
00000000
00000000
00000010
00000000
00000000
00000000
00002000
00000000
00000000
00000000
00000000
00000000
,
00013000
00000000
00000000
00100000
00000000
00000000
10000000
00000000
00000000
00000000
02000000
00000000
00000000
00000000
00000000
00000000
,
03100000
00000000
00000000
00001000
00000000
00000000
00010000
00000000
00000000
00000000
00002000
00000000
00000000
00000000
00000000
00000000
,
00013000
00000000
00000000
00001000
00000000
00000000
00000100
00000000
00000000
00000000
00000002
00000000
00000000
00000000
00000000
00000000
,
00002000
00000000
00000000
00000003
00000000
00003000
00000000
00000000
;

//---------------dance-single - ----------------
#NOTEDATA:;
#CHARTNAME:;
#STEPSTYPE:dance-single;
#DESCRIPTION:;
#CHARTSTYLE:;
#DIFFICULTY:Challenge;
#METER:13;
#RADARVALUES:0.549623,0.607511,0.231669,0.082739,0.322682,465.000000,437.000000,28.000000,10.000000,0.000000,0.000000,0.000000,0.000000,0.000000,0.549623,0.607511,0.231669,0.082739,0.322682,465.000000,437.000000,28.000000,10.000000,0.000000,0.000000,0.000000,0.000000,0.000000;
#CREDIT:;
#DISPLAYBPM:135.000000;
#NOTES:
// measure 0
0000
0000
0000
0000
,  // measure 1
0000
0000
0000
0000
,  // measure 2
0000
0000
0000
0000
,  // measure 3
0000
0000
0000
0000
,  // measure 4
0000
0000
0000
0000
,  // measure 5
0000
0000
0000
0000
,  // measure 6
1000
0100
0001
0010
0001
0100
1000
0000
,  // measure 7
0010
0000
0100
0000
0001
0010
1000
0100
,  // measure 8
1000
0001
0100
0000
0010
1000
0100
0000
,  // measure 9
0010
0000
0000
0000
0001
0000
0000
1000
0000
0000
0001
0000
0100
0000
0010
0000
,  // measure 10
2000
0000
3100
1000
0010
0100
0001
0000
,  // measure 11
0010
0000
0001
0000
0100
0001
1000
0010
,  // measure 12
1000
0100
0001
0000
0010
0001
0100
0000
,  // measure 13
0001
0000
0010
0000
1000
0100
0001
0020
,  // measure 14
0000
0230
0000
1300
0010
0100
0001
0000
,  // measure 15
0010
0000
0001
0100
0001
0010
1000
0100
,  // measure 16
0010
0000
0001
0000
0100
0000
0000
0010
0000
0000
1000
0000
0000
0001
0000
0000
,  // measure 17
1000
0000
0000
0100
0000
0000
0010
0000
0001
0000
0100
0000
0001
0000
2000
0000
,  // measure 18
0000
3020
0000
1030
0001
1000
0100
0000
,  // measure 19
0010
0000
0001
0000
0100
0001
1000
0100
,  // measure 20
0010
0000
0000
0000
0001
0000
0000
0100
0000
0000
1000
0000
0000
0001
0000
0000
,  // measure 21
1000
0000
0000
0000
0010
0000
0000
0100
0000
0000
0001
0000
1000
0000
0010
0000
,  // measure 22
1000
0100
0001
0010
0001
1000
0100
0000
,  // measure 23
0010
0000
0000
0010
0001
0000
0100
0000
0010
0000
1000
0000
0100
0000
0010
0000
,  // measure 24
0001
0000
0100
0000
1000
0000
0000
0010
0000
0000
1000
0000
0001
0000
0000
0000
,  // measure 25
0100
0000
0000
0010
1000
0000
0001
0100
0000
0001
0100
0000
0010
0000
1000
0000
,  // measure 26
0100
0010
0001
0100
0001
0010
2000
0000
,  // measure 27
3100
0000
0000
1000
0001
0000
0100
0000
0010
0000
0100
0000
0001
0000
1000
0000
,  // measure 28
0100
0000
0010
0000
0001
0000
0100
0010
0000
0100
0010
0000
1000
0100
0000
0000
,  // measure 29
0010
0000
0000
0001
1000
0000
0001
0100
0000
0010
1000
0000
0100
0000
0010
0000
,  // measure 30
0001
0100
0110
0010
1000
0100
0110
0000
,  // measure 31
0010
0000
0000
0001
0100
0000
0010
0000
1000
0000
0100
0000
1000
0000
0001
0000
,  // measure 32
0100
0000
0000
0010
1000
0000
0100
0010
0000
0010
0001
0000
1001
0000
0000
0000
,  // measure 33
0010
0000
0000
1000
0100
0000
0010
0000
0001
0000
0100
0000
1000
0000
0010
0000
,  // measure 34
0100
0001
1001
0010
1000
0100
1001
0000
,  // measure 35
0010
0000
0000
0001
0100
0000
0010
0000
1000
0000
0100
0000
1000
0000
0001
0000
,  // measure 36
0100
0000
0000
0010
1000
0000
0001
1000
0000
1000
0100
0000
0110
0000
0000
0000
,  // measure 37
0001
0000
0000
0100
0001
0000
0010
0000
1000
0000
0100
0000
1001
0000
0000
0000
,  // measure 38
0110
0000
0000
1000
0010
0000
1000
0100
0000
0010
0001
0000
0000
0100
0000
0000
,  // measure 39
0010
0000
0000
1000
0001
0000
1000
0100
0000
0010
0001
0000
0000
0100
0000
0000
,  // measure 40
0001
0000
0000
0010
0001
0000
0100
0000
0000
1000
0010
0000
0000
0100
0000
0000
,  // measure 41
0001
0000
0000
0010
0100
0000
1000
0010
0000
1000
0001
0000
0100
0000
1010
0000
,  // measure 42
0001
0000
0100
0000
0101
0000
0000
0010
1000
0000
0100
0000
0010
0000
0011
0000
,  // measure 43
0001
0000
0100
0000
1010
0000
0000
1000
0100
0000
0010
0000
0001
0000
0100
0000
,  // measure 44
1000
0000
0100
0000
0001
0000
0010
0100
0000
0010
0100
0000
1000
0001
0000
0000
,  // measure 45
0100
0000
0000
0010
1000
0000
0100
0010
0000
0001
1000
0000
0001
0000
0101
0000
,  // measure 46
0010
1000
1100
0010
0001
0100
0010
0110
,  // measure 47
1000
0000
0100
0000
1100
0000
0000
0010
0001
0000
0100
0000
1000
0000
0010
0000
,  // measure 48
0001
0000
0010
0000
1000
0000
0100
0010
0000
0010
0001
0000
1000
0001
1000
0000
,  // measure 49
0100
0000
0000
1000
0010
0000
0100
0001
0000
0100
0001
0000
0010
0000
1001
0000
,  // measure 50
0100
0010
0101
1000
0001
0010
0100
1100
,  // measure 51
0010
0100
0101
1000
0001
0010
0100
1000
,  // measure 52
0010
0000
0001
0000
0010
0000
1000
0100
0000
1000
0001
0000
0100
0000
0010
0000
,  // measure 53
0100
0000
0000
0001
0010
0000
0001
1000
0000
1000
0100
0000
0010
0000
0011
0000
,  // measure 54
1000
0000
0001
0000
0110
0000
0000
0010
1000
0000
0100
0000
0001
0000
1001
0000
,  // measure 55
0010
0000
0100
0000
1010
0000
0000
0001
1000
0000
0100
0000
0010
0000
0001
0000
,  // measure 56
0100
0000
1000
0000
0100
0000
0001
0010
0000
0001
0010
0000
0100
1000
0000
0000
,  // measure 57
1001
0000
0000
0010
1000
0000
0100
0000
0001
0000
0010
0000
1000
0000
0000
0000
,  // measure 58
2100
0000
0000
0000
0001
0000
0000
0010
0000
0000
0001
0000
0000
3100
0000
0000
,  // measure 59
1000
0000
0000
0001
1000
0000
0010
0000
0100
0000
0001
0000
0010
0000
0000
0000
,  // measure 60
0001
0000
0100
0000
0010
0000
2000
0000
0000
0000
0100
0000
0000
0001
0000
0000
,  // measure 61
3010
0000
0000
1000
0010
0000
0100
0000
0001
0000
1000
0000
0000
0000
0101
0000
,  // measure 62
0000
1100
0000
0010
0001
0100
1000
0000
,  // measure 63
0001
0000
0000
0010
0001
0000
0100
0000
1000
0000
0001
0000
0000
0000
0100
0000
,  // measure 64
0010
0000
0000
1000
0001
0000
0100
0000
0000
0100
0000
0000
0000
0000
0000
0000
,  // measure 65
0010
0000
0000
1000
0100
0000
0010
0000
0001
0000
1000
0000
0000
0000
0020
0000
,  // measure 66
0000
0200
0000
0000
0000
0000
0330
0000
;
