#VERSION:0.83;
#TITLE:As It Was;
#SUBTITLE:;
#ARTIST:Harry Styles;
#TITLETRANSLIT:;
#SUBTITLETRANSLIT:;
#ARTISTTRANSLIT:;
#GENRE:;
#ORIGIN:;
#CREDIT:;
#BANNER:As It Was-bn.png;
#BACKGROUND:As It Was-bg.png;
#PREVIEWVID:;
#JACKET:As It Was-jacket.png;
#CDIMAGE:;
#DISCIMAGE:;
#LYRICSPATH:;
#CDTITLE:;
#MUSIC:As It Was.ogg;
#OFFSET:0.000000;
#SAMPLESTART:33.103001;
#SAMPLELENGTH:20.000000;
#SELECTABLE:YES;
#DISPLAYBPM:174.000000;
#BPMS:0.000=174.000;
#STOPS:;
#DELAYS:;
#WARPS:;
#TIMESIGNATURES:0.000=4=4;
#TICKCOUNTS:0.000=4;
#COMBOS:0.000=1;
#SPEEDS:0.000=1.000=0.000=0;
#SCROLLS:0.000=1.000;
#FAKES:;
#LABELS:0.000=Song Start;
#BGCHANGES:;
#KEYSOUNDS:;
#ATTACKS:
;

//---------------dance-single - ----------------
#NOTEDATA:;
#CHARTNAME:;
#STEPSTYPE:dance-single;
#DESCRIPTION:;
#CHARTSTYLE:;
#DIFFICULTY:Hard;
#METER:12;
#RADARVALUES:0.584495,0.565057,0.359066,0.075593,0.070868,433.000000,395.000000,38.000000,8.000000,0.000000,0.000000,0.000000,0.000000,0.000000,0.584495,0.565057,0.359066,0.075593,0.070868,433.000000,395.000000,38.000000,8.000000,0.000000,0.000000,0.000000,0.000000,0.000000;
#CREDIT:;
#DISPLAYBPM:174.000000;
#NOTES:
0000
0000
0000
0000
,
0000
0000
0000
0000
,
0001
0010
0001
0100
0000
0010
0000
1000
,
0000
0100
0000
1000
0001
0000
0100
0000
,
0010
1000
0010
0100
0000
0001
0000
0010
,
0000
0100
0000
1000
0001
0000
0010
0000
,
0100
0010
0001
0100
0000
0010
0000
1000
,
0000
0100
0000
1000
0001
0000
0100
0000
,
0001
0000
0000
1000
0000
0000
0001
0000
0100
0000
0000
0000
0110
0000
0000
0000
,
0010
0000
0000
0000
0110
0000
0000
0000
1000
0000
0000
0001
0000
0000
1000
0000
,
0100
0000
0000
0010
0000
0000
0001
0000
1000
0000
0000
0000
1010
0000
0000
0000
,
0001
0000
0000
0000
0010
0000
0100
0000
1000
0000
0000
1000
0000
0000
0001
0000
,
0100
0000
0000
0010
0000
0000
0100
0000
0001
0000
0000
0010
0000
0000
0100
0000
,
1000
0000
0000
0000
1001
0000
0000
0000
0100
0000
0000
0100
0000
0000
0001
0000
,
1000
0000
0000
0100
0000
0000
0010
0000
0001
0000
0000
0000
0011
0000
0000
0000
,
1000
0000
0010
0100
0000
0100
0001
0000
,
1000
0000
0000
0001
0000
0000
1000
0000
0100
0000
0000
0000
0110
0000
0000
0000
,
0010
0000
0000
0000
0001
0000
1000
0000
0001
0000
0000
0100
0000
0000
0010
0000
,
1000
0000
0000
0100
0000
0000
0010
0000
0001
0000
0000
0000
0101
0000
0000
0000
,
1000
0000
0000
0000
1100
0000
0000
0000
0010
0000
0000
0010
0000
0000
0100
0000
,
0010
0000
0000
1000
0000
0000
0001
0000
1000
0000
0000
0000
0101
0000
0000
0000
,
0010
0000
0000
0000
0101
0000
0000
0000
0100
0000
0000
0010
0000
0000
1000
0000
,
0001
0000
0000
0010
0000
0000
0001
0000
1000
0000
0010
0000
0100
0000
0000
0000
,
0002
0000
0000
2003
0000
0000
3100
0000
,
1000
0010
0000
0100
0000
0001
1000
0000
,
0011
0000
0000
0101
0000
0000
1001
0000
,
0100
0010
1000
0000
0100
0010
0001
0000
,
1001
0000
0000
1010
0000
0000
1100
0000
,
0010
0001
0000
0001
1000
0010
0000
0010
,
0100
0001
0000
1000
0100
0010
0001
2000
,
0000
3010
1010
0101
,
1100
0000
0000
0002
0000
0000
1003
0000
,
0001
0100
0000
0010
1000
0100
1000
0001
,
0100
0000
0010
1000
0000
1000
0001
0000
,
1000
0100
0010
0100
0010
0001
1000
0010
,
0100
0000
0001
1000
0000
1000
0010
0000
,
1000
0001
0000
0001
0010
0100
0000
0100
,
1000
0010
0000
0100
0001
1000
0001
0020
,
0000
0130
0110
1001
,
0110
0000
1000
0002
0000
1003
0100
0000
,
1000
0010
0100
0001
0000
0010
0000
0001
,
0000
0100
0000
0010
1000
0001
1000
0000
,
0100
0010
0001
0100
0000
0010
0000
1000
,
0000
0100
0000
1000
0001
0010
0100
0000
,
1000
0001
0100
0001
0000
0010
0000
0100
,
0000
1000
0000
0010
1000
0100
0010
0002
,
0000
0103
0101
1100
,
0011
0000
1000
0001
1000
0000
0100
0000
,
1001
0000
0110
0000
1000
0010
0001
0000
,
1000
0100
0001
0000
0010
0001
0100
0000
,
0001
0010
0100
0010
0001
0100
0010
0100
,
0001
1000
0100
0010
0000
0001
0001
0000
,
0011
0000
1010
0000
0100
0001
1000
0000
,
1100
0000
0101
0000
0010
1000
0100
0000
,
1000
0001
0010
0001
1000
0001
0100
0001
,
1000
0100
0010
0001
0000
0100
0100
0000
,
0001
1000
0001
1000
0000
0100
0000
0100
,
0000
1001
0010
1000
0001
1000
0100
0000
,
1001
0000
0100
0001
0010
0000
0100
1000
,
0001
0000
1000
0010
1000
0001
0100
0000
,
0101
0000
0100
0001
0010
0000
0001
0100
,
1000
0000
0010
1000
0100
0010
0001
0000
,
0011
0000
1000
0001
1000
0000
0100
0010
,
0001
0000
0100
0010
1000
0000
0001
0100
,
0010
1000
0100
0000
1100
0000
0110
0000
,
0011
0000
1000
0001
1000
0010
0100
0000
,
0001
0010
0100
1000
0010
0100
0010
1000
,
0100
0010
0001
0100
0001
1000
0100
0000
,
0010
0001
1000
0001
0100
0010
1000
0100
,
0010
0100
1000
0001
0010
0100
1000
0000
,
0001
0100
0010
1000
0000
0100
0000
1000
,
0000
0001
0000
0100
0010
1000
0001
0000
,
1000
0100
1000
0001
0000
0001
0000
1000
,
0000
0001
0000
1000
0010
0000
0200
0000
,
0000
0000
0000
0300
;

//---------------dance-single - ----------------
#NOTEDATA:;
#CHARTNAME:;
#STEPSTYPE:dance-single;
#DESCRIPTION:;
#CHARTSTYLE:;
#DIFFICULTY:Medium;
#METER:10;
#RADARVALUES:0.454907,0.494425,0.434659,0.207881,0.070868,337.000000,291.000000,46.000000,22.000000,0.000000,0.000000,0.000000,0.000000,0.000000,0.454907,0.494425,0.434659,0.207881,0.070868,337.000000,291.000000,46.000000,22.000000,0.000000,0.000000,0.000000,0.000000,0.000000;
#CREDIT:;
#DISPLAYBPM:174.000000;
#NOTES:
0000
0000
0000
0000
,
0000
0000
0000
0000
,
0001
0010
0001
0100
,
0010
0000
1000
0001
0000
1000
0100
0000
,
0010
0001
0100
0010
,
1000
0000
0001
1000
0000
0100
0010
0000
,
0001
0100
0001
0010
,
0100
0000
1000
0001
0000
1000
0010
0000
,
1000
0000
0000
0100
0000
0000
1000
0000
0002
0000
0000
0000
0000
0000
0000
0000
,
0003
0000
0000
0000
0000
0000
0000
0000
0010
0000
0000
0001
0000
0000
1000
0000
,
0001
0000
0000
0100
0000
0000
0010
0000
2000
0000
0000
0000
0000
0000
0000
0000
,
3000
0000
0000
0000
0000
0000
0100
0000
1000
0000
0000
0001
0000
0000
0100
0000
,
0001
0000
0000
0010
0000
0000
0001
0000
1000
0000
0000
0010
0000
0000
0100
0000
,
0002
0000
0000
0000
0003
0000
0000
0000
1000
0000
0000
0100
0000
0000
1000
0000
,
0010
0000
0000
0100
0000
0000
0001
0000
2000
0000
0000
0000
0000
0000
0000
0000
,
3000
0000
0001
1000
0000
0001
0100
0000
,
0010
0000
0000
1000
0000
0000
0100
0000
0020
0000
0000
0000
0000
0000
0000
0000
,
0030
0000
0000
0000
0000
0000
0001
0000
0100
0000
0000
0010
0000
0000
0100
0000
,
0001
0000
0000
1000
0000
0000
0010
0000
0200
0000
0000
0000
0000
0000
0000
0000
,
0300
0000
0000
0000
0000
0000
0000
0000
0010
0000
0000
1000
0000
0000
0100
0000
,
0010
0000
0000
0010
0000
0000
0001
0000
2000
0000
0000
0000
0000
0000
0000
0000
,
3000
0000
0000
0000
0000
0000
0000
0000
0100
0000
0000
0010
0000
0000
0001
0000
,
1000
0000
0000
0001
0000
0000
1000
0000
0020
0000
0000
0000
0030
0000
0000
0000
,
2000
0000
0000
3002
0000
0000
0203
0000
,
0301
1000
0000
0020
0000
0000
0030
0000
,
1010
0000
0000
1001
0000
0000
0101
0000
,
1000
0100
1000
0001
,
0011
0000
0000
0110
0000
0000
1100
0000
,
0010
0001
0000
0000
1000
0010
0000
0000
,
1000
0001
0000
0100
0000
0000
0001
2000
,
0000
3010
0110
1001
,
0110
0000
0000
0200
0000
0000
0301
0000
,
1000
0001
0000
0000
0010
0100
0000
0000
,
1100
0000
0000
1001
0000
0000
0011
0000
,
0100
0010
1000
0001
,
0101
0000
0000
0110
0000
0000
1010
0000
,
0100
1000
0000
0000
0001
0100
0000
0000
,
0010
1000
0000
0001
0000
0000
1000
0020
,
0000
0130
1001
0110
,
1001
0000
0000
0002
0000
0000
1003
0000
,
0010
1000
0100
0010
,
0001
0000
1000
0000
0001
0100
0001
0000
,
0010
0001
0100
0010
,
1000
0000
0001
0000
1000
0100
1000
0000
,
0001
0010
0001
0100
,
0010
0000
1000
0000
0100
0010
0001
2000
,
0000
3001
0101
1100
,
0101
0000
0010
1000
0000
0010
0100
0000
,
0001
0100
0001
1000
,
0100
0010
0001
1000
,
0001
0100
0001
0000
1000
0100
1000
0000
,
0001
0100
0010
2000
0000
0000
3000
0000
,
0100
1000
0010
0100
,
0001
0010
0001
0100
,
0001
0010
0001
0000
1000
0010
1000
0000
,
0001
0010
0100
2000
0000
0000
3000
0000
,
0110
0000
0000
0000
,
0000
1001
0000
0000
1000
0001
0100
0000
,
0110
0001
0110
1000
,
1100
0010
0011
0100
,
1010
0001
1100
0010
,
0110
0000
0001
0000
1000
0100
1000
0000
,
0011
0100
1001
0010
,
1001
0000
0100
0000
1010
0000
0001
2000
,
0000
3100
1100
0110
,
0011
0000
0000
2000
0000
0000
3001
0000
,
0110
0010
1001
0001
,
0011
0000
1000
0000
0001
0100
0010
0000
,
1010
0100
0011
1000
,
1100
0000
0001
0000
0100
0010
1000
0000
,
1001
0010
1000
0001
,
1000
0100
1100
0101
,
1000
0010
1000
0001
0000
0001
0000
1000
,
0000
1000
0000
0001
0010
0000
0200
0000
,
0000
0000
0000
0300
;

//---------------dance-single - ----------------
#NOTEDATA:;
#CHARTNAME:;
#STEPSTYPE:dance-single;
#DESCRIPTION:;
#CHARTSTYLE:;
#DIFFICULTY:Easy;
#METER:6;
#RADARVALUES:0.283473,0.383280,0.207881,0.056695,0.000000,210.000000,188.000000,22.000000,6.000000,0.000000,0.000000,0.000000,0.000000,0.000000,0.283473,0.383280,0.207881,0.056695,0.000000,210.000000,188.000000,22.000000,6.000000,0.000000,0.000000,0.000000,0.000000,0.000000;
#CREDIT:;
#DISPLAYBPM:174.000000;
#NOTES:
0000
0000
0000
0000
,
0000
0000
0000
0000
,
0001
0010
0100
0100
,
1000
0000
0001
0000
,
1000
0010
0100
0100
,
0001
0000
0010
0000
,
0001
1000
0010
0010
,
0100
0000
0001
0000
,
1000
0100
2000
0000
,
3000
0000
0001
1000
,
0100
0010
0002
0000
,
0003
0000
0010
0001
,
0100
0100
0010
0010
,
1000
0000
0001
0000
,
0010
0001
0200
0000
,
0300
0000
0000
0000
,
0010
1000
0002
0000
,
0003
0000
0010
0001
,
1000
0010
0200
0000
,
0300
0000
0010
1000
,
0001
0100
0020
0000
,
0030
0000
0100
0001
,
0010
0100
1000
0000
,
1100
0000
0101
0000
,
1000
0000
0001
0000
,
0010
0000
0100
0000
,
1000
0000
1000
0000
,
0001
0000
0100
0000
,
0010
0000
1000
0000
,
0001
0000
0001
0000
,
0100
0100
0010
0010
,
1000
0000
0001
0000
,
0010
0000
0001
0000
,
0100
0000
0010
0000
,
1000
0000
0100
0000
,
1000
0000
0001
0000
,
0010
0000
0010
0000
,
0100
0000
0100
0000
,
1000
1000
0001
0001
,
1000
0000
0010
0000
,
1000
0100
1000
1000
,
0001
0000
0100
0000
,
0010
0100
0010
0010
,
1000
0000
0001
0000
,
0010
0001
1000
1000
,
0010
0000
0100
0000
,
0001
0001
1000
1000
,
0100
0000
0000
0000
,
1000
1000
0001
0001
,
1000
1000
0001
0001
,
0010
0001
0010
0100
,
1000
1000
1000
0000
,
0010
0010
0100
0100
,
0010
0010
0100
0100
,
0001
0100
0001
1000
,
0100
0100
0100
0000
,
0000
0000
0000
0000
,
0000
0000
0000
0000
,
1001
0000
1010
0000
,
1100
0000
0101
0000
,
1100
0000
0110
0000
,
0011
0000
1000
0001
,
1001
0000
0110
0000
,
1001
0000
0110
0000
,
0010
1000
0100
0010
,
0001
0000
1000
0000
,
0101
0000
0110
0000
,
1010
0000
0001
0010
,
0011
0000
1100
0000
,
1001
0000
0010
0100
,
0110
0000
1000
0000
,
0001
0000
1100
0101
,
1000
0010
1000
0001
,
0010
0010
0100
0100
;

//---------------dance-single - ----------------
#NOTEDATA:;
#CHARTNAME:;
#STEPSTYPE:dance-single;
#DESCRIPTION:;
#CHARTSTYLE:;
#DIFFICULTY:Beginner;
#METER:3;
#RADARVALUES:0.149836,0.278749,0.037796,0.037796,0.000000,111.000000,107.000000,4.000000,4.000000,0.000000,0.000000,0.000000,0.000000,0.000000,0.149836,0.278749,0.037796,0.037796,0.000000,111.000000,107.000000,4.000000,4.000000,0.000000,0.000000,0.000000,0.000000,0.000000;
#CREDIT:;
#DISPLAYBPM:174.000000;
#NOTES:
// measure 0
0000
0000
0000
0000
,  // measure 1
0000
0000
0000
0000
,  // measure 2
0002
0000
0000
0000
,  // measure 3
0003
0000
0000
0000
,  // measure 4
2000
0000
0000
0000
,  // measure 5
3000
0000
0000
0000
,  // measure 6
0020
0000
0000
0000
,  // measure 7
0030
0000
0000
0000
,  // measure 8
1000
0000
1000
0000
,  // measure 9
0000
0000
0001
0000
,  // measure 10
0100
0000
0100
0000
,  // measure 11
0000
0000
0010
0000
,  // measure 12
1000
0000
1000
0000
,  // measure 13
1000
0000
0001
0000
,  // measure 14
0010
0000
0100
0000
,  // measure 15
0000
0000
0000
0000
,  // measure 16
1000
0000
0001
0000
,  // measure 17
0000
0000
0010
0000
,  // measure 18
0010
0000
0001
0000
,  // measure 19
0000
0000
0100
0000
,  // measure 20
0010
0000
1000
0000
,  // measure 21
0000
0000
0100
0000
,  // measure 22
1000
0000
0010
0000
,  // measure 23
0200
0000
0000
0300
,  // measure 24
0000
0000
0000
0000
,  // measure 25
0001
0000
0001
0000
,  // measure 26
0001
0000
0000
0000
,  // measure 27
1000
0000
1000
0000
,  // measure 28
1000
0000
0000
0000
,  // measure 29
0000
0000
0000
0000
,  // measure 30
0010
0010
0010
0010
,  // measure 31
0010
0000
0100
0000
,  // measure 32
0001
0000
0000
0000
,  // measure 33
0010
0000
0010
0000
,  // measure 34
0010
0000
0000
0000
,  // measure 35
0100
0000
0100
0000
,  // measure 36
0100
0000
0000
0000
,  // measure 37
0000
0000
0000
0000
,  // measure 38
1000
1000
1000
1000
,  // measure 39
1000
0000
0001
0000
,  // measure 40
1001
0000
0000
0000
,  // measure 41
0000
0000
0010
0000
,  // measure 42
0110
0000
0000
0000
,  // measure 43
0000
0000
1000
0000
,  // measure 44
1001
0000
0000
0000
,  // measure 45
0000
0000
0000
0000
,  // measure 46
0001
0001
0001
0001
,  // measure 47
0001
0000
0000
0000
,  // measure 48
0100
0000
0100
0000
,  // measure 49
0010
0000
0010
0000
,  // measure 50
0100
0000
0010
0000
,  // measure 51
0100
0000
0000
0000
,  // measure 52
0001
0000
0001
0000
,  // measure 53
1000
0000
1000
0000
,  // measure 54
0001
0000
1000
0000
,  // measure 55
0001
0000
0000
0000
,  // measure 56
0110
0000
0000
0000
,  // measure 57
0000
0000
0000
0000
,  // measure 58
1000
0000
1000
0000
,  // measure 59
1000
0000
1000
0000
,  // measure 60
0001
0000
0001
0000
,  // measure 61
0001
0000
0001
0000
,  // measure 62
0100
0000
0100
0000
,  // measure 63
0100
0000
0100
0000
,  // measure 64
0010
0010
0010
0010
,  // measure 65
0010
0000
1000
0000
,  // measure 66
0100
0000
0100
0000
,  // measure 67
1000
0000
1000
0000
,  // measure 68
0001
0000
0001
0000
,  // measure 69
0100
0000
0100
0000
,  // measure 70
0010
0000
0000
0000
,  // measure 71
0000
0000
0000
0000
,  // measure 72
1000
0000
0000
0000
,  // measure 73
0000
0000
0100
0100
;
