#TITLE:apxn;
#ARTIST:Dormir;
#TITLETRANSLIT:Arche;
#BANNER:Arche-bn.png;
#BACKGROUND:Arche-bg.png;
#JACKET:Arche-jacket.png;
#MUSIC:Arche.ogg;
#SAMPLESTART:33;
#SAMPLELENGTH:20;
#DISPLAYBPM:120;
#BPMS:0=120;
#BGCHANGES:;

//---------------dance-single - ----------------
#NOTES:
     dance-single:
     :
     Beginner:
     4:
     :
0000
0000
0000
0000
,
0000
0000
0000
0000
,
0000
0000
1000
0000
,
0000
0001
0001
0001
,
0000
0000
0100
0100
,
0100
0000
0000
0010
,
0000
1000
0000
0000
0001
0000
0000
1000
,
0000
0000
0001
0000
0000
0100
0000
0000
,
0010
0000
0000
1000
,
0000
0001
0000
0000
0010
0000
0000
0001
,
0000
0000
0100
0000
0000
0010
0000
0000
,
1000
0000
0000
1000
0000
0000
0001
0000
,
0000
0001
0000
0000
0100
0000
0000
0010
,
0000
0100
0000
0000
,
1001
0000
0000
0000
0000
0110
0000
0000
,
0000
0000
1000
0000
0000
1000
0000
0000
,
0010
0000
0000
0100
0000
0000
0002
0000
,
0000
0000
0003
0000
1000
0000
0000
0010
,
0000
0200
0000
0300
,
0001
0000
0000
1000
0000
0000
0002
0000
,
0000
0000
0003
0000
0010
0000
0000
0100
,
0000
2000
0000
3000
,
0010
0000
0000
1000
0000
0000
0002
0000
,
0000
0000
0003
0000
1000
0000
0000
0100
,
0000
0000
0010
0000
0000
0010
0000
0000
,
0001
0000
0000
0100
0000
0000
1000
0000
,
0000
1000
0000
0000
1000
0000
0000
0000
,
0000
0000
0100
0000
0000
0100
0000
0000
,
0100
0000
0000
0010
,
0000
0010
0000
0000
0010
0000
0000
0000
,
0000
0000
0001
0000
0000
0001
0000
0000
,
0001
0000
0000
1000
,
0000
0000
0001
0000
,
0000
0100
0000
0000
,
0010
0000
0000
0110
,
0000
0110
0000
0000
1001
0000
0000
1001
,
0000
0000
0110
0000
0000
1001
0000
0000
,
0110
0000
0000
1001
0000
0000
0000
0000
,
0000
0001
0000
0000
0001
0000
0000
0001
,
0000
0000
0001
0000
0000
1000
0000
0000
,
1000
0000
0000
1000
0000
0000
1000
0000
,
0000
0010
0000
0000
0010
0000
0000
0010
,
0000
0000
0010
0000
0000
0100
0000
0000
,
0100
0000
0000
0100
0000
0000
0100
0000
,
0000
0001
0000
0000
0000
0000
0000
0000
,
0000
0000
0000
0000
0000
1000
0000
0000
,
0000
0000
0000
0001
0000
0000
0100
0000
,
0000
0000
1001
0000
0000
1001
0000
0000
,
1001
0000
0000
0110
,
0000
0110
0000
0000
0110
0000
0000
0000
,
0000
1000
0000
0000
0000
0000
0000
0100
,
0000
0000
0000
0000
0000
0001
0000
0000
,
1000
0000
0000
0001
0000
0000
1000
0000
,
0000
0010
0000
0000
0000
0000
0100
0000
,
0000
0000
0000
0002
0000
0000
0000
0000
,
0000
0000
0000
0003
,
0000
0000
0100
0000
0000
0000
0000
0000
0000
0000
0000
0000
;

//---------------dance-single - ----------------
#NOTES:
     dance-single:
     :
     Easy:
     8:
     :
0000
0000
0000
0000
,
0000
0000
0000
0000
,
0000
0000
2000
3000
,
0010
0100
0001
0020
,
0030
0001
0100
1000
,
0001
0000
0000
1000
0000
0000
0010
0000
,
1000
0100
0000
0010
0001
0000
0100
0001
,
0000
1000
0010
0000
1000
0001
0100
0010
,
1000
0000
0000
0100
0000
0000
0010
0000
,
0001
1000
0000
0001
0010
0000
0100
1000
,
0000
0010
0100
0000
0010
1000
0001
1000
,
1100
0000
0000
0101
0000
0000
1010
0000
,
0000
0011
0000
0000
1000
0100
0010
0001
,
0100
0010
2000
0000
0000
0000
3000
0000
,
0110
0000
1000
0001
0000
1001
0000
0100
,
0010
0000
1010
0000
0000
0101
0000
0000
,
0011
0000
0000
1000
0100
0001
0020
0000
,
0000
0000
0000
0030
0002
0000
0003
2000
,
0000
3010
0200
0000
0000
0301
0010
0100
,
2000
0000
0000
3002
0000
0013
0002
0000
,
0000
0000
0000
0003
1000
0010
1000
0100
,
0010
0001
1001
0000
0000
0010
0000
0000
,
1000
0000
0000
0100
1000
0010
0001
0000
,
0100
0010
0000
0000
1000
0000
0000
0001
,
0000
0010
0200
0000
0300
2000
0000
3000
,
0002
0000
0003
0200
0000
0300
0110
0000
,
0000
0110
0000
0000
1000
0100
0000
0001
,
0100
0000
1001
0000
0000
1001
0000
0000
,
0010
1000
0000
0010
0001
0000
0011
0000
,
0000
1100
0000
0000
0001
1000
0000
0010
,
0100
0000
0101
0000
0000
1010
0000
0000
,
1000
0001
0000
0100
0010
0000
1000
0000
,
0100
1000
0010
0000
0100
0001
0010
0001
,
1000
0000
0001
0000
0010
0001
1000
0000
,
0010
1000
0100
1000
0001
0000
0011
0000
,
0000
1000
0100
1000
1010
0000
0000
0101
,
0000
0000
1100
0000
0001
0100
0010
1000
,
1001
0000
0000
0110
0000
0000
0200
0000
,
0300
0002
0000
0003
2000
0000
3000
0010
,
1000
0000
0100
0001
0000
0020
0000
0030
,
0200
0000
0300
1000
0010
0000
0001
1000
,
0000
0002
0000
0003
0200
0000
0300
0010
,
1000
0100
0010
0001
1000
0020
0000
0030
,
2000
0000
3000
0001
0010
0100
1000
0001
,
0100
0010
0000
0000
1000
0000
0000
0100
,
0000
0000
0001
0000
0000
1000
0000
0000
,
0001
0000
0000
0200
0000
0300
0020
0000
,
0030
0000
1010
0000
0000
0101
0000
0000
,
1100
0000
0001
1000
0001
0000
0011
0000
,
0000
1001
0000
0000
0110
0000
1000
0001
,
0100
0010
0000
0000
0010
0000
0000
0100
,
0000
0000
0001
0000
0000
0001
0000
1000
,
0000
0001
0000
0200
0000
0300
0020
0000
,
0030
1000
0000
1000
0001
0000
0100
0000
,
0100
0010
0000
2000
0000
0000
0000
0000
,
0000
0000
0000
3000
,
0000
0000
0100
0000
0000
0000
0000
0000
0000
0000
0000
0000
;

//---------------dance-single - ----------------
#NOTES:
     dance-single:
     :
     Medium:
     12:
     :
0000
0000
0000
0000
,
0000
0000
0000
0000
,
0000
0000
0000
0000
2000
0002
3003
0100
,
0010
0010
1000
0100
0001
0000
0020
0200
,
0330
1000
0001
0001
0010
0100
1000
0000
,
0002
0000
0013
2000
0000
3100
0010
0001
,
0100
0010
1000
0001
1000
0100
0010
0100
,
0010
0001
0100
0001
0010
1000
0100
1000
,
0020
0000
1030
0200
0000
0301
1000
0001
,
0010
0100
0010
0001
0100
0001
0010
0001
,
0100
0010
1000
0001
1000
0100
0010
0001
,
0011
0010
0100
1100
0000
0000
1010
0010
,
0100
0101
0000
0000
0001
0010
0001
0100
,
0010
1000
0001
0100
0010
0100
0001
1000
,
1001
0000
0010
1000
0100
0110
0000
0010
,
0001
0100
2000
0010
3010
0200
0001
0301
,
0020
0100
0130
0002
1000
1003
1001
0010
,
1000
0100
0010
0001
2000
0001
3001
0200
,
0001
0301
0010
0100
1000
0010
1000
0010
,
0002
0100
0103
0020
0100
0130
0001
0010
,
0001
0100
0010
1000
0100
0010
0100
1000
,
0010
0001
0110
1000
0010
1000
0100
0001
,
0020
0001
0031
1000
0100
0001
0200
0010
,
0010
0001
0010
0301
2000
0100
3100
0002
,
1000
0103
0010
1000
0001
1000
0100
0010
,
0100
0010
0001
0100
0010
1000
1100
0000
,
0001
0101
0000
0100
1000
0010
0001
1000
,
0100
0010
0011
0000
1000
1010
0000
0100
,
0001
0010
0100
0010
0001
1000
1001
0000
,
0001
0011
0000
1000
0010
1000
0100
0001
,
0010
0100
1100
0000
0010
0110
0000
1000
,
0001
0010
1000
0001
1000
0100
0010
0001
,
0100
0001
0010
0100
1000
0010
1000
0001
,
0001
0000
0010
0001
0010
0100
1000
0010
,
1000
0001
1000
0100
0100
0000
1010
0001
,
1000
0101
0010
0100
0110
1000
0001
0011
,
0010
0100
1100
0001
1000
0101
0010
0100
,
1010
0010
0100
1001
0010
1000
0100
0100
,
0100
2100
0000
3001
1002
0000
0013
0001
,
0100
1000
0010
1000
0001
0201
0000
0310
,
0120
0000
1030
0010
1000
0100
0001
0010
,
0100
2000
0001
3001
0020
0001
0031
0200
,
0010
0310
0002
0010
0013
0200
0010
0301
,
2000
0100
3010
0002
1000
0103
0020
1000
,
0031
1000
0100
1000
0100
0010
0001
0200
,
0000
0010
0020
0000
0330
1000
0100
1000
,
0001
0010
0100
2000
0000
0000
0001
0001
,
3001
0010
1001
0000
0100
1010
0000
0001
,
1100
0000
0001
1000
0100
0010
0110
0000
,
0001
0011
0000
0100
0101
0000
1000
0100
,
0001
2000
0010
3010
0200
0001
0301
1000
,
0100
0001
0010
0100
1000
0001
0010
0100
,
1000
0100
0010
0002
0000
0100
2000
0000
,
3003
1001
0010
1000
0100
0001
0110
0001
,
0010
0100
1000
0002
0000
0000
0000
0000
,
0000
0000
0000
0000
0000
0000
0000
0000
0000
0000
0000
0000
0000
0000
0000
0000
0000
0000
0003
0000
0000
0000
0000
0010
,
0000
0000
0100
0000
0000
0000
0000
0000
0000
0000
0000
0000
;

//---------------dance-single - ----------------
#NOTES:
     dance-single:
     :
     Hard:
     16:
     :
0000
0000
0000
0000
,
0000
0000
0000
0000
,
0000
0000
0000
0000
2000
0002
3003
0100
,
0010
0000
0000
0010
0000
0000
1000
0000
0100
1000
0000
0000
0001
0000
0000
0000
0000
0000
0020
0000
0000
0200
0000
0000
,
0330
0000
0000
1000
0000
0000
0001
0000
0000
0001
0000
0000
0100
0000
0010
0100
0000
0000
0001
0000
0000
1000
0100
0010
,
0002
0100
0103
0020
1000
1030
0001
0100
,
1000
0000
0000
0010
0000
0000
1000
0000
0000
0100
0000
0000
0010
0000
0001
0010
0000
0100
1000
0000
0000
0001
0000
0100
,
0001
0000
1000
0010
0000
0000
1000
0000
0100
0010
0000
0001
0010
0000
0000
0100
0000
1000
0010
0000
1000
0001
0000
0000
,
0200
0010
0310
2000
0001
3001
0010
0001
,
0100
0000
0000
1000
0000
0000
0001
0000
0000
0100
0000
0000
0001
0000
0010
0001
0000
1000
0100
0000
0000
0010
0000
0100
,
0010
0000
0001
1000
0000
0000
0001
0000
0100
0010
0000
1000
0001
0000
0000
1000
0000
0010
1000
0100
0010
0001
0000
0000
,
0102
1000
0103
2010
0001
3100
1200
0001
,
1300
0000
0000
0021
0000
0000
1000
0000
0000
0130
0000
0000
0001
0000
0010
0001
0000
0010
0100
0000
1000
0100
0000
1000
,
0010
0000
0100
0001
0000
0000
1000
0000
0010
0100
0000
0010
1000
0000
0000
0001
0000
0010
0001
1000
0010
0100
0000
0000
,
0110
0000
0000
0000
0000
0000
0010
0000
0000
0000
0000
0000
1000
0000
0000
0001
0000
0000
0100
0000
0000
0000
0000
0000
0010
0000
0000
0000
0000
0000
1001
0000
0000
0000
0000
0000
1000
0000
0000
0000
0001
0000
0100
0000
0000
0000
0010
0000
,
1000
0000
0000
0001
0000
0000
0011
0000
0001
0000
0000
1000
0001
0000
0000
1010
0000
0010
0000
0000
0100
0001
0000
0000
,
0101
0000
0000
0000
0001
0000
0000
0000
0000
0000
1000
0000
0100
0000
0000
0000
0000
0000
1100
0000
0000
0000
1000
0000
0010
0000
0000
0000
1000
0000
0001
0000
0000
0000
0000
0000
0100
0000
0000
0000
0000
0000
0010
0000
0000
1000
0000
0000
,
0010
0100
0001
0000
0011
0000
1100
0000
0001
0000
0100
0010
0100
0001
0010
0100
,
1000
0010
0001
0000
1000
0000
0010
0100
0010
1000
0100
0010
0100
0001
0100
1000
,
0001
0000
0010
0100
1000
0001
0100
0000
0001
0010
0001
1000
0100
0000
0010
0001
,
0010
0100
1000
0010
1000
0001
0100
0000
0001
0010
0001
0100
0010
1000
0001
0100
,
0010
1000
0001
0000
1001
0000
0010
1000
0010
0100
0001
0000
0010
0100
1000
0000
,
0001
0100
0010
0100
0001
0010
2000
0000
3200
0000
0320
0000
0032
0000
1003
0001
,
0010
0100
1000
0000
0010
0100
0001
0000
1000
0100
0010
0100
0010
0100
0001
0100
,
1000
0100
1000
0010
0100
0001
0100
0001
0100
0010
1000
0001
0010
0001
1000
0100
,
0010
0000
0000
0001
0000
0000
0010
0000
0000
0100
0000
0000
1000
0000
0000
0001
0000
0000
0100
0000
0000
0010
0000
0000
1000
0000
0100
0000
0010
0000
0001
0000
0010
0000
0100
0000
2000
0000
0000
0000
0000
0000
3001
0000
0000
0000
0100
0000
,
0001
0000
0010
0200
0000
0000
1300
0000
0010
1000
0000
0001
0100
0000
0010
0100
0000
0100
0001
0000
0000
1000
0000
0001
,
1000
0000
1000
0100
0000
0000
0020
0000
0000
0031
0000
0100
0010
0000
1000
0002
0000
0000
1003
0000
0100
0010
0000
0001
,
0100
0000
0100
0010
0000
0010
1000
0000
0000
1100
0000
0000
0110
0000
0000
0011
0000
0000
2000
0000
0000
3001
0000
0010
,
0001
0000
1000
0020
0000
0000
0130
0000
0010
0100
0000
0001
1000
0000
1000
0100
0000
0100
0010
0000
0000
0001
0000
1000
,
0001
0000
1000
0100
0000
0000
0002
0000
0000
0103
0000
0100
1000
0000
0010
0200
0000
0000
0301
0000
0010
0001
0000
1000
,
0010
0000
0000
0000
0010
0000
1000
0000
0000
0000
0001
0000
0010
0000
0000
0000
0000
0000
0100
0000
0000
0000
0000
0000
1000
0000
0001
0000
1000
0000
0001
0000
0000
0000
0000
0000
0010
0000
0000
0001
0000
0000
0010
0000
0000
0100
0000
0000
,
1000
0000
0000
0001
0000
0000
1000
0000
0000
0010
0000
0000
0100
0000
0001
0010
0000
0001
1000
0000
0000
0010
0000
0000
,
1000
0000
1000
0001
0000
0000
1000
0000
0010
1000
0000
0100
0001
0000
0000
0010
0000
0000
0100
0000
0000
1000
0000
0000
,
0001
0000
0001
1000
0000
1000
0100
0000
0000
0010
0000
0000
0001
0000
0010
0001
1000
0100
0010
0000
0000
0001
0000
0100
,
0001
0000
0000
0000
1000
0000
0010
0000
0000
0000
0000
0000
1000
0000
0000
0000
0100
0000
1000
0000
0001
0000
0100
0000
0010
0000
0000
0000
0000
0000
1000
0000
0000
0000
1000
0000
0100
0000
0000
0010
0000
0000
0001
0000
0000
0000
0000
0000
,
0100
0000
0001
1000
0100
0010
0001
0000
0000
0100
0000
0001
1000
0010
0100
0010
0000
0000
1000
0000
0100
1000
0001
0010
,
0100
0000
1000
0010
0000
1000
0001
0000
0100
0010
0000
0100
0001
0010
0100
1000
0010
0100
0001
1000
0001
1000
0001
1000
,
0001
0000
0100
0020
0000
0000
1030
0000
0100
0001
0000
0000
2000
0000
0000
3010
0000
0100
0001
0000
0000
0100
0000
0001
,
0010
0000
0100
1000
0000
0001
1000
0000
0010
1000
0000
0001
0100
0000
0000
0001
0000
0010
0001
0000
1000
0100
0000
0000
,
1000
0000
0001
1000
0000
0100
0010
0000
0000
0001
0000
0001
1000
0000
1000
0001
0000
0001
0010
0000
0100
0010
0000
0100
,
1000
0000
0000
1002
0000
0000
0013
0000
1000
0100
0000
1000
0200
0000
0000
0310
0000
0001
1000
0000
0001
0100
0000
0010
,
1000
0000
0001
0100
0000
0000
0010
0000
1000
0100
0000
1000
0001
0000
0000
0110
0000
0000
1000
0000
0010
1000
0000
0001
,
0100
0000
0001
0010
0000
0001
1000
0000
0100
1000
0000
1000
0010
0000
0100
0001
0000
0000
0010
0000
0010
0001
0100
0010
,
1000
0000
0001
0000
1000
0000
0100
0000
0000
0010
0000
0000
0100
0000
0000
1000
0000
0000
0001
0000
0000
0000
0000
0000
0010
0000
0000
0000
0000
0000
0001
0000
0000
0000
0000
0000
0100
0000
0000
0000
0000
0000
0001
0000
0000
0000
0000
0000
,
0010
1000
0100
0010
0001
1000
0001
1000
,
0010
0000
0000
0001
0000
0000
0100
0000
0000
0010
0000
0000
1000
0000
0000
0001
0000
0000
1000
0000
0100
1000
0000
0100
,
1000
0000
0100
0010
0000
0000
0011
0000
0000
1100
0000
0000
0010
0000
0000
0101
0000
0000
1010
0000
0000
0001
0000
1000
,
0001
0000
0010
0100
0000
0000
1000
0000
0000
0100
0000
0000
0001
0000
0000
0010
0000
0000
0101
0000
0000
1100
0000
0000
,
0001
0000
0000
0011
0000
0000
1010
0000
0000
1000
0000
0100
1000
0000
0001
0010
0000
0000
0100
0000
0010
0001
1000
0010
,
0100
0001
0010
1000
0100
1000
0010
0001
,
1000
0000
0000
0010
0000
0000
0100
0000
0000
0001
0000
0000
1000
0000
0000
0001
0010
0100
1000
0100
0010
0001
0010
0100
,
1000
0100
0010
0001
0010
0100
1000
0100
0010
0001
0000
0100
0010
0000
0100
0010
1000
0001
0100
0000
0010
1000
0001
1000
,
0001
1000
0001
0100
0000
0000
0010
0000
0000
1000
0000
0000
1100
0000
0000
0101
0000
0000
0010
0000
0000
1000
0000
0000
,
0001
0000
0000
0010
0001
1000
0010
0100
0002
2000
0000
0000
0000
0000
0000
0000
0000
0000
0000
0000
0000
0000
0000
0000
,
0000
0000
0000
0000
0000
0000
0000
0000
0000
0000
0000
0000
0000
0000
0000
0000
0000
0000
0000
3003
0000
0000
0000
0010
,
0000
0000
0100
0000
0000
0000
0000
0000
0000
0000
0000
0000
;
