#VERSION:0.83;
#TITLE:Arcanos;
#SUBTITLE:;
#ARTIST:DJ Totoriott;
#TITLETRANSLIT:;
#SUBTITLETRANSLIT:;
#ARTISTTRANSLIT:;
#GENRE:;
#ORIGIN:;
#CREDIT:;
#BANNER:Arcanos-bn.png;
#BACKGROUND:Arcanos-bg.png;
#PREVIEWVID:;
#JACKET:Arcanos-jacket.png;
#CDIMAGE:;
#DISCIMAGE:;
#LYRICSPATH:;
#CDTITLE:;
#MUSIC:Arcanos.ogg;
#OFFSET:0.625000;
#SAMPLESTART:62.812000;
#SAMPLELENGTH:20.000000;
#SELECTABLE:YES;
#DISPLAYBPM:192.000000;
#BPMS:0.000=192.000;
#STOPS:197.000=0.937;
#DELAYS:;
#WARPS:;
#TIMESIGNATURES:0.000=3=4;
#TICKCOUNTS:0.000=4;
#COMBOS:0.000=1;
#SPEEDS:0.000=1.000=0.000=0;
#SCROLLS:0.000=1.000;
#FAKES:;
#LABELS:0.000=Song Start;
#BGCHANGES:;
#KEYSOUNDS:;
#ATTACKS:
;

//---------------dance-single - ----------------
#NOTEDATA:;
#CHARTNAME:;
#STEPSTYPE:dance-single;
#DESCRIPTION:;
#CHARTSTYLE:;
#DIFFICULTY:Hard;
#METER:15;
#RADARVALUES:0.819716,0.938205,0.670794,0.380721,0.231152,633.000000,559.000000,74.000000,42.000000,0.000000,0.000000,0.000000,0.000000,0.000000,0.819716,0.938205,0.670794,0.380721,0.231152,633.000000,559.000000,74.000000,42.000000,0.000000,0.000000,0.000000,0.000000,0.000000;
#CREDIT:;
#DISPLAYBPM:192.000000;
#NOTES:
0000
0000
0000
0000
,
0000
0000
0000
0000
,
0000
0000
0000
0000
,
0000
0000
0000
0000
,
0000
0000
0000
0000
,
0000
0000
0000
0000
,
0000
0000
0000
0000
,
0000
0000
1000
0100
0002
0000
0013
0100
,
1000
0001
0110
0000
2000
0000
3002
0000
,
0023
0000
0000
0000
0031
0000
0100
0000
0010
0000
1000
0001
2000
0000
0000
0000
,
3100
1000
0001
0100
0020
0000
1030
0001
,
0010
0000
0001
0100
0002
0000
0000
0000
1000
0000
0000
0000
0103
0000
1000
0010
,
2000
0000
3001
1000
0010
0100
0101
0000
,
1100
0000
1000
0001
0100
0000
0001
1000
,
0001
0000
0000
0010
0000
0000
0001
0000
0100
0000
0010
0000
1000
0000
0000
0000
0000
0000
0100
0000
0000
1000
0000
0000
,
0002
0000
0000
0000
0003
0000
0010
0100
1000
0000
0001
0000
0200
0000
0000
0000
,
0310
0000
1000
0001
0010
0000
0001
1000
,
0010
0000
0000
0100
0000
0000
0001
0000
1000
0000
0100
0000
0010
0000
0000
0000
0000
0000
0001
0000
0000
0100
0000
0000
,
0002
0000
0013
0100
1000
0000
1001
0000
,
0110
0000
1000
0001
0101
0000
0010
1000
,
0100
0000
0000
0010
0000
0000
0001
0000
1000
0000
0010
0000
0100
0000
0000
0000
0000
0000
0001
0000
0000
0100
0000
0000
,
0020
0000
0000
0000
0030
0000
1000
0001
0010
0000
0001
0000
0100
0000
0000
0000
,
0010
0100
0010
1000
0002
0000
0013
0001
,
0100
0000
1010
0000
0000
1000
0100
1000
,
0001
0000
0100
0010
0100
0000
0001
0000
1000
0000
0100
0000
0020
0000
0001
0000
,
0031
0000
1000
0001
1001
0000
1000
0100
,
0001
0000
0100
0000
1000
0000
0010
0100
0001
0000
1000
0000
0001
0000
0010
0000
,
0100
0000
1000
0010
0001
0010
1000
0100
,
0010
0000
0001
1000
0001
0000
0100
0010
,
1000
0000
0001
0000
0010
0000
0100
1000
0001
0000
0100
0000
1000
0000
0100
0000
,
0001
0000
0010
0001
1000
0010
0001
0010
,
1000
0000
0100
0010
0001
0000
1000
0010
,
0100
0000
0001
0000
0010
0000
0001
1000
0010
0000
0100
0000
0001
0000
1000
0000
,
0100
0000
0000
0000
1000
0000
0001
0000
0010
0100
0010
0001
1000
0000
0000
0000
,
0010
0100
0001
1000
0200
0000
1300
0001
,
0100
0001
0010
1000
0010
0100
0010
0001
,
2000
0000
3001
0100
0010
1000
0100
1000
,
0001
0100
0010
0100
0001
0000
1000
0000
1100
0000
1100
0000
0000
0000
0011
0000
,
0011
0000
1000
0010
0001
1000
0100
0001
,
1010
1010
0000
0101
0101
0000
0001
0010
,
1000
0001
0100
1000
0101
0101
0000
1100
,
1100
0000
1000
0100
0001
1000
0010
0001
,
1010
1010
0000
0011
0011
0000
0001
0100
,
1000
0001
0010
1000
0110
0110
0000
1001
,
1001
0000
0010
1000
0100
0010
0001
0100
,
1001
1001
0000
0110
0110
0000
1000
0100
,
0010
1000
0100
0010
0011
0011
0000
0101
,
0101
0000
0010
1000
0001
0010
1000
0001
,
1010
0000
1010
0000
0000
0000
1100
0000
1100
0000
1000
0001
0100
0000
0000
0000
,
0110
1001
0000
0020
,
1030
0000
0001
0000
0200
0000
0000
0000
0300
0000
0001
0000
1000
0100
0010
0100
,
2000
0000
0000
0001
3001
1000
0020
0000
,
0030
0000
0100
0001
1000
0000
0001
0000
0020
0000
0001
0000
0031
0000
1000
0000
,
0001
0000
0100
0000
0002
0000
0000
0000
0003
0000
0010
0000
0001
1000
0010
1000
,
0100
0000
0001
0000
0100
0000
1000
0010
1000
0000
0001
0000
0200
0000
0000
0000
,
0301
0000
0010
0000
1000
0000
0100
0010
0002
0000
0100
0000
0103
0000
0000
0000
,
0001
1000
0010
0100
0002
0000
0010
0000
0000
0000
1000
0000
1003
0001
0100
0010
,
2000
0100
0000
0001
3001
1000
0020
0000
,
0130
0000
0001
1000
0001
0000
0010
0000
0200
0000
1000
0000
1300
0000
0002
0000
,
1000
0000
1003
0000
0020
0000
0000
0000
0030
0000
0100
0000
0001
0010
0001
1000
,
0200
0320
0032
2003
,
3001
0001
1000
1000
0001
0100
1000
0100
,
0001
0000
0000
0000
0022
0000
0000
0000
0003
0000
0001
0000
0031
0100
0010
1000
,
0001
0100
0010
0100
0001
1000
0100
0001
,
0100
1000
0010
0100
1000
0100
0001
0100
,
0010
0000
1000
0001
1000
0000
0100
0000
1000
0000
0010
0000
0100
0000
0001
0000
,
0010
1000
0010
0100
0010
0001
1000
0001
,
1000
0000
0010
0000
0100
0000
0001
0010
0100
0000
0000
0000
1001
0000
0000
0000
,
1010
0000
0001
0000
0101
0000
0100
0010
1000
0000
0001
0000
1000
0100
0010
0001
,
0100
0010
1000
0100
0001
0100
1000
0010
,
0100
0000
0001
0000
0010
0000
1000
0000
0010
0000
0001
0000
0100
0000
0001
1000
,
0010
0000
1000
0000
0220
0000
0000
0000
0330
0000
1000
0001
1000
0000
0010
0000
,
2002
0000
0000
0000
3003
0000
0001
0100
0001
0000
1000
0000
0100
0000
0100
0000
,
0010
0000
0001
1000
0001
0000
0100
0000
0101
0000
0000
0000
1010
0000
0000
0000
,
1100
0000
0011
0011
0000
1010
1010
0000
,
1001
0100
0001
0010
1000
0100
0110
0110
,
0000
1001
1001
0000
0110
0001
0010
1000
,
0100
0001
0101
0101
0000
1100
1100
0000
,
1010
1000
0100
0001
0010
0100
1100
1100
,
0000
0000
0011
0000
0011
0000
0000
0000
1001
0000
0100
0000
0001
0010
0100
1000
,
0010
1000
0001
0100
0020
0000
0100
0000
0000
0000
0000
0000
0000
0000
0000
0000
,
1030
0000
0000
0000
1000
0000
0100
0000
0000
0000
0100
0010
0001
0000
0000
0000
,
0010
0000
1000
0000
0110
0000
0001
0100
,
0010
0000
1000
0100
0002
0000
0000
0000
0013
0000
0100
0000
1000
0000
0000
0000
,
1010
0000
0001
0101
0000
1000
0010
0000
,
1000
0100
0001
0010
0100
0000
1000
0000
,
0001
0100
0010
0000
0000
0000
0000
0000
;

//---------------dance-single - ----------------
#NOTEDATA:;
#CHARTNAME:;
#STEPSTYPE:dance-single;
#DESCRIPTION:;
#CHARTSTYLE:;
#DIFFICULTY:Medium;
#METER:12;
#RADARVALUES:0.565902,0.625470,0.416980,0.507628,0.000000,437.000000,391.000000,46.000000,56.000000,0.000000,0.000000,0.000000,0.000000,0.000000,0.565902,0.625470,0.416980,0.507628,0.000000,437.000000,391.000000,46.000000,56.000000,0.000000,0.000000,0.000000,0.000000,0.000000;
#CREDIT:;
#DISPLAYBPM:192.000000;
#NOTES:
0000
0000
0000
0000
,
0000
0000
0000
0000
,
0000
0000
0000
0000
,
0000
0000
0000
0000
,
0000
0000
0000
0000
,
0000
0000
0000
0000
,
0000
0000
0000
0000
,
0000
0000
1000
0001
0200
0000
0000
0000
,
0000
0310
1000
0100
,
0002
0000
0013
0001
0010
0100
2000
0000
,
3002
0000
2003
0000
3020
0000
1030
0100
,
1000
0001
0200
0000
0320
0000
2030
0000
,
3002
0000
0013
0001
0100
0010
1000
0000
,
1000
0000
0001
1000
0002
0000
0003
0010
,
0001
1000
0010
0000
0010
0000
0100
0001
,
2000
0000
3000
1000
0100
0010
0001
0000
,
1000
0000
0001
0100
0010
0000
1000
0001
,
1000
0000
1100
0000
0101
0000
0010
1000
,
0200
0000
1300
0002
,
0000
0000
0013
0100
1000
0000
1000
0010
,
0100
0000
0001
0010
1000
0000
0100
0010
,
0002
0000
0003
0001
1000
0010
0100
0000
,
0010
1000
0010
1000
0200
0000
0000
0000
,
0310
0000
0001
0000
0000
0001
1000
0100
,
2000
0000
3020
0000
1030
0100
0002
0000
,
0000
0000
0013
0001
0100
0000
0100
0000
,
0010
0000
1000
0100
0001
0100
1000
0010
,
0200
0000
0300
0001
1000
0001
0010
0000
,
0001
0000
1000
0001
0100
0000
0010
1000
,
0100
0000
0110
0000
1001
0000
0010
0100
,
0002
0010
1003
2000
,
0100
0000
3001
1000
0001
0000
0010
0001
,
0100
0000
1010
0000
0011
0000
0100
1000
,
0001
0000
0001
0000
0100
0010
1000
0000
,
0001
0100
0001
0100
0002
0000
0003
1000
,
0001
0000
1010
0000
0101
0000
0010
1000
,
0200
0000
0300
1000
0001
0100
0002
0000
,
0023
0000
0230
0000
1300
0001
0000
1000
,
0001
0011
1100
0101
,
1000
0010
0000
1000
0010
0000
0110
0000
,
1001
0000
0110
0000
0100
0001
0000
0100
,
0001
1001
1010
1100
,
0010
0001
0000
0010
0001
0000
0101
0000
,
1010
0000
0101
0000
0001
1000
0000
0100
,
0010
0011
0110
1100
,
0010
1000
0000
0001
0100
0000
0101
0000
,
1100
0000
0101
0000
0010
0100
0000
0001
,
1000
1001
0011
1100
,
0010
0001
0000
1000
0100
0000
1001
0000
,
0110
1001
0000
0000
,
2000
0000
3002
0000
0003
0010
0001
1000
,
0002
0000
0103
0200
,
0300
0010
1000
0010
2000
0000
3000
0001
,
1000
0100
0020
0000
0030
0001
1000
0001
,
0100
0000
0020
0000
1030
0001
0020
0000
,
0000
0000
0030
0001
2000
0000
0000
0000
,
3001
1000
0200
0000
0300
1000
0100
0010
,
0002
0000
1003
0002
,
0000
0000
0013
0001
0200
0000
0300
0020
,
0000
1030
0002
0000
0003
1000
0100
1000
,
0200
2300
3002
0203
,
0301
1000
0001
1000
0001
0000
0011
0000
,
1100
0000
0202
0000
0303
1000
0001
1000
,
0200
0001
1300
0010
,
1000
0001
1000
0100
0010
0000
0001
0000
,
0100
0010
1000
0000
0100
1000
0010
0100
,
0001
0000
1001
0000
0010
1000
0200
0000
,
0010
0000
0301
0100
1000
0000
0110
0000
,
0001
0100
2000
0000
3010
1000
0001
1000
,
0200
0001
1300
1010
,
0010
1000
0001
0100
0001
0010
0100
1000
,
0010
0100
0002
0000
0003
1000
0001
1000
,
0020
0000
0030
0100
0001
1000
0200
0000
,
0300
1000
0010
0100
0001
0000
1001
0000
,
0110
0000
1000
0010
0000
0100
0001
0000
,
0010
0001
0100
0010
1000
0000
0100
0010
,
0000
0100
1000
0000
0001
1000
0010
1000
,
0100
0000
0010
0001
0000
1000
0010
0000
,
1000
0001
0100
0001
0010
0000
0100
0010
,
0000
0001
1000
0000
0010
1000
0100
0010
,
0001
1000
0002
0000
0000
0000
0000
0000
,
0010
0000
0000
1000
0000
0000
0103
0000
,
0010
1000
1100
0000
,
0001
0100
1000
0000
0000
0010
0100
0000
,
0110
0000
0000
1001
0000
0100
0001
0000
,
0000
1000
0001
0000
1010
0000
0101
0000
,
1100
0010
0000
0000
;

//---------------dance-single - ----------------
#NOTEDATA:;
#CHARTNAME:;
#STEPSTYPE:dance-single;
#DESCRIPTION:;
#CHARTSTYLE:;
#DIFFICULTY:Easy;
#METER:7;
#RADARVALUES:0.391081,0.508195,0.380721,0.290073,0.000000,302.000000,260.000000,42.000000,32.000000,0.000000,0.000000,0.000000,0.000000,0.000000,0.391081,0.508195,0.380721,0.290073,0.000000,302.000000,260.000000,42.000000,32.000000,0.000000,0.000000,0.000000,0.000000,0.000000;
#CREDIT:;
#DISPLAYBPM:192.000000;
#NOTES:
0000
0000
0000
0000
,
0000
0000
0000
0000
,
0000
0000
0000
0000
,
0000
0000
0000
0000
,
0000
0000
0000
0000
,
0000
0000
0000
0000
,
0000
0000
0000
0000
,
0000
1000
0002
0000
,
0000
0003
0010
0100
,
2000
0000
3000
0001
,
1000
0010
0100
0001
,
1000
0001
0010
0100
,
1000
0001
1000
1001
,
0110
1001
0100
0001
,
1000
0001
0001
0010
,
0100
0000
1000
0001
,
0100
0010
1000
0001
,
0001
0010
0001
0100
,
2000
0000
3001
0200
,
0000
0310
0110
0001
,
1000
0100
0100
0010
,
0002
0000
1003
0010
,
1000
0100
0020
0000
,
0031
1000
0000
0001
,
1000
1000
0010
0200
,
0000
0301
0010
0001
,
0100
1000
0001
1000
,
0010
1000
0100
0001
,
0010
0001
1000
0010
,
1000
0100
0010
0001
,
0200
0000
0301
0020
,
0000
0130
1000
1000
,
0001
1000
0010
0100
,
0002
0000
0013
0100
,
0100
0100
2000
0000
,
3001
1000
0010
0001
,
0200
0000
0300
0001
,
1000
0000
0001
0000
0110
0000
0000
0110
,
0000
0010
1000
0100
,
1001
0000
0000
1001
0000
0000
0001
0000
,
0010
0000
0100
0000
1100
0000
0000
1100
,
0000
1000
0010
0001
,
0101
0000
0000
0101
0000
0000
0001
0000
,
1000
0000
0010
0000
1010
0000
0000
1010
,
0000
0100
0010
0001
,
0011
0000
0000
0011
0000
0000
0001
0000
,
1000
0000
0001
0000
0101
0000
0000
0101
,
0000
0010
1000
0100
,
1100
0000
0000
1100
0000
0000
1001
0000
,
0110
1001
0000
0000
,
1000
0002
0000
0013
,
0200
0000
1300
2000
,
0000
3001
2000
0000
,
3100
0020
0000
0031
,
1000
1000
0001
0200
,
0000
0300
0002
0000
,
1003
0020
0000
0130
,
0020
0000
1030
0002
,
0000
0000
0013
0000
0100
0000
0000
1000
,
0000
0002
0000
1003
,
0010
0010
0100
0002
,
0010
0013
1001
0110
,
1001
0220
0030
1000
,
0301
0010
0100
1000
,
0001
1000
0010
0100
,
0001
0010
0001
1000
,
0010
1000
0100
0010
,
0001
0100
0001
0010
,
1000
0100
0010
0100
,
1000
0010
0001
0100
,
0010
0100
0001
0010
,
1000
1100
0010
0001
,
0101
0010
1000
0001
,
0100
0010
0110
1001
,
0110
0000
1001
0000
0000
1001
0000
0000
,
0010
1000
0100
0110
,
0000
0110
0000
0000
0010
0000
0001
0000
,
1000
0000
1010
0000
0000
1010
0000
0000
,
1000
0100
0001
0011
,
0000
0011
0000
0000
0010
0000
0001
0000
,
1000
0202
0000
0000
,
0000
0000
0300
1000
,
0010
0010
0103
0000
,
0001
2000
0000
3000
,
1001
0000
0000
0100
0000
0000
0010
0000
,
0000
0000
2000
3002
,
2003
3010
0000
0000
;

//---------------dance-single - ----------------
#NOTEDATA:;
#CHARTNAME:;
#STEPSTYPE:dance-single;
#DESCRIPTION:;
#CHARTSTYLE:;
#DIFFICULTY:Beginner;
#METER:3;
#RADARVALUES:0.159281,0.234551,0.108777,0.054389,0.000000,123.000000,111.000000,12.000000,6.000000,0.000000,0.000000,0.000000,0.000000,0.000000,0.159281,0.234551,0.108777,0.054389,0.000000,123.000000,111.000000,12.000000,6.000000,0.000000,0.000000,0.000000,0.000000,0.000000;
#CREDIT:;
#DISPLAYBPM:192.000000;
#NOTES:
// measure 0
0000
0000
0000
0000
,  // measure 1
0000
0000
0000
0000
,  // measure 2
0000
0000
0000
0000
,  // measure 3
0000
0000
0000
0000
,  // measure 4
0000
0000
0000
0000
,  // measure 5
0000
0000
0000
0000
,  // measure 6
0000
0000
0000
0000
,  // measure 7
0000
0000
2000
0000
,  // measure 8
0000
3000
0000
0000
,  // measure 9
0001
0000
0000
0100
,  // measure 10
0000
0000
0020
0000
,  // measure 11
0000
0030
0000
0000
,  // measure 12
0200
0000
0000
0300
,  // measure 13
0000
0000
0001
0000
,  // measure 14
0000
1000
0000
0000
,  // measure 15
0001
0000
0000
0100
,  // measure 16
0000
0000
0010
0000
,  // measure 17
0000
1000
0000
0000
,  // measure 18
0100
0000
0000
0100
,  // measure 19
0000
0000
1000
0000
,  // measure 20
0000
0001
0000
0000
,  // measure 21
0001
0000
0000
0010
,  // measure 22
0000
0000
0100
0000
,  // measure 23
0000
0100
0000
0000
,  // measure 24
1000
0000
0000
0001
,  // measure 25
0000
0000
1000
0000
,  // measure 26
0000
0010
0000
0000
,  // measure 27
1000
0000
0000
0001
,  // measure 28
0000
0000
0010
0000
,  // measure 29
0000
0100
0000
0000
,  // measure 30
1000
0000
0000
0001
,  // measure 31
0000
0000
1000
0000
,  // measure 32
0000
0010
0000
0000
,  // measure 33
1000
0000
0000
0001
,  // measure 34
0000
0000
0001
0000
,  // measure 35
0000
0100
0000
0000
,  // measure 36
2000
0000
0000
3000
,  // measure 37
0000
0000
1001
0000
,  // measure 38
0000
0010
0000
0000
,  // measure 39
0110
0000
0000
0100
,  // measure 40
0000
0000
1001
0000
,  // measure 41
0000
0001
0000
0000
,  // measure 42
0110
0000
0000
1000
,  // measure 43
0000
0000
0110
0000
,  // measure 44
0000
0010
0000
0000
,  // measure 45
1001
0000
0000
0100
,  // measure 46
0000
0000
0110
0000
,  // measure 47
0000
0001
0000
0000
,  // measure 48
1001
0000
0000
1000
,  // measure 49
1000
1000
0000
0000
,  // measure 50
0000
0001
0000
0000
,  // measure 51
0010
0000
0000
0001
,  // measure 52
0000
0000
0100
0000
,  // measure 53
0000
0010
0000
0000
,  // measure 54
1000
0000
0000
0100
,  // measure 55
0100
0100
0100
0000
,  // measure 56
0000
1000
0000
0000
,  // measure 57
0001
0000
0000
0010
,  // measure 58
0000
0000
0001
0000
,  // measure 59
0000
0100
0000
0000
,  // measure 60
0010
0010
0010
0010
,  // measure 61
0000
0000
1000
0000
,  // measure 62
0000
0001
0000
0000
,  // measure 63
0010
0000
0000
0001
,  // measure 64
0000
1000
1000
0000
,  // measure 65
0010
0010
0000
0000
,  // measure 66
0100
0100
0100
0100
,  // measure 67
0000
0000
0001
0000
,  // measure 68
0000
0100
0000
0010
,  // measure 69
0010
0000
1000
1000
,  // measure 70
0000
0000
0001
0000
,  // measure 71
0010
0010
0000
0000
,  // measure 72
0001
0000
0000
0100
,  // measure 73
0000
0000
1000
0000
,  // measure 74
0000
1001
0000
0000
,  // measure 75
0100
0000
0000
0110
,  // measure 76
0000
0000
0010
0000
,  // measure 77
0000
1001
0000
0000
,  // measure 78
1000
0000
0000
0110
,  // measure 79
0000
0000
0001
0000
,  // measure 80
0000
2000
0000
0000
,  // measure 81
0000
0000
0000
3000
,  // measure 82
0000
0000
0000
0000
,  // measure 83
0000
0002
0000
0000
,  // measure 84
0000
0000
0000
0003
,  // measure 85
0000
0000
0010
0010
,  // measure 86
0010
0010
0000
0000
;
