#TITLE:Apache;
#ARTIST:The Incredible Bongo Band;
#BANNER:Apache-bn.png;
#BACKGROUND:Apache-bg.png;
#JACKET:Apache-jacket.png;
#MUSIC:Apache.ogg;
#OFFSET:-0.069;
#SAMPLESTART:65.165;
#SAMPLELENGTH:20;
#DISPLAYBPM:115:119;
#BPMS:0=116.04,16=116.41,32=116.69,40=118.42,48=119.4,56=117.84,64=119.4,72=118.62,80=119.21,96=117.26,104=118.62,112=118.81,128=115.38,136=117.84,144=117.65,152=116.88,160=116.5,168=117.65,172=116.5,176=116.69,184=117.46,192=116.88;
#BGCHANGES:;

//---------------dance-single - ----------------
#NOTES:
     dance-single:
     :
     Beginner:
     1:
     :
0000
0000
0000
0000
,
0000
0000
0000
0000
,
0010
0000
0000
0000
,
0100
0000
0000
0000
,
0001
0000
0000
0000
,
1000
0000
0000
0000
,
0100
0000
0000
0000
,
0010
0000
0000
0000
,
1000
0000
0000
0000
,
0001
0000
0000
0000
,
0010
0000
0000
0000
,
0100
0000
0000
0000
,
0010
0000
0000
0000
,
0001
0000
0000
0000
,
1000
0000
0000
0000
,
0100
0000
0000
0000
,
1001
0000
0000
0000
,
0001
0000
0000
0000
,
1000
0000
0000
0000
,
0010
0000
0100
0000
,
0010
0000
0000
0000
,
1000
0000
0000
0000
,
0001
0000
0000
0000
,
1000
0000
0000
0000
,
1001
0000
0000
0000
,
0010
0000
0000
0000
,
0100
0000
0000
0000
,
0001
0000
0000
0000
,
0010
0000
0000
0000
,
0100
0000
0000
0000
,
1000
0000
0000
0000
,
0001
0000
0000
0000
,
1001
0000
0000
0000
,
0000
0000
0000
0000
,
0010
0000
0000
0000
,
0100
0000
0000
0000
,
1001
0000
0000
0000
,
0000
0000
0000
0000
,
0001
0000
0000
0000
,
1000
0000
0000
0000
,
0110
0000
0000
0000
,
0100
0000
0000
0000
,
0010
0000
0000
0000
,
0100
0000
0000
0000
,
1001
0000
0000
0000
,
0000
0000
0000
0000
,
0001
0000
0001
0000
,
1000
0000
1000
0000
,
0010
0000
0000
0000
;

//---------------dance-single - ----------------
#NOTES:
     dance-single:
     :
     Easy:
     4:
     :
0000
0000
0000
0000
,
0000
0000
0000
0000
,
0000
0000
0000
0000
,
0000
0000
0000
0000
,
0001
1000
0001
0010
,
0100
0000
0001
0000
,
1000
0000
0010
0001
,
0010
0000
0100
1000
,
0010
0000
1000
0001
,
0100
0000
0010
1000
,
0001
0010
0100
0000
,
1000
0000
0010
0100
,
0001
0000
0100
1000
,
0100
0000
0001
0010
,
1000
0000
0010
0000
,
0001
0000
0100
0000
,
1000
0000
0010
0100
,
0001
0000
0100
1000
,
0010
0000
0001
0000
,
1000
0000
0100
1000
,
0010
0000
1000
0000
,
0001
0000
0010
0100
,
1000
0000
0001
0000
,
1000
0001
0010
0010
,
0100
0100
1000
1000
,
0001
0000
0010
0000
,
0100
0100
1000
0000
,
0010
0100
1000
0000
,
0010
0000
0100
0000
,
0001
0000
1000
0000
,
0010
0000
0001
0000
,
1000
0010
0100
0000
,
1001
0000
0000
0000
,
1001
0000
0000
0000
,
1000
0000
0100
0000
,
0001
0000
0010
0000
,
1001
0000
0000
0000
,
1001
0000
0000
0000
,
0001
0000
0010
0000
,
1000
0000
0100
0000
,
1001
0000
0000
0000
,
0110
0000
0000
0000
,
1000
0000
0100
0000
,
0001
0000
0010
0000
,
1001
0000
0000
0000
,
1001
0000
0000
0000
,
1000
0000
0010
0000
,
0001
0001
0001
0000
,
0100
0000
0000
0000
;

//---------------dance-single - ----------------
#NOTES:
     dance-single:
     :
     Medium:
     7:
     :
0000
0000
0000
0000
,
0000
0000
0000
0000
,
0000
0000
0000
0000
,
0000
0000
0000
0000
,
0110
1000
0001
0010
,
1000
0000
0100
1000
0100
0000
0010
0000
,
0001
0100
0010
1000
,
0100
1000
0010
0000
0100
0000
0001
0000
,
0020
0000
1030
0100
,
0020
0000
0031
0100
,
0010
0000
0010
0000
1000
0100
0010
0000
,
0001
0100
0010
1000
,
0020
0000
0031
0100
,
0020
0000
1030
0010
,
0100
1000
0001
0100
,
0010
0001
0010
1000
,
0010
0000
0100
1000
,
0100
0000
0001
0010
,
0100
0000
0000
0000
1000
0100
0010
0000
,
0001
1000
0100
0100
,
0010
0000
0001
1000
,
0001
0000
0100
0010
,
0100
0000
0000
0000
0100
0010
1000
0000
,
0001
0010
0100
0000
1000
0001
0100
0000
,
0001
1000
0001
1000
,
0010
0100
0010
0000
1000
0001
1000
0000
,
0100
0011
1000
0001
,
0100
1100
0010
0100
,
0001
0010
0100
1000
,
1000
0000
0100
0000
0010
0001
0010
0000
,
0001
0000
1100
0000
0010
0100
0001
0000
,
1000
0100
0010
0001
,
0110
0000
1000
0001
,
1100
0000
0001
1000
,
0011
0000
0100
0000
1000
0010
1000
0000
,
0100
0001
0010
0100
,
1010
0000
0100
0001
,
0011
0000
0100
1000
,
1001
0000
0100
0000
0001
0010
0001
0000
,
0100
1000
0010
0100
,
0001
0000
0100
1000
,
0100
0000
0001
0100
,
0010
0000
1000
0000
0100
0010
0100
0000
,
0010
0000
0001
0000
0100
0001
0010
0000
,
1000
0000
0010
0001
,
0100
0000
1000
0100
,
0001
0000
0010
0100
0010
0000
1000
0000
,
0000
0001
0000
1000
0000
0010
0000
0100
,
0001
0000
0000
0000
;

//---------------dance-single - ----------------
#NOTES:
     dance-single:
     :
     Hard:
     10:
     :
0000
0000
0000
0000
,
0000
0000
0000
0000
,
0000
0000
0000
0000
,
0000
0000
0000
0000
,
0002
0000
1003
0100
0010
0100
1000
0010
,
0002
0000
0013
1000
0100
0010
0001
0000
,
0020
0000
0000
0000
0130
0000
1000
0000
0001
0000
0010
0000
0100
1000
0000
0100
,
0000
0000
0000
0000
0001
0100
0000
1000
0000
0001
0000
0000
0020
0000
0000
0000
,
2030
3000
0020
0032
,
0203
0300
2000
3200
,
0302
0000
0013
0100
0001
0000
0001
0100
,
2000
0000
3100
1000
0010
0100
0001
0000
,
1000
0100
0001
0000
0001
0100
0010
0000
,
0100
0000
1000
0000
0001
1000
0010
0000
,
0100
0001
0010
0100
1000
0100
0010
0000
,
0001
0100
1000
0100
0001
0010
0100
0000
,
0010
0100
1000
0000
0100
1000
0010
0100
,
0001
0010
0001
0000
1000
0100
1000
0000
,
0010
0000
0100
0001
0010
1000
0010
0001
,
0100
0000
0010
0100
1000
0100
0001
0000
,
0010
0000
0100
1000
0100
0000
1000
0000
,
0010
0000
0100
0001
0100
0000
1000
0000
,
0100
0000
0001
0010
1000
0000
0001
0100
,
1000
0100
0001
0000
0010
0100
1001
0000
,
1000
0100
1000
1000
0001
0010
0001
0001
,
1000
0001
0010
1000
0010
0001
1100
0000
,
0010
0000
0010
0000
0100
0001
0000
0001
0000
0000
0100
0000
0010
0000
1000
0000
,
0100
0000
0100
0000
0001
1000
0000
1100
0000
0000
0011
0000
0000
0000
0000
0000
,
1000
0010
0100
0001
0100
1000
0100
0001
,
0010
0000
1000
0000
0010
0000
0010
0000
0100
0000
0000
1000
0001
0000
0000
0000
,
0100
0001
0010
0100
1000
0001
0100
1000
,
0100
0001
0010
0100
1000
0010
1000
0000
,
0011
0000
0100
1000
,
1010
0000
0100
0001
,
0010
0100
1000
0000
1000
0100
0001
0000
,
0001
0100
0010
1000
0010
0001
0100
0000
,
0101
0000
0010
1000
,
1100
0000
0100
0010
,
0001
0100
1000
0100
0010
0100
0001
0010
,
0100
1000
0010
0100
0001
0100
1000
0000
,
0220
0330
1100
0110
,
2002
3003
0101
0110
,
1000
0100
0001
0100
1000
0010
0001
0010
,
0100
0001
1000
0010
0100
0001
1000
0000
,
1001
0000
1010
0101
,
0110
0000
0011
1100
,
1000
0100
0010
0001
0010
1000
0010
0100
,
1000
0011
0000
1010
0000
0101
0000
1100
,
1001
0000
0000
0000
;

//---------------dance-single - ----------------
#NOTES:
     dance-single:
     :
     Challenge:
     14:
     :
0000
0000
0000
0000
,
0000
0000
0000
0000
,
0000
0000
0000
0000
,
0000
0000
0000
0000
0000
0000
0000
0000
0000
0000
0000
0000
0000
0000
0000
0000
0000
0000
0000
0000
0000
0000
0000
0000
0000
0000
0000
0000
0000
0000
0001
1000
,
0002
0000
0000
0000
0103
0010
0000
1010
0000
1010
0000
0000
0100
1000
0000
0001
,
0200
0000
0000
0000
0000
0000
0000
0000
0310
0000
1000
0000
0000
0000
1100
0000
0000
0000
0110
0000
0000
0000
0011
0000
0000
0000
0000
0000
0000
0000
1000
0001
,
2000
0000
0000
0000
3010
0100
0000
0101
0000
0101
0000
0000
1000
0001
0000
0100
,
0020
0000
0000
0000
1030
0001
0000
0011
0000
0110
0000
1100
0000
0000
0010
0100
,
0002
0000
1000
0000
1003
0000
0010
0100
0002
1000
0000
0000
0203
1000
0000
0000
,
0320
0000
1000
0000
1030
0000
0001
0010
0100
1000
0001
0000
0010
0000
0001
1000
,
0002
0000
0100
0000
0103
0010
0000
0110
0000
0110
0000
0000
1000
0001
0000
1000
,
0020
0000
0100
0000
0130
0010
0000
1010
0000
1001
0000
0011
0000
0000
0100
1000
,
0002
0000
0010
0000
0013
0000
0001
1000
0200
0001
0000
0000
2300
0001
0000
0000
,
3020
0000
1000
0000
1030
0000
0100
0010
0001
1000
0001
0000
1000
0010
0100
0010
,
2000
0000
0001
0000
3001
0100
0000
1001
0000
1001
0000
0000
0010
1000
0000
0100
,
0002
0000
0010
0000
0013
0100
0000
1100
0000
0101
0000
0000
1000
0010
0100
0001
,
2000
0000
0100
0000
3100
0000
1000
0001
0020
1000
0000
0000
0230
0001
0000
0000
,
2300
0000
0001
0000
3001
0000
0100
0010
2000
0100
0000
0000
3010
0000
1000
0001
,
0200
0000
0000
0000
0310
1000
0000
0101
0000
1000
0010
1000
0001
0100
0000
0020
,
1000
0000
1000
0000
0130
0000
0010
0000
1000
0001
1000
0001
0010
0000
0001
0100
,
0002
0000
0010
0000
0013
0000
0100
1000
0002
1000
0000
0000
0023
0100
0000
0000
,
0032
0000
1000
0000
1003
0000
0100
1000
0020
0000
0100
0000
0130
0000
0001
1000
,
0002
0000
0010
0000
0013
0100
0000
2000
0001
0000
0100
0000
3100
0010
0000
0001
,
0000
1000
0100
0000
1000
0001
0000
0022
0000
0000
0030
0000
1003
0100
1000
0000
,
1001
1001
1001
1001
1001
1001
1001
1001
,
1100
1001
1001
0101
1001
1001
1001
0110
,
1000
0010
1000
0010
0100
0001
0000
0010
0000
0001
0000
0000
1000
0001
0000
0100
,
0010
0000
0000
0000
0000
0000
1000
0000
0100
0000
1000
0000
0100
0000
0000
0000
0000
0000
0010
0000
0000
0001
0000
0000
0000
0000
0000
0001
0000
0000
1000
0000
0000
0000
0000
0000
0010
0000
0000
0100
0000
0000
0001
0000
0000
0000
0000
0000
,
1001
1001
1001
1001
1001
1001
1001
1001
,
0011
0000
1001
0000
1001
0000
1010
0000
1001
0000
1001
0000
1001
0000
0010
0100
,
0001
0000
0010
0100
2000
0010
0000
0100
0000
3100
0000
0010
1000
0001
1000
0100
,
0000
1000
0010
1000
0001
0010
0100
0000
1000
0001
0000
0000
0100
0010
0100
0010
,
1000
0100
1000
0100
1000
0100
0020
0000
0000
0032
0000
0000
,
1003
0010
1000
0010
1000
0010
0200
0000
0000
0302
0000
0000
,
0023
0000
0001
0000
0031
0000
0100
0000
1000
0010
1000
0010
0100
0000
0001
1000
,
0001
0000
0010
0000
0001
0100
0001
0100
0010
1000
0100
1000
0001
0100
0001
0100
,
0010
1000
0010
1000
0010
1000
0002
0000
0000
0203
0000
0000
,
0301
0010
0001
0010
0001
0010
0200
0000
0000
2300
0000
0000
,
3001
0000
0000
0000
0100
0000
0010
0000
1000
0000
0001
0000
0010
0000
0100
0000
1000
0000
0000
0000
0001
0000
1000
0000
0010
0000
0100
0001
0100
0000
0010
0000
,
1000
0100
1000
0010
1000
0001
0010
0100
1000
0010
0100
0001
0020
0000
0000
0000
,
0031
1000
0001
1000
0001
1000
0020
0000
0000
0230
0000
0000
,
0310
0100
0010
0100
0010
0100
0002
0000
0000
2003
0000
0000
,
3100
1000
0100
0010
0100
1000
0001
0100
0000
0010
1000
0010
1000
0100
0001
0000
,
0010
0000
0001
0000
0010
0000
0100
0000
1000
0000
0010
0000
1000
0000
0001
0000
0000
0000
1000
0100
1000
0000
0010
0000
0100
0000
0001
0000
1000
0000
0000
0000
,
0100
1000
0100
1000
0100
1000
0002
0000
0000
0023
0000
0000
,
0031
0000
0000
0000
1000
0000
0000
0000
0001
0000
0000
0000
1000
0000
0000
0000
0001
0000
0000
0000
1000
0000
0000
0000
0200
0000
0000
0000
0000
0000
0000
0000
0000
0000
0000
0000
0310
0000
0000
0000
0000
0000
0000
0000
0000
0001
0000
0000
,
1000
0000
0000
0000
0010
0000
0000
0000
0100
0000
0010
0000
0100
0000
0001
0000
0010
0000
0100
0000
0010
0000
0001
0000
1000
0000
0010
0000
1000
0000
0001
1000
,
0001
0011
1000
1100
0010
0101
0100
0110
,
1001
0000
0000
0000
;

//---------------dance-double - ----------------
#NOTES:
     dance-double:
     :
     Easy:
     3:
     :
00000000
00000000
00000000
00000000
,
00000000
00000000
00000000
00000000
,
00000000
00000000
00000000
00000000
,
00000000
00000000
00000000
00000000
,
00000001
00000001
00000100
00001000
,
00000000
00010000
00010000
01000000
,
00100000
10000000
01000000
00000000
,
00100000
00010000
00010000
00000000
,
00001000
00000000
00010000
00001000
,
00000100
00000000
00000001
00000100
,
00001000
00000000
00000010
00000000
,
00000001
00000100
00000100
00000000
,
00001000
00000000
00010000
00001000
,
00100000
00000000
01000000
10000000
,
00010000
00000000
01000000
00000000
,
00001000
00010000
00100000
00000000
,
00010000
00000000
00001000
00000010
,
00000100
00000000
00000001
00000010
,
00000110
00000000
00001000
00000000
,
00010000
00000000
01000000
10000000
,
10000000
00000000
01000000
00010000
,
00001000
00000000
00010000
00001000
,
00000010
00000000
00000100
00000000
,
00001000
00000000
00000010
00000000
,
00001001
00000000
00000000
00000000
,
00011000
00000000
00000000
00000000
,
10010000
00000000
01000000
00000000
,
00100000
00010000
00010000
00000000
,
00011000
00000000
00000100
00000000
,
00000010
00000010
00000100
00000000
,
00000001
00000000
00000100
00000000
,
00001000
00000000
00010000
00000000
,
10010000
00000000
00000000
00000000
,
10010000
00000000
00000000
00000000
,
01000000
00000000
00010000
00000000
,
00001000
00000000
00000010
00000000
,
00001001
00000000
00000000
00000000
,
00001001
00000000
00000000
00000000
,
00000100
00000000
00000010
00000000
,
00001000
00000000
00010000
00000000
,
00011000
00000000
00000000
00000000
,
00011000
00000000
00000000
00000000
,
00100000
00000000
10000000
00000000
,
01000000
00000000
00010000
00000000
,
00011000
00000000
00000000
00000000
,
00000110
00000000
00000000
00000000
,
00000001
00000000
00000100
00000000
,
00001000
00001000
00010000
00000000
,
00100000
00000000
00000000
00000000
;

//---------------dance-double - ----------------
#NOTES:
     dance-double:
     :
     Medium:
     8:
     :
00000000
00000000
00000000
00000000
,
00000000
00000000
00000000
00000000
,
00000000
00000000
00000000
00000000
,
00000000
00000000
00000000
00000000
,
10000000
00000000
01000000
00010000
00001000
00000000
00000010
00000000
,
00000100
00000000
00001000
00000010
00000001
00000000
00000010
00000100
,
00000001
00000000
00000100
00001000
00010000
00000000
00100000
00000000
,
01000000
00000000
00010000
00100000
10000000
00000000
01000000
10000000
,
00020000
10000000
02030000
03002000
,
00023000
00100000
00032000
00003020
,
00000031
00000000
00000100
00001000
00000100
00000000
00000001
00000010
,
00001000
00000000
00010000
01000000
10000000
00000000
00010000
00000000
,
00200000
10000000
02300000
03020000
,
00032000
00010000
00003200
00000302
,
00000013
00000000
00000100
00001000
00000010
00000000
00000001
00000010
,
00000100
00001000
00010000
00100000
,
10000000
01000000
00100000
00000000
10000000
00100000
00010000
00000000
,
01000000
00100000
00010000
00000000
00001000
00000000
00000100
00000010
,
00000001
00000100
00000010
00001000
,
00000100
00000000
00001000
00000001
00000100
00000000
00001000
00010000
,
01000000
10000000
00100000
01000000
,
00010000
00000000
00100000
00000000
00001000
00000000
00010000
00001000
,
00000010
00000000
00000100
00001000
00000010
00000000
00000001
00000010
,
00001000
00000000
00000100
00000000
00010000
00001000
01000000
10000000
,
01000000
01000000
00010000
00000000
00100000
00100000
01000000
00000000
,
10010000
00000000
00011000
00000000
,
00000110
00000000
00001000
00000001
00001000
00000000
00000010
00000000
,
00010100
00000000
00010000
00001000
01000000
00000000
00100000
00000000
,
10010000
00000000
01000000
01000000
10000000
00000000
00100000
10000000
,
01000000
00010000
00001000
00000000
00000010
00000001
00000100
00000000
,
00000110
00000000
00000010
00000100
00001000
00000100
00000001
00000000
,
00000100
00001000
00010000
00100000
20000000
00000000
31000000
00000000
,
00202000
00303000
00010100
00001010
,
00000220
00000330
00000001
00000010
,
00000100
00010000
00001000
00000100
00000010
00000000
00000001
00000100
,
00001000
00000000
00000010
00000100
00001000
00000000
00010000
00000000
,
00022000
00033000
00101000
01010000
,
20020000
30030000
01000000
00100000
,
01000000
10000000
00100000
00000000
01000000
00001000
00010000
00000000
,
00001000
00010000
00100000
00010000
00001000
00000000
00000100
00000000
,
00000022
00000033
00000100
00001000
,
00020020
00030030
00001000
00100000
,
01000000
10000000
00100000
00000000
10000000
00010000
00100000
00000000
,
01000000
00010000
00001000
00010000
00000100
00001000
00000010
00000000
,
00000202
00000303
00000010
00001000
,
00022000
00033000
01000000
10000000
,
00010000
10000000
01000000
00010000
00001000
00000000
00010000
00001000
,
00000100
00000001
00000000
00000010
00000000
00000100
00000000
00010000
,
00001000
00000000
00000000
00000000
;

//---------------dance-double - ----------------
#NOTES:
     dance-double:
     :
     Hard:
     10:
     :
00000000
00000000
00000000
00000000
,
00000000
00000000
00000000
00000000
,
00000000
00000000
00000000
00000000
,
00000000
00000000
00000000
00000000
,
12000000
00000000
03100000
01000000
10000000
01000000
00010000
00000000
,
00021000
00000000
00030010
00000100
00001000
00000100
00000001
00000000
,
00001020
00000000
00000130
00001000
00010000
01000000
10000000
00000000
,
20100000
00000000
31000000
00010000
00001000
00000100
00000001
00000010
,
00000100
00001000
00000010
00000000
00000100
00001000
00010000
00000000
,
00100000
10000000
01000000
00000000
00020000
00000000
00032000
00000000
,
00003020
00000000
00000031
00000100
00001000
00000100
00000001
00000010
,
00000200
00000000
00001300
00000010
00000100
00001000
00010000
01000000
,
10000000
01000000
10000000
00000000
00010000
00100000
01000000
00000000
,
00010000
00001000
00000010
00000100
00002000
00000000
00003020
00000000
,
00000130
00000001
00000100
00001000
00010000
00001000
00010000
00100000
,
20000000
32000000
03200000
00302000
,
00013000
01000000
00100000
00000000
10000000
01000000
00010000
00000000
,
00001000
00000100
00000001
00000000
00000010
00000100
00001000
00000000
,
00000110
00000000
00000100
00000001
00000010
00001000
00010000
00001000
,
00100000
00000000
01000000
10000000
01000000
00100000
00010000
00000000
,
00100000
01000000
10000000
00000000
01000000
00010000
00001000
00000000
,
00010000
00001000
00000010
00000000
00000100
00001000
00000100
00000010
,
00000001
00000000
00000100
00001000
00000100
00000001
00000010
00001000
,
00010000
00000000
00100000
10000000
01000000
00100000
00010000
00000000
,
10000000
10000000
01000000
01000000
00010000
00010000
00001000
00001000
,
00010000
00000000
00000010
00000000
00010000
00000000
00001000
00000000
00000100
00000000
00000000
00000001
00000010
00000000
00000100
00000000
,
00001000
00000000
00000010
00000000
00000100
00001000
00000000
00010000
00000000
00000000
01000000
00000000
10000000
00000000
00100000
00000000
,
01000000
00000000
10000000
00000000
01000000
00010000
00000000
00200000
00000000
00000000
00302000
00000000
00000000
00000000
00000000
00000000
,
00013000
00010000
00000010
00000010
00000100
00000100
00000001
00000001
,
00000010
00000000
00000001
00000000
00000010
00000000
00001000
00000000
00010000
00000000
00000000
00001000
00010000
00000000
01000000
00000000
,
10000000
00000000
00000000
00000000
00100000
00000000
01000000
00001000
00000000
00000000
00010000
00000000
01000000
00000000
10000000
00000000
,
00100000
01000000
01000000
00010000
10000000
00100000
00010000
00001000
,
00011000
00000000
00000010
00000001
,
00000101
00000000
00000010
00010000
,
00001000
00010000
00100000
01000000
10000000
01000000
00010000
00100000
,
00001000
01000000
00100000
00010000
00001000
00000010
00000100
00010000
,
00011000
00000000
00000100
00001000
,
00001001
00000000
00000010
00000100
,
00001000
00000100
00000001
00000010
00001000
00010000
00001000
00001000
,
01000000
00100000
00010000
00100000
10000000
01000000
00010000
00000000
,
00011000
00000000
00000100
00001000
,
00000011
00000000
00000100
00010000
,
00001000
00010000
00100000
00010000
00001000
00000010
00001000
00010000
,
01000000
10000000
01000000
00010000
00001000
01000000
00100000
00010000
,
00011000
00000000
00010000
00001000
,
00010100
00000000
00001000
00000010
,
00000100
00000001
00000010
00001000
00010000
01000000
10000000
00100000
,
00000000
10010000
00000000
00101000
00000000
00011000
00000000
00000010
,
00000110
00000000
00000000
00000000
;
