#TITLE:Any Man of Mine;
#ARTIST:Shania Twain;
#BANNER:Any Man of Mine-bn.png;
#BACKGROUND:Any Man of Mine-bg.png;
#JACKET:Any Man of Mine-jacket.png;
#MUSIC:Any Man of Mine.ogg;
#SAMPLESTART:52.543;
#SAMPLELENGTH:20;
#DISPLAYBPM:156;
#BPMS:0=156.4;
#BGCHANGES:;

//---------------dance-single - ----------------
#NOTES:
     dance-single:
     :
     Beginner:
     3:
     :
0000
0000
0000
0000
,
0000
0000
0000
0000
,
0000
0000
0000
0000
,
0000
0000
0000
0000
,
0001
0000
0100
0000
,
0010
0010
0010
0000
,
1000
0000
0001
0000
,
0100
0000
0000
0000
,
0010
0000
1000
0000
,
0100
0000
1000
0000
,
0001
0000
0001
0000
,
0100
0000
0010
0000
,
1000
0000
0100
0000
,
1000
0000
0001
0000
,
0100
0100
0100
0100
,
0000
0000
0000
0000
,
0010
0000
1000
0000
,
0100
0000
0001
0000
,
0010
0000
0001
0000
,
0100
0000
0010
0000
,
1000
0000
0001
0000
,
1000
0000
0100
0000
,
0010
0010
0010
0010
,
0000
0000
0000
0000
,
0001
0000
0001
0000
,
0000
0000
0100
0000
,
0010
0000
0010
0000
,
0000
0000
1000
0000
,
0100
0000
0100
0000
,
0000
0000
1000
0000
,
0002
0000
0003
0000
,
2000
0000
3000
0000
,
0010
0000
1000
0000
,
0200
0000
0300
0000
,
1001
0000
0000
0000
,
0020
0000
0000
0000
,
0030
0000
1000
0000
,
0002
0000
0000
0000
,
0003
0000
0010
0000
,
0001
0000
0001
0000
,
1000
0000
1000
0000
,
0200
0000
0000
0000
,
0300
0000
1000
0000
,
0002
0000
0000
0000
,
0003
0000
0010
0000
,
0200
0000
0000
0000
,
0300
0000
1000
0000
,
0010
0000
0010
0000
,
0100
0000
0100
0000
,
0001
0000
1000
0000
,
0200
0000
0300
0000
,
1001
0000
0000
0000
,
0010
0000
0010
0000
,
1000
0000
0001
0000
,
0010
0000
0100
0000
,
1000
1000
1000
0000
,
0001
0000
0100
0000
,
0001
0000
1000
0000
,
0020
0000
0030
0000
,
0200
0000
0300
0000
,
0001
0000
1000
0000
,
0002
0000
0003
0000
,
1001
0000
0000
0000
,
2000
0000
0000
0000
,
3000
0000
0100
0000
,
0020
0000
0000
0000
,
0030
0000
0001
0000
,
1000
0000
0001
0000
,
1000
0000
0001
0000
,
0200
0000
0000
0000
,
0300
0000
0010
0000
,
0200
0000
0000
0000
,
0300
0000
0001
0000
,
0020
0000
0000
0000
,
0030
0000
0100
0000
,
1000
0000
1000
0000
,
0001
0000
0001
0000
,
0010
0000
0001
0000
,
0200
0000
0000
0000
,
0000
0000
0000
0000
,
0300
0000
0000
0000
,
1001
0000
0000
0000
;

//---------------dance-single - ----------------
#NOTES:
     dance-single:
     :
     Easy:
     6:
     :
0000
0000
0000
0000
,
0000
0000
0000
0000
,
0000
0000
0000
0000
,
0000
0000
0000
0000
,
0001
0001
1001
0000
,
0010
0010
0110
0000
,
1000
1000
1001
0000
,
0100
0100
0110
0000
,
0001
0100
0010
0010
,
1000
0001
0100
0000
,
0001
0010
1000
0000
,
0100
1000
0001
0000
,
0100
0010
1000
1000
,
0100
1000
0001
0000
,
0010
0001
0110
1001
,
0100
0100
1001
0000
,
0010
1000
0100
0100
,
1000
0010
0001
0000
,
0010
0001
0100
0000
,
0001
0010
1000
0000
,
0100
1000
0001
0001
,
0010
0001
0100
0000
,
0010
1000
0110
1001
,
0000
0010
0010
0100
,
0001
0100
1010
0000
,
0100
0100
0100
1000
,
0001
1000
0101
0000
,
0010
0010
0010
0000
,
1000
0100
1100
0000
,
0001
0001
1000
1000
,
0020
0030
1010
0000
,
0002
0003
0101
0000
,
1100
0000
0001
0100
,
0002
0000
0000
0003
,
1001
0000
0100
0010
,
0220
0000
0000
0000
,
0330
0001
0100
0010
,
1000
0100
1000
0001
,
0100
0000
0010
0010
,
2000
3000
0002
0003
,
0020
0030
0200
0300
,
2200
0000
0000
0000
,
3300
0001
1000
0010
,
2002
0000
0000
0000
,
3003
0010
1000
0100
,
0110
0001
0100
0010
,
1000
0000
0001
0001
,
0020
0030
0002
0003
,
0200
0300
0020
0030
,
2000
3000
0002
0003
,
0220
0000
0000
0330
,
1001
0000
0010
0100
,
0001
0001
1000
1000
,
0001
1000
0010
0000
,
1000
0100
1000
0001
,
0100
0100
0010
0000
,
1000
0100
1000
0010
,
0100
0001
0010
0100
,
2000
3000
1100
0000
,
0002
0003
0101
0000
,
1010
0000
0010
1000
,
0200
0000
0000
0300
,
1001
0000
0010
0100
,
0220
0000
0000
0000
,
0330
0001
0010
0100
,
1000
0001
0100
0010
,
1000
0000
0001
0001
,
0020
0030
0200
0300
,
2000
3000
0002
0003
,
0202
0000
0000
0000
,
0303
0010
1000
0001
,
2002
0000
0000
0000
,
3003
0010
0001
0100
,
1010
1000
0001
0010
,
0100
0000
1000
1000
,
0002
0003
0200
0300
,
0020
0030
2000
3000
,
0200
0300
0020
0030
,
0022
0000
0000
0000
,
0000
0000
0000
0000
,
0033
0000
1000
0001
,
2002
0000
0000
0000
,
0000
0000
0000
0000
,
0000
0000
0000
0000
,
0000
0000
0000
3003
;

//---------------dance-single - ----------------
#NOTES:
     dance-single:
     :
     Medium:
     10:
     :
0000
0000
0000
0000
,
0000
0000
0000
0000
,
0000
0000
0000
0000
,
0000
0000
0000
0000
,
0001
0000
0010
0100
1000
0000
0010
0100
,
0001
1000
1001
0000
,
0010
0000
1000
0100
1000
0000
0001
0000
,
0100
0100
0110
0000
,
0001
0010
0100
0000
1100
0000
0001
0100
,
0010
1000
0101
0010
,
1000
0100
0001
0000
0020
0000
0230
0000
,
1300
0000
0010
1000
0002
0000
0203
0000
,
0310
1000
0001
0000
0011
0000
0100
0000
,
1000
0000
0001
0000
1010
0000
0100
0010
,
1000
0001
0100
0000
0110
0000
1001
0000
,
0010
0010
1001
0000
,
0001
0100
0010
0000
0101
0000
0001
1000
,
0200
0320
0032
2003
,
3010
0000
0010
0000
1000
0100
0001
0000
,
0010
0001
0100
0000
0010
1000
0001
0000
,
0010
0000
1000
0001
0100
0000
0010
0000
,
1000
0000
0001
0000
0010
0000
0001
0100
,
0010
1000
0001
0000
0011
0000
1100
0000
,
0010
0000
1000
0001
1000
0001
0100
0000
,
0002
0000
0013
0100
1000
0000
0000
0000
,
0010
0010
2000
3002
,
0023
0000
0130
1000
0001
0000
0000
0000
,
0101
1100
0101
0000
,
0020
0000
1030
0001
0100
0000
0000
0000
,
0002
0000
0023
0000
0230
0000
1300
0001
,
0200
0000
0310
1000
0002
0000
0003
0000
,
0020
0000
0031
0100
0020
0000
0030
0000
,
2020
0000
3030
0100
1000
0001
0100
0000
,
0202
0000
0303
0000
0010
1000
0010
0000
,
1001
0000
1000
0100
0001
0000
0100
0000
,
0110
0000
1000
0000
0001
0010
0100
0000
,
1000
0000
0010
0100
0001
0000
1000
0000
,
0101
0000
0010
1000
0001
1000
0100
0000
,
0010
0001
0100
0000
1000
0100
0001
0000
,
0012
0103
2010
3100
,
1200
1300
0102
0013
,
1001
0000
0010
1000
0100
1000
0001
0000
,
0010
0000
0001
0100
0010
0000
1000
0000
,
1001
0000
0010
0000
1000
0100
0001
0000
,
0010
0000
0100
0010
1000
0000
0001
0000
,
0011
0000
0100
1000
0001
0100
0010
0000
,
1000
0100
0010
0000
0001
1000
0001
0000
,
0200
0310
2000
3001
,
0200
0000
0301
0010
2000
0000
3001
1000
,
0200
0310
0002
0103
,
2010
0000
0001
0000
3100
0010
1000
0000
,
1001
0000
0001
0010
0100
0000
1000
0000
,
0010
1000
0100
0000
0010
0001
0100
0000
,
0001
0010
0100
0010
0001
1000
0100
0000
,
0010
1000
0001
0000
0010
0001
0100
0000
,
0010
1000
0100
0010
0001
0100
1000
0000
,
0010
1000
0100
0000
0001
0100
0010
0000
,
1000
0001
0010
0001
0100
0010
1000
0000
,
0200
0000
0310
0001
2000
0000
3000
0000
,
0020
0000
1030
0001
0200
0000
0300
0000
,
0202
0000
0303
0001
0010
0001
1000
0000
,
2200
0000
3300
0000
0010
1000
0001
0000
,
1001
0000
0100
0001
1000
0000
0100
0000
,
0110
0000
0001
0000
0010
0001
0100
0000
,
1000
0000
0001
1000
0100
0000
0010
0000
,
0011
0000
0100
1000
0001
1000
0010
0000
,
0100
0001
0010
0001
0100
0000
0010
1000
,
0002
0013
2000
3100
,
0020
0130
1100
0101
,
1010
0000
0001
0100
0010
0000
1000
0000
,
0100
0000
0001
1000
0001
0000
0100
0000
,
1001
0000
0010
0000
1000
0001
0010
0000
,
0100
0000
0010
1000
0001
0000
0100
0000
,
1010
0000
0100
1000
0001
1000
0010
0000
,
0100
0001
0010
0000
0001
1000
0100
0000
,
2100
3010
0102
0013
,
1002
0000
0013
0100
2000
0000
3001
0100
,
0020
1030
0002
0103
,
0220
0000
0000
0000
,
0000
0000
0000
0000
,
0330
0000
0001
0100
0010
0000
1000
0000
,
2002
0000
0000
0000
,
0000
0000
0000
0000
,
0000
0000
0000
0000
,
0000
0000
0000
3003
;

//---------------dance-single - ----------------
#NOTES:
     dance-single:
     :
     Hard:
     13:
     :
0000
0000
0000
0000
,
0000
0000
0000
0000
,
0000
0000
0000
0000
,
0000
0000
0000
0000
,
0001
0100
0010
0100
0001
0010
0100
1000
,
0010
0100
0001
0000
1001
0000
0100
0000
,
0010
1000
0010
0100
0001
0010
0001
1000
,
0100
0100
0110
0000
,
0001
0100
1000
0100
0001
0000
0010
0100
,
0020
0032
2003
3200
,
1300
0010
0100
0010
1000
0100
0001
0000
,
0010
0001
0100
0010
1000
0001
0100
0000
,
0010
1000
0100
1000
0010
0000
0100
0001
,
0020
0000
0230
0000
1300
0010
0100
0001
,
0010
0100
1000
0000
1100
0000
0101
0000
,
0010
0010
1001
0000
,
0010
0100
1000
0100
0001
0000
0001
0010
,
0200
0320
0032
2003
,
3010
1000
0100
0000
0010
0100
1000
0001
,
0100
0010
0100
1000
0100
0001
0010
0100
,
1000
0010
0100
0010
1000
0000
0001
0010
,
0100
1000
0002
0000
0203
0000
0310
1000
,
0100
0010
0001
0000
0101
0000
1100
0000
,
0010
0000
1000
1000
1000
0001
0100
0000
,
0010
0100
0010
0100
0001
0000
0010
0100
,
2000
3002
0023
0230
,
0301
0100
1000
0010
0100
0000
0010
1000
,
0001
0000
0001
0000
2000
0100
3100
0000
,
0010
0001
0010
0100
1000
0010
0100
0010
,
2000
0000
3200
0000
0320
0000
0031
1000
,
0010
0000
0100
0001
0022
0000
0033
0000
,
0100
0000
1000
0001
2020
0000
3030
0000
,
1001
0000
0001
0100
1000
0100
0001
0000
,
0011
0000
1100
0000
0010
0010
0010
0010
,
1001
0000
0100
1000
0001
1000
0100
0000
,
0110
0000
0001
0100
0010
0100
1000
0100
,
0001
0010
0100
0010
1000
0010
0001
0000
,
0101
0000
0010
0100
1000
0100
0001
0100
,
0010
1000
0100
0010
0001
0100
0001
0010
,
2000
0100
3100
0000
0002
0100
0103
0000
,
0020
0001
0031
0000
0200
0010
0310
0000
,
1010
0000
0100
0001
0100
0010
1000
0001
,
0010
1000
0010
0001
0100
0010
1000
0001
,
1001
0000
0010
1000
0100
0001
0100
0010
,
0100
0001
0100
1000
0010
0100
0001
0000
,
0011
0000
0100
1000
0010
0100
0010
1000
,
0100
0010
0001
0100
0010
0100
1000
0100
,
0002
0000
0013
0100
2000
0000
3001
0100
,
0020
0000
1030
0100
0020
0000
0031
0100
,
0020
1000
1030
0100
0020
0001
0031
0100
,
0001
0010
0100
1000
0010
0100
0010
1000
,
1001
0000
0100
1000
0001
0000
1000
0100
,
0001
0010
0001
0010
1000
0010
1000
0010
,
0001
0000
0100
0000
1000
0000
0100
0000
0001
1000
0001
0000
0100
0000
0010
0000
,
1000
0100
1000
0100
0001
0100
0001
0100
,
1000
0010
0100
0010
0100
0001
1000
0000
,
0001
0100
0010
0100
1000
0100
0001
0010
,
0100
0000
0001
0000
0100
0000
1000
0000
0010
0100
0010
0000
1000
0000
0000
0000
,
0200
0000
1300
0001
0202
0000
0303
0000
,
0020
0000
1030
0100
2200
0000
3300
0000
,
0110
0000
0001
0100
0010
1000
0001
0000
,
0101
0000
1010
0000
0100
0100
0100
0000
,
1001
0000
0100
1000
0001
1000
0100
0000
,
0110
0000
0001
0100
0010
0100
1000
0100
,
0010
1000
0100
0001
0100
0010
0100
0000
,
1100
0000
0010
1000
0100
0010
0001
0100
,
0010
0100
1000
0100
0001
0010
0100
1000
,
0002
0100
0103
0000
2000
0100
3100
0000
,
0020
1000
1030
0000
0200
0010
0310
0000
,
0011
0000
0100
0001
0100
1000
0010
0100
,
0010
1000
0100
0010
0001
0100
1000
0000
,
1001
0000
0010
1000
0100
0001
0100
1000
,
0010
1000
0100
0010
0001
0100
0010
0000
,
1010
0000
0001
1000
0100
0010
0001
0100
,
0010
0100
1000
0100
0001
0010
0001
0100
,
0020
0000
1030
0001
0200
0000
0310
1000
,
0002
0000
0013
0001
2000
0000
3100
0010
,
0002
1000
1003
0010
2000
0100
3100
0010
,
0220
0000
0000
0000
,
0000
0000
0000
0000
,
0330
0000
0001
0100
1000
0100
0001
0000
,
2002
0000
0000
0000
,
0000
0000
0000
0000
,
0000
0000
0000
0000
,
0000
0000
0000
3003
;
