#TITLE:Antigravity;
#ARTIST:t+pazolite;
#BANNER:Antigravity-bn.png;
#BACKGROUND:Antigravity-bg.png;
#JACKET:Antigravity-jacket.png;
#MUSIC:Antigravity.ogg;
#OFFSET:0.25;
#SAMPLESTART:52.723;
#SAMPLELENGTH:20;
#DISPLAYBPM:111:222;
#BPMS:0=222,100=111,132=222;
#BGCHANGES:;

//---------------dance-single - ----------------
#NOTES:
     dance-single:
     :
     Beginner:
     5:
     :
0000
0000
0000
0000
,
0000
0000
0000
0000
,
0000
0000
0000
0000
,
0000
0000
0000
0000
,
0000
0000
0000
0000
,
0000
0000
0000
0000
,
0000
0000
0000
0000
,
0000
0000
0000
0000
,
0010
0000
0010
0000
,
1000
0000
0001
0000
,
0010
0000
0001
0000
,
0100
0000
0010
0000
,
0000
1000
0000
0000
,
0001
0000
0010
0000
,
0001
0000
0100
0000
,
1000
0000
0010
0000
,
0100
0000
0100
0000
,
0010
0000
0100
0000
,
0001
0000
1000
0000
,
0100
0000
1000
0000
,
0000
0001
0000
0000
,
1001
0000
0000
0000
,
0110
0000
0000
0000
,
1000
0000
0010
0000
,
0001
0000
0100
0000
,
0010
0010
0000
0000
,
1000
1000
0000
0000
,
0100
0100
0000
0000
,
0001
0001
0000
0000
,
1000
1000
1000
0000
,
0010
0010
0010
0000
,
0110
0000
1001
0000
,
0010
0010
0010
0010
,
0020
0000
0000
0000
,
0000
0000
0030
0000
,
0200
0000
0000
0000
,
0000
0000
0300
0000
,
0002
0000
0003
0000
,
2000
0000
3000
0000
,
0010
0000
0100
0000
,
0100
0000
0000
0000
,
0000
0000
0001
0000
,
0010
0000
1000
0000
,
0000
0000
0100
0000
,
1000
0000
0001
0000
,
0100
0000
0010
0000
,
0100
0000
0001
0000
,
0000
0000
0010
0000
,
1000
0000
0100
0000
,
1000
0000
0001
0000
,
0010
0000
0001
0000
,
0000
0000
0100
0000
,
0001
0000
0010
0000
,
1001
0000
0000
0000
,
0110
0000
0000
0000
,
1000
0000
0100
0000
,
0001
0000
0000
0000
,
0020
0000
0030
0000
,
0002
0000
0003
0000
,
2000
0000
3000
0000
,
0200
0000
0300
0000
,
2000
0000
3000
0000
,
0002
0000
0003
0000
,
0100
0000
0010
0000
,
1000
0000
0000
0000
,
0000
0000
1001
0000
,
0000
0000
1001
0000
,
0000
0000
0110
0000
,
0000
0000
0110
0000
,
2000
0000
3000
0000
,
0002
0000
0003
0000
,
0010
0000
0001
0000
,
0100
0000
0100
0000
,
2000
0000
3000
0000
,
0002
0000
0003
0000
,
0010
0000
0100
0000
,
0010
0000
0001
0001
,
0000
0000
1000
0000
,
0010
0000
0100
0000
,
0000
0000
0001
0000
,
0010
0000
1000
1000
,
0000
0000
0100
0000
,
1000
0000
0001
0001
,
0000
0000
0010
0000
,
0100
0000
0010
0010
,
0020
0000
0030
0000
,
0200
0000
0300
0000
,
1000
0000
0001
0000
,
1000
0000
0001
0000
,
1001
0000
0000
0000
,
0110
0000
0000
0000
,
0001
0000
1000
0000
,
0001
0000
1000
0000
,
0100
0000
0000
0000
;

//---------------dance-single - ----------------
#NOTES:
     dance-single:
     :
     Easy:
     8:
     :
0000
0000
0000
0000
,
0000
0000
0000
0000
,
0000
0000
0000
0000
,
0000
0000
0000
0000
,
0000
0000
0000
0000
,
0000
0000
0000
0000
,
0000
0000
0000
0000
,
0000
0000
0000
0000
,
0010
0010
0010
0010
,
1000
0100
1000
0000
,
0001
1000
0100
0000
,
0010
1000
0010
0100
,
0000
0001
1000
0001
,
0010
0100
1000
0000
,
0001
0010
0001
0000
,
0100
0010
0100
0000
,
0001
0001
1000
1000
,
0010
1000
0100
0000
,
1000
0010
1000
0001
,
0010
0100
1000
0001
,
0000
0100
0010
1000
,
1001
0010
0100
0000
,
0110
0001
1000
0000
,
1001
0000
0110
0000
,
1000
0010
1000
0001
,
0010
0010
0010
0000
0000
0000
0010
0000
,
0001
0001
0001
0000
0000
0000
0001
0000
,
0100
0100
0100
0000
0000
0000
0100
0000
,
1000
1000
1000
0000
0000
0000
1000
0000
,
0010
1000
0001
0000
0100
0000
0110
0000
,
0001
0010
0100
0000
1000
0000
1001
0000
,
0010
0010
0010
0000
0100
0100
0100
0000
,
0001
0000
1000
0000
0001
1000
0010
0100
,
0002
0000
0000
0003
,
0001
0001
0001
0001
,
2000
0000
0000
3000
,
1000
1000
1000
1000
,
0010
0010
0100
0100
,
1000
0001
1000
0001
,
1000
0010
0001
0100
,
0010
0010
0010
0010
,
0000
1000
0010
1000
,
0001
0010
0001
0100
,
0000
0001
0010
0100
,
0010
0001
0100
1000
,
0000
0010
0100
0010
,
1000
0100
1000
0001
,
0000
1000
0010
0100
,
0000
0001
0001
0001
,
0000
0010
0001
0100
,
1000
0010
1000
0100
,
0000
1000
0100
0001
,
0010
0100
0010
0001
,
1001
0001
1000
0100
,
0110
1000
0010
0001
,
1000
0001
1000
0100
,
0010
0010
0010
0010
,
1001
0110
1001
0000
,
0110
1001
0110
0000
,
1000
0010
1000
0000
,
0001
0010
0001
1000
,
0010
1000
0010
0100
,
0001
0010
0100
0010
,
0001
0100
0010
1000
,
0010
0010
0010
0010
,
0000
1001
0000
1001
,
0000
0110
0000
0110
,
0000
1001
0000
1001
,
0000
0110
0000
0110
,
0020
0000
0030
0010
,
0200
0000
0300
0100
,
0001
0100
1000
0100
,
0001
0001
0001
0001
,
0020
0000
0000
0030
,
0001
1000
0001
0000
,
0100
0010
0100
0001
,
0010
0100
1000
0001
,
1000
0010
1000
0100
,
0010
0100
0010
0001
,
0100
0001
1000
0010
,
1000
0100
0001
0001
,
0000
0100
0010
0100
,
0001
0010
0001
1000
,
0000
0010
1000
0000
,
0100
1000
0010
0001
,
0110
0001
0100
1000
,
1001
0010
1000
0001
,
1001
0000
0110
0000
,
0001
0010
1000
0100
,
0010
0010
0010
0000
,
0001
0001
0001
0000
,
0100
0100
0100
0000
,
1000
1000
1000
0000
,
0200
0000
0000
0000
,
0000
0000
0000
0000
,
0300
0000
0000
0000
;

//---------------dance-single - ----------------
#NOTES:
     dance-single:
     :
     Medium:
     11:
     :
0000
0000
0000
0000
,
0000
0000
0000
0000
,
0000
0000
0000
0000
,
0000
0000
0000
0000
,
0000
0000
0000
0000
,
0000
0000
0000
0000
,
0000
0000
0000
0000
,
0000
0000
0000
0000
,
0010
0010
0010
1001
,
1000
0100
0001
0000
,
0010
0001
1000
0100
,
0010
0000
0100
0000
1000
0000
0001
0100
,
0000
0010
0100
0010
0000
0000
1000
0000
,
0100
1000
0001
0000
,
0010
0100
1000
0001
,
0100
0000
1000
0000
0010
0000
0100
0001
,
0000
1000
0100
1000
0100
0000
0010
0000
,
0001
0000
0100
0000
0001
1000
0000
0000
,
0010
0100
0001
1000
,
0100
0000
0010
0000
0001
0000
1000
0010
,
0000
1000
0001
1000
0000
0000
0010
0000
,
1000
0100
0001
0000
,
0110
0001
0100
1000
,
0010
0000
0100
0000
0010
0000
1000
0001
,
0000
0000
0010
0100
0010
0000
0010
0000
,
0001
0100
1000
0000
0000
0000
1001
0000
,
1000
0010
0001
0000
0000
0000
1001
0000
,
0010
0100
1000
0000
0000
0000
0110
0000
,
0001
0100
0010
0000
0000
0000
0110
0000
,
1000
0000
0000
0001
0000
0001
0000
0001
0000
0000
0100
0000
0010
0000
1000
0000
,
0100
0000
0000
0010
0000
0010
0000
0010
0000
0000
0001
0000
1000
0000
0100
0000
,
1000
0001
0110
0000
0100
0010
1001
0000
,
0110
0000
0000
1000
0000
0001
0000
1001
0000
0000
0100
0000
0010
0000
0100
0000
,
0001
0001
0001
0001
,
0001
0001
0001
0001
,
1000
1000
1000
1000
,
1000
1000
1000
1000
,
0010
0010
0100
0100
,
1000
0001
1000
0001
,
0100
0010
0100
0000
0001
1000
0001
0000
,
1000
0001
1000
0000
0010
0100
0010
0000
,
1000
0100
0010
0001
,
0100
0000
0010
0000
1000
0001
1000
0100
,
0000
0010
0001
0100
,
0001
0000
0010
0000
1000
0100
1000
0001
,
0000
0100
0001
0010
,
0100
0000
1000
0000
0010
0100
0001
0100
,
0000
0000
0001
0000
1000
0010
1000
0020
,
0000
0100
0100
1030
,
0001
1000
0100
0000
0010
0000
0001
0000
,
0100
0000
0010
0000
1000
0001
1000
0010
,
0000
1000
0001
0000
0010
0000
0100
0000
,
0010
0000
0001
0000
0100
0010
1000
0010
,
0100
0001
0010
0100
,
1000
0001
1000
0000
0010
0000
0100
0000
,
0001
1000
0001
0000
1000
0100
0010
0000
,
0011
1100
0011
1100
,
0101
0000
0101
0000
0101
0000
1000
0001
,
0100
0000
0100
0000
0100
0000
0010
1000
,
0001
1000
0100
0010
,
0001
1000
0001
1000
0001
1000
0001
0000
,
1010
0000
1010
0000
1010
0000
0001
0100
,
0010
0000
0010
0000
0010
0000
1000
0001
,
0010
0001
0100
1000
,
0101
1010
0101
1010
,
0001
0100
1000
0000
1001
0000
0000
0000
,
0010
1000
0100
0000
0110
0000
0000
0000
,
0001
0010
0100
0000
1001
0000
0000
0000
,
0010
1000
0001
0000
0100
0010
1000
0000
,
0202
0000
0300
0103
,
2200
0000
0300
3100
,
1000
0010
1000
0000
0100
0010
0001
0000
,
0100
0010
0100
0010
0100
0010
0100
0010
,
2000
0000
0000
3000
,
0020
0230
0310
0110
,
0001
0010
0100
0000
1000
0000
0010
0000
,
1000
0000
0001
0000
0010
0100
0010
0001
,
0000
1000
0001
0000
0010
0000
0100
0000
,
1000
0000
0010
0000
0001
0100
0001
1000
,
0000
0010
1000
0000
0100
0000
0010
0001
,
0000
0000
1000
0001
1000
0000
1000
0000
,
0001
0100
0010
0000
1000
0000
0100
0000
,
1000
0010
0100
0000
0001
0000
0010
0100
,
0000
1000
0001
0000
0100
0000
0010
0000
,
1000
0100
0010
0100
0010
0100
2000
0000
,
3001
0100
0010
0000
1000
0000
0001
0000
,
0010
0001
1000
0000
0010
0000
0100
0000
,
0001
1000
0010
0000
0100
0000
0010
1000
,
0000
0001
0100
0001
0100
0000
0100
0000
,
0101
1100
0101
0000
,
0011
1010
0011
0000
,
1000
0010
0100
0000
0001
0010
0100
0000
,
1000
0001
1000
0001
1000
0001
0010
0200
,
0000
0000
0000
0000
,
0000
0000
0000
0000
,
0300
0000
0000
0000
;

//---------------dance-single - ----------------
#NOTES:
     dance-single:
     :
     Hard:
     14:
     :
0000
0000
0000
0000
,
0000
0000
0000
0000
,
0000
0000
0000
0000
,
0000
0000
0000
0000
,
0000
0000
0000
0000
,
0000
0000
0000
0000
,
0000
0000
0000
0000
,
0000
0000
0000
0000
,
0010
0010
0010
1001
,
0001
0100
0010
0100
0001
1000
0000
0010
,
0000
1000
0100
1000
0001
0000
0001
0000
,
0010
0001
0010
0100
1000
0010
1000
0001
,
0000
0100
0010
0100
0010
1000
0001
0100
,
0001
0010
0001
0100
0010
1000
0000
0100
,
0000
0010
0100
0010
0001
0000
0001
0000
,
1000
0010
1000
0100
0010
0001
0100
0010
,
1000
0000
1000
0000
1000
0000
0001
0100
,
0010
1000
0001
1000
0100
0010
0000
0001
,
0000
0100
0010
1000
0001
0000
0001
0000
,
1000
0010
1000
0001
0010
0100
1000
0001
,
0000
0100
0010
0100
0010
1000
0001
0100
,
0001
0010
0100
1000
0010
0100
0000
0010
,
1000
0010
0100
0001
1000
0000
1000
0000
,
0001
0010
0001
0100
0010
1000
0001
0100
,
0000
0010
1000
0001
1000
0000
0100
0000
,
1000
0001
0100
0000
0000
0010
0100
0010
,
1000
0001
0100
0000
0000
0001
0010
0100
,
1000
0001
0100
0000
0000
0010
0100
0001
,
1000
0001
0100
0000
0000
0010
1000
0100
,
1001
0010
1000
0100
1000
0010
0100
0001
,
0110
0001
0010
0100
1000
0010
1000
0001
,
0101
0010
1000
0000
1100
0001
0100
0000
,
0110
0000
0001
1000
0000
1010
0000
0101
0000
0001
1000
0001
1000
0001
1000
0000
,
0100
0100
0100
0100
,
1000
0000
0001
0000
1000
0000
0010
0100
,
0001
0000
0010
0000
0001
0100
1000
0000
,
0010
0000
1000
0001
1000
0000
0100
0000
,
1000
0010
1000
0000
0001
0010
0001
0000
,
1000
0100
1000
0000
0001
0100
0001
0000
,
1000
0100
0010
0001
1000
0010
0100
0001
,
0010
0100
0010
0100
0010
0100
0010
0000
,
0001
0000
0100
0000
0010
0000
0100
0000
0001
0000
0000
1000
0000
0000
0200
0000
,
0000
1300
0001
1000
0001
0100
0010
1000
,
0000
0000
0100
0000
0010
0000
0001
0000
0100
0000
0000
0010
0000
0000
2000
0000
,
0000
3001
0010
0100
1000
0100
0010
0001
,
0000
0000
1000
0000
0001
0000
1000
0000
0010
0000
0000
1000
0000
0000
0002
0000
,
0000
0013
0100
0010
0001
0100
0010
1000
,
0000
0100
1000
0010
1000
0001
0100
0020
,
0000
1030
0100
0010
0001
0000
1001
0000
,
0010
0000
1000
0000
0001
0000
1000
0000
0100
0000
0000
0010
0000
0000
0002
0000
,
0000
1003
0001
0010
0100
0010
0100
1000
,
0000
0000
0010
0000
0100
0000
0001
0000
1000
0000
0000
0100
0000
0000
2000
0000
,
0000
3001
0100
0001
0100
0010
1000
0001
,
0010
0000
0100
0000
0010
0000
0001
0000
1000
0000
0000
1000
0000
0000
1000
0000
,
0010
0000
1000
0000
0001
0000
1000
0000
0100
0000
0000
0100
0000
0000
0100
0000
,
0010
0100
1000
0010
1000
0001
0100
0010
,
1000
1000
0001
0001
,
1000
0010
0001
0010
1000
0010
0100
0000
,
0001
0010
1000
0010
0001
0010
0100
1000
,
0010
1000
0100
0010
0100
0010
0001
0000
,
1000
0010
0001
0010
1000
0100
0001
0000
,
0011
0000
1100
0000
0001
0100
0010
1000
,
0100
0010
0100
0010
0100
0010
0001
1000
,
0010
0100
0010
0100
0001
1000
0001
1000
,
0100
1000
0010
0001
,
1010
0000
0101
0000
1100
0000
0010
0100
,
0001
0000
0010
0000
0100
1000
0010
1000
,
0001
0100
0001
0100
0001
0100
0001
0000
,
1000
0100
1000
0100
1000
0100
1000
0000
,
0010
0000
0000
0010
0000
0000
0010
0000
0000
0010
0000
0000
0010
0000
0000
0000
,
0100
0000
0000
0100
0000
0000
0100
0000
0000
0100
0000
0000
0100
0000
0000
0000
,
1000
0010
0100
0010
1000
0010
0100
0010
,
1000
0010
0100
0010
1000
0010
0100
0001
,
0020
0000
0000
0030
,
0001
0000
1000
0000
0001
0100
2000
0000
,
3001
0000
0100
0000
0010
0000
0100
0000
0010
0000
0000
1000
0000
0000
0002
0000
,
0000
0013
0100
1000
0001
0100
0001
0010
,
0100
0000
0010
0000
0001
0000
0100
0000
1000
0000
0000
0001
0000
0000
0200
0000
,
0000
0310
1000
0010
1000
0010
1000
0001
,
0000
0000
0010
0000
0001
0000
0100
0000
1000
0000
0000
0001
0000
0000
0010
0000
,
0000
0001
0100
0010
1000
0001
0100
0000
,
0001
0000
0010
0000
1000
0000
0010
0000
0001
0000
0000
0100
0000
0000
0020
0000
,
0000
1030
0100
0001
0100
0010
0100
1000
,
0000
0000
0001
0000
1000
0000
0010
0000
1000
0000
0000
0100
0000
0000
0002
0000
,
0000
0013
0001
0100
0001
0010
2000
0000
,
3100
0000
0010
0000
0001
0000
1000
0000
0010
0000
0000
0100
0000
0000
0010
0000
,
1000
0000
0100
0000
0010
0000
0001
0000
1000
0000
0000
0010
0000
0000
1000
0000
,
0001
0010
0001
0100
1000
0100
0010
1000
,
0000
0100
1000
0010
1000
0001
0100
0000
,
1001
0000
1010
0000
0001
0100
1000
0000
,
0011
0000
1100
0000
0010
1000
0100
0000
,
0010
0000
0001
0100
0010
1000
0100
0000
,
1000
0010
1000
0100
0010
0001
0010
0200
,
0000
0000
0000
0000
,
0000
0000
0000
0000
,
0300
0000
0000
0000
;

//---------------dance-single - ----------------
#NOTES:
     dance-single:
     :
     Challenge:
     17:
     :
0000
0000
0000
0000
,
0000
0000
0000
0000
,
0000
0000
0000
0000
,
0000
0000
0000
0000
,
0000
0000
0000
0000
,
0000
0000
0000
0000
,
0000
0000
0000
0000
,
0000
0000
0000
0000
,
0010
0010
0010
1001
,
1000
0000
0100
0000
0010
0000
0001
0100
0001
0000
1000
0000
0000
0000
0020
0000
,
0000
0000
1030
0000
0010
0000
1000
0001
1000
0000
0100
0000
0020
0000
0000
0000
,
0031
0000
1000
0000
0010
0000
0100
0001
0100
0000
0010
0000
1000
0000
0002
0000
,
0000
0000
0013
0100
0010
0100
0010
0100
1000
0000
0001
0100
0001
0000
1000
0000
,
0010
0100
0010
0000
1000
0000
0100
0010
0100
0000
1000
0000
0000
0000
0002
0000
,
0000
0000
0103
0000
0010
0000
1000
0100
1000
0000
0001
0100
0001
0000
0000
0000
,
0010
0000
0001
0000
0100
0000
0010
0000
1000
0001
1000
0000
0100
0000
0020
0000
,
0001
0000
0000
0000
1000
0000
0000
0000
0031
0000
0010
0100
1000
0000
0001
0000
,
0100
0000
1000
0000
0100
0000
0010
1000
0100
0000
0001
0000
0000
0000
2000
0000
,
0000
0000
3010
0000
1000
0100
0010
0100
1000
0000
0001
0100
0010
0000
0000
0000
,
1000
0000
0100
0000
0010
0000
0001
0000
0100
0010
0100
0000
0001
0000
2000
0000
,
0000
0000
3010
0100
0010
0100
0010
0100
0001
0000
0010
0001
1000
0000
0100
0000
,
0010
0000
0001
0100
0001
0000
1000
0100
1000
0000
0010
0000
0100
0000
0002
0000
,
0000
0000
0013
0000
0001
1000
0001
0100
0010
0000
1000
0100
1000
0000
0000
0000
,
0010
0000
0100
0000
0010
0000
1000
0100
1000
0010
0100
0001
0010
0000
0100
0000
,
0001
0100
1000
0100
0001
0100
0010
0000
,
0010
0000
0001
0000
1000
0000
0000
0000
0000
0000
0010
0100
0010
0000
1000
0000
,
0001
0000
1000
0000
0100
0000
0000
0000
0000
0000
1000
0001
1000
0000
0010
0000
,
0100
0000
0001
0000
0010
0000
0000
0000
0000
0000
0100
1000
0100
0000
0010
0000
,
0100
0000
1000
0000
0010
0000
0000
0000
0000
0000
0001
0100
0001
0000
1000
0000
,
1001
0000
0010
1000
0010
0100
0000
0001
0000
0010
0001
0100
0010
1000
0001
0100
,
0010
0000
1000
0100
1000
0001
0000
0100
0000
0010
1000
0001
0010
0100
1000
0001
,
0101
0000
0010
1000
0010
0100
0001
1000
1100
0000
0010
0100
0010
0001
1000
0100
,
0110
0000
0000
0000
0001
0000
0100
0010
0100
0000
1000
0000
0100
0000
0001
0000
0000
0000
0010
0000
0010
0000
0010
0000
0010
0000
0010
0100
0010
0000
0010
0000
,
1000
0000
0010
0000
0001
0000
1000
0000
0010
0000
0100
0001
0100
0000
0010
0000
,
1000
0000
0000
0000
0001
0000
0000
0000
1000
0010
1000
0010
1000
0000
0001
0000
,
0100
0000
0010
0000
0100
0000
1000
0000
0100
0000
0001
1000
0001
0000
0010
0000
,
0001
0100
0010
1000
0100
0010
0001
0000
,
1000
1000
0010
0010
0001
0001
0100
0100
,
0001
0001
0010
0010
1000
1000
0100
0100
,
0010
0001
0010
0001
1000
0010
1000
0010
0100
0001
0100
0001
1000
0100
1000
0100
,
0010
0000
0100
0000
1000
0010
0100
0001
0010
0100
1000
0001
0100
0000
0000
0000
,
0001
0000
0010
0000
1000
0000
0100
0000
1000
0010
0000
0100
0001
0000
0020
0000
,
0000
0130
0010
0001
0100
1000
0001
0100
,
0000
0000
0010
0000
1000
0000
0100
0000
0001
0000
1000
0001
0100
0000
0020
0000
,
0000
1030
0001
0010
1000
0100
1000
0001
,
0000
0000
0100
0000
0010
0000
1000
0000
0100
0000
0010
0001
0000
0001
2000
0000
,
0000
3010
1000
0100
0001
1000
0001
0100
,
0000
0000
0010
0000
1000
0000
0100
0000
1000
0001
0100
0001
1000
0000
0200
0000
,
0000
0000
0310
0001
0100
0000
0010
0000
1000
0000
0001
1000
0100
0000
0000
0000
,
1000
0000
0001
0100
0001
0000
0010
0000
0100
0000
1000
0001
0000
0001
0200
0000
,
0000
0000
0310
0000
1000
0000
0100
0000
0001
0000
0010
0100
0010
0000
0001
0000
,
0000
0000
1000
0000
0010
0000
0100
0000
0001
0000
0010
0100
0000
0100
2000
0000
,
0000
0000
3001
1000
0010
0000
0100
0000
1000
0000
0100
0000
0001
0000
1000
0000
,
0010
0000
1000
0100
0010
0000
0001
0000
0100
0010
0000
0010
1000
0000
0001
0000
,
0100
0000
0010
0000
1000
0100
0010
0100
1000
0000
0001
0100
0000
0001
0010
0000
,
0100
0000
0010
0000
0001
0000
1000
0000
0010
0100
0010
1000
0001
0000
0100
0010
,
1000
1000
0001
0001
,
0010
0001
0010
0000
0010
0001
0010
0000
0010
0001
0010
0001
0010
0000
0100
0000
,
1000
0010
1000
0000
1000
0010
1000
0000
1000
0010
1000
0000
0001
0010
0100
0000
,
1000
0001
1000
0000
1000
0001
1000
0000
1000
0001
1000
0001
1000
0000
0010
0000
,
0100
0000
0010
0000
0001
0000
0010
0000
1000
0010
0100
0010
1000
0000
0001
0000
,
0010
0100
0010
0000
0100
0010
0100
0000
0010
0100
0010
0100
1000
0000
0001
0000
,
1000
0010
1000
0000
0001
0100
0001
0000
1000
0010
1000
0010
0100
0000
0001
0000
,
0100
0010
0100
0000
0001
1000
0001
0000
0010
0100
0010
0100
1000
0000
0001
0000
,
0100
0000
1000
0000
0100
0000
0001
0000
0010
0100
0010
0001
1000
0000
0100
0000
,
1000
0010
0000
0000
0100
0001
0000
0000
0010
0001
0000
0000
1000
0100
0000
0000
,
0010
0100
0000
0000
0010
0001
0000
0000
0100
0010
0000
0000
1000
0001
0000
0000
,
1000
0010
0000
0000
1000
0100
0000
0000
0001
0010
0000
0000
0100
0001
0000
0000
,
0100
0010
0000
0000
0100
1000
0000
0000
0010
1000
0010
0100
0001
0000
1000
0000
,
1100
0000
0000
0110
0000
0000
0011
0000
0000
0110
0000
0000
1100
0000
0000
0000
,
0101
0000
0000
0110
0000
0000
1010
0000
0000
0110
0000
0000
0101
0000
0000
0000
,
1000
1000
0100
0100
0001
0001
0010
0010
,
1000
0001
1000
0001
1000
0001
1000
0001
1000
0001
1000
0001
1000
0001
1000
0002
,
2000
0000
0000
3003
,
0001
0000
0010
0100
1000
0000
0010
0100
0001
0000
0010
0100
1000
0000
0000
0000
,
0010
0000
1000
0000
0100
0000
0001
0000
0100
0000
1000
0010
0000
0100
0002
0000
,
0000
0013
0100
0001
0100
1000
0100
0010
,
0001
0000
1000
0000
0010
0000
0100
0000
0010
0000
1000
0100
0000
0100
0002
0000
,
0000
1003
0010
0100
0010
0001
0010
1000
,
0000
0000
0100
0000
1000
0000
0010
0000
0100
0001
0010
0001
1000
0000
0200
0000
,
0000
0000
0310
0100
1000
0000
0010
0000
0100
0000
0001
1000
0100
0000
0000
0000
,
1001
0000
0010
0000
1000
0000
0100
0000
0001
0000
0010
0100
0000
1000
0002
0000
,
0000
0103
0010
1000
0100
0001
0010
0100
,
0000
0000
1000
0000
0010
0000
0001
0000
0100
0000
0010
1000
0000
0001
0200
0000
,
0000
1300
0100
0001
0010
1000
0001
0100
,
0010
0000
1000
0000
0100
0000
0001
0000
0010
0001
0000
1000
0100
0000
0010
0000
,
0100
0000
1000
0001
1000
0000
0010
0000
0100
0000
0001
0010
0000
0100
1000
0000
,
0010
0000
1000
0001
1000
0000
0100
0000
0010
0001
0010
0100
1000
0000
0001
0000
,
0100
0000
0010
0000
1000
0000
0010
0000
0100
0000
0001
1000
0001
0000
0000
0000
,
0011
0000
0110
0000
1100
0001
0100
0010
,
1001
0000
0000
0000
0010
1000
0010
1000
0010
0000
0100
0001
1000
0000
0000
0000
,
0001
0010
0100
0010
0001
0000
1000
0000
0010
0100
0001
0100
0010
0000
1000
0000
,
0001
0010
0100
0010
0001
0100
0010
0100
0001
0010
0100
0010
0001
1000
0200
0000
,
0000
0000
0000
0000
,
0000
0000
0000
0000
,
0300
0000
0000
0000
;
