#TITLE:Anti-Matter;
#SUBTITLE:;
#ARTIST:Orbit1 & Milo;
#TITLETRANSLIT:;
#SUBTITLETRANSLIT:;
#ARTISTTRANSLIT:;
#GENRE:;
#CREDIT:;
#BANNER:Anti-Matter-bn.png;
#BACKGROUND:Anti-Matter-bg.png;
#LYRICSPATH:;
#CDTITLE:;
#MUSIC:Anti-Matter.ogg;
#OFFSET:0.000000;
#SAMPLESTART:20.400000;
#SAMPLELENGTH:20.000000;
#SELECTABLE:YES;
#DISPLAYBPM:200.000000;
#BPMS:0.000000=200.000000
;
#STOPS:
;
#BGCHANGES:0.000=Anti-Matter.avi=1.000=1=0=0=StretchNoLoop==CrossFade==,
332.000=Anti-Matter-bg.png=1.000=1=0=0=StretchNoLoop==CrossFade==,
99999=-nosongbg-=1.000=0=0=0 // don't automatically add -songbackground-
;
#KEYSOUNDS:;
#ATTACKS:;

//---------------dance-single - ----------------
#NOTES:
     dance-single:
     :
     Hard:
     13:
     0.659612,0.772979,0.019606,0.392126,0.421536,471.000000,469.000000,2.000000,40.000000,0.000000,0.000000,0.659612,0.772979,0.019606,0.392126,0.421536,471.000000,469.000000,2.000000,40.000000,0.000000,0.000000:
0000
0000
0000
0000
,
0000
0000
0000
0000
,
0000
0000
0000
0000
,
0000
0000
0000
0000
,
0000
0000
0000
0000
,
0000
0000
0000
0000
,
0000
0000
0000
0000
,
0000
0000
0000
0000
,
0000
0000
0000
0000
,
0001
0000
0010
0000
0001
0000
0100
0000
1000
0000
0000
1000
0000
0000
1000
0000
,
0000
0010
1000
0100
1000
0010
0000
0100
,
0001
0000
0010
0001
1000
0010
0000
0100
,
0000
0010
1000
0001
1000
0100
0010
0001
,
0100
0000
0010
0000
0100
0000
0001
0000
1000
0000
0000
1000
0000
0000
1000
0000
,
0001
0010
0001
0100
0001
1000
0000
0100
,
0010
0001
0010
0001
1000
0010
1000
0001
,
0200
0000
0000
0000
,
0310
0000
0000
0010
0000
0000
1000
0000
0001
0000
1000
0000
0200
0000
0000
0000
,
1300
0000
0000
1000
0000
0000
0001
0000
0010
0000
0001
0000
0100
0000
0010
0000
,
1000
0000
0000
1000
0000
0000
0001
0000
0010
0000
0001
0000
0200
0000
0000
0000
,
0310
1000
0010
0100
0000
0001
0010
1000
,
0100
0000
0000
0100
0000
0000
0010
0000
0001
0000
1000
0000
0020
0000
0000
0000
,
0130
0000
0000
0100
0000
0000
0001
0000
0010
0000
0100
0000
1000
0000
0001
0000
,
1000
0000
0000
1000
0000
0000
0010
0000
0100
0000
0001
0000
0020
0000
0000
0000
,
0130
1000
0000
0000
0100
1000
0000
0000
0001
0100
0000
0000
0001
0100
0000
0000
,
0010
0010
0010
1000
0001
1000
0200
0000
,
0310
0000
0000
0001
0000
0000
1000
0000
0001
0000
0100
0000
0010
0000
1000
0000
,
0100
0000
0000
0010
0000
0000
0100
0000
1000
0000
0001
0000
0020
0000
0000
0000
,
0031
0100
0010
1000
0000
1000
0100
0001
,
0020
0000
0031
0100
0001
1000
0020
0000
,
0130
0000
0000
0010
0000
0000
1000
0000
0100
0000
1000
0000
0001
0000
0100
0000
,
0010
0000
0000
1000
0000
0000
0001
0000
0010
0000
0100
0000
2000
0000
0000
0000
,
3001
0100
0010
0100
0001
0010
0001
0100
,
0010
0000
1000
0000
0010
0000
0100
0000
0001
0000
0000
0001
0000
0000
1000
0000
,
0000
0010
0000
0000
0200
0000
0000
0000
0000
0000
0000
0001
0000
0000
0301
0000
,
0100
0000
0010
0000
1000
0000
0010
0000
0100
0000
0000
0100
0000
0000
0001
0000
,
0000
0000
1000
0000
0000
0001
0000
0000
1000
0010
0000
0000
0100
0001
0000
0000
,
0010
0000
0100
0000
0010
0000
0001
0000
1000
0000
0000
0010
0000
0000
0100
0001
,
0000
0000
1000
0000
0000
0001
0000
0000
1000
0001
0000
0000
0010
0100
0000
0000
,
2200
0000
0000
0000
,
0000
0000
0300
0000
0001
3001
1001
0000
,
0100
0000
0001
0000
1000
0000
0001
0000
0020
0000
0000
0230
0000
0000
2300
0000
,
0000
3020
0000
0000
0230
0000
0000
0000
0301
0000
0000
1000
0000
0000
0001
0000
,
0010
0000
0001
0000
1000
0000
0010
0000
0200
0000
0000
0302
0000
0000
2003
0000
,
0000
0000
3002
0000
0000
0023
0000
0000
0130
1000
0000
0000
0001
0100
0000
0000
,
0010
0000
1000
0000
0001
0000
1000
0000
0200
0000
0000
0320
0000
0000
0031
1000
,
0000
0000
0002
0000
0000
0203
0000
0000
0301
1000
0000
0000
0010
0100
0000
0000
,
0001
0000
0010
0000
0001
0000
0100
0000
1000
0000
0000
1000
0000
0000
1000
0000
,
0020
0000
0000
0000
,
0130
0000
0000
0001
0000
0000
1000
0000
0001
0000
0010
0000
0200
0000
0000
0000
,
1300
0000
0000
0001
0000
0000
1000
0000
0010
0000
0100
0000
0001
0000
1000
0000
,
0001
0000
0000
0010
0000
0000
0100
0000
1000
0000
0010
0000
2000
0000
0000
0000
,
3001
0010
0001
0100
0010
1000
0001
0100
,
0010
0000
0000
0010
0000
0000
0100
0000
0001
0000
1000
0000
0200
0000
0000
0000
,
0310
0000
0000
0001
0000
0000
0100
0000
0001
0000
0010
0000
0001
0000
1000
0000
,
0100
0000
0000
0100
0000
0000
1000
0000
0001
0000
1000
0000
0020
0000
0000
0000
,
0130
0001
0000
0000
0100
0001
0000
0000
1000
0100
0000
0000
1000
0100
0000
0000
,
0010
0010
0010
0001
1000
0001
0200
0000
,
0310
0000
0000
1000
0000
0000
0001
0000
1000
0000
0100
0000
0010
0000
0001
0000
,
0100
0010
0100
0010
0100
0000
0001
0000
1000
0000
0001
0000
0200
0000
0000
0000
,
0310
1000
0010
0000
0100
0000
0001
0000
0010
0000
0100
0000
1000
0000
0001
0000
,
0100
0000
0000
0001
0000
0000
1000
0000
0001
0000
0010
0000
0200
0000
0000
0000
,
1300
0000
0000
1000
0000
0000
0010
0000
1000
0000
0100
0000
0010
0000
0001
0000
,
0100
0000
0000
0001
0000
0000
0010
0000
0100
0000
1000
0000
0002
0000
0000
0000
,
1003
0010
0000
0000
1000
0001
0000
0000
0100
0000
0100
0000
0100
0000
0000
0000
,
0001
0010
0001
0100
0000
0010
0000
1000
,
0000
0100
0000
0010
0001
0100
1000
0100
,
0001
0010
0001
0100
0000
0010
0000
1000
,
0000
0100
0000
0010
0001
0100
1000
0100
,
0001
1000
0001
0010
0000
0100
1000
0100
,
0000
0010
0000
0001
0100
1000
0100
0001
,
0100
0010
1000
0001
0010
0100
1000
0001
,
0200
0000
0020
0300
,
1030
0010
0000
0000
1000
0010
0000
0000
0100
0001
0000
0000
0100
0001
0000
0000
,
1000
0100
0000
0000
1000
0100
0000
0000
0010
0001
0000
0000
0010
0001
0000
0000
,
0100
0010
0000
0000
0100
0010
0000
0000
1000
0001
0000
0000
1000
0001
0000
0000
,
1000
0010
0000
0000
0100
0001
0000
0000
1000
0100
0000
0000
0010
0001
0000
0000
,
1000
0010
0000
0000
1000
0001
0000
0000
0010
0100
0000
0000
0010
0001
0000
0000
,
0100
0001
0000
0000
0100
0010
0000
0000
0100
0001
0000
0000
1000
0100
0000
0000
,
1000
0010
1000
0001
1000
0100
0010
0001
,
0100
0000
0010
0000
0000
0000
1000
0000
0000
0000
0001
0000
1000
0100
1000
0200
,
2000
0000
0000
0000
,
0000
0000
0000
0000
,
3300
0000
0000
0000
;

//---------------dance-single - ----------------
#NOTES:
     dance-single:
     :
     Medium:
     10:
     0.548977,0.732295,0.392126,0.313701,0.000000,392.000000,352.000000,40.000000,32.000000,0.000000,0.000000,0.548977,0.732295,0.392126,0.313701,0.000000,392.000000,352.000000,40.000000,32.000000,0.000000,0.000000:
0000
0000
0000
0000
,
0000
0000
0000
0000
,
0000
0000
0000
0000
,
0000
0000
0000
0000
,
0000
0000
0000
0000
,
0000
0000
0000
0000
,
0000
0000
0000
0000
,
0000
0000
0000
0000
,
0000
0000
0000
0000
,
0001
0010
0001
0000
0000
1000
0000
0010
,
0000
0100
0001
0000
0000
1000
0100
1000
,
0010
0000
0110
0000
0000
0100
0001
0000
,
1000
0000
1001
0000
0000
0001
0010
0100
,
1000
0010
1000
0000
0001
0000
0100
0000
,
0001
0010
0100
0000
1000
0010
0100
0000
,
0001
0000
0001
0000
0001
1000
0001
1000
,
0020
0000
0000
0000
,
0130
0000
0100
0000
0001
0010
1000
0000
,
0100
0000
0010
0000
0000
0001
1000
0001
,
0100
0000
0100
0000
0010
1000
0001
0000
,
0010
0000
0100
0000
1000
0001
0100
0000
,
0010
0000
0010
0000
1000
0100
0001
0000
,
1000
0000
0100
0000
0000
0010
0001
0010
,
0100
0000
0100
0000
1000
0010
0001
0000
,
0101
1100
0101
1100
,
0001
1000
0001
0000
0010
0100
1000
0000
,
0001
0000
1000
0000
0000
0001
0100
0010
,
0100
0000
0001
0000
0010
0100
1000
0000
,
0001
0000
0010
0000
0001
1000
0100
0000
,
1010
0000
0101
0000
1000
0001
0010
0000
,
0011
0000
1100
0000
0000
0010
1000
0100
,
1000
0000
0001
0000
0010
0001
0100
0000
,
0002
2003
3002
2003
,
3010
1000
0100
1000
0002
0000
0010
0000
,
1003
0001
0200
0000
0000
0000
0310
0000
,
0100
0001
0010
0001
2000
0000
0100
0000
,
0010
3010
2000
3002
,
0013
0001
0100
0000
0110
0000
1001
0000
,
0110
0000
1000
0000
0100
0010
0001
0000
,
2200
0000
0000
0000
,
0000
0000
0300
0000
3001
1000
0001
0000
,
0010
0001
0100
0001
1000
0000
1000
0000
,
0010
1000
0200
0000
0001
0000
1300
0000
,
0100
0010
0100
1000
0002
0000
0100
0000
,
0010
0000
0010
0000
1003
0100
1000
0000
,
1001
0000
0110
0000
1000
0000
0001
0200
,
0000
0320
0000
2030
0000
3100
0001
0000
,
0010
0001
0100
0000
0010
1000
0100
0000
,
0002
0000
0000
0000
,
1003
0000
0001
0000
0010
0100
1000
0000
,
0010
0000
1000
0001
0000
1000
0100
0000
,
0010
0000
0010
0000
0001
0100
1000
0000
,
0001
0100
0001
0000
1000
0100
1000
0000
,
0010
0000
0100
0000
0010
1000
0001
0000
,
0100
0000
0001
0010
0000
0001
1000
0000
,
0010
0000
0100
0000
0001
1000
0100
0000
,
1010
0011
1010
0011
,
1000
0001
1000
0000
0010
0100
0001
0000
,
0010
0000
0001
0000
0100
0010
1000
0000
,
0001
1000
0001
0000
0010
0100
1000
0000
,
0010
0000
0100
0000
0001
0100
0010
0000
,
1010
0000
0101
0000
1000
0010
0001
0000
,
0011
0000
1100
0000
0100
1000
0001
0000
,
0100
0000
0010
1000
0100
0010
0001
0000
,
1000
0001
1000
0000
0010
0100
0010
0000
,
2000
0010
0000
0001
0000
0100
0000
0010
,
0000
0100
0000
0010
0000
3100
1000
0001
,
0000
0020
0000
0001
0000
1000
0000
0001
,
0000
0100
0000
1000
0000
0130
0010
0000
,
0001
1000
0001
0200
0000
0320
0000
2030
,
0000
3200
0000
2300
0000
3002
0000
0103
,
0010
1000
0001
0000
0010
0000
0001
0100
,
2000
0000
3001
1000
0200
0000
0300
0000
,
0011
0011
1100
1100
,
0101
0101
1010
1010
,
1001
0110
1001
0110
,
1010
0101
0011
1100
,
0001
0100
0001
2000
0000
3020
0000
2030
,
0000
3100
0010
0001
0000
0100
0001
1000
,
0010
0000
1000
0001
1000
0100
0010
0001
,
0100
0010
0000
1000
0000
0001
0010
0100
,
2000
0000
0000
0000
,
0000
0000
0000
0000
,
3000
0000
0000
0000
;

//---------------dance-single - ----------------
#NOTES:
     dance-single:
     :
     Easy:
     7:
     0.385124,0.528880,0.196063,0.176457,0.000000,275.000000,255.000000,20.000000,18.000000,0.000000,0.000000,0.385124,0.528880,0.196063,0.176457,0.000000,275.000000,255.000000,20.000000,18.000000,0.000000,0.000000:
0000
0000
0000
0000
,
0000
0000
0000
0000
,
0000
0000
0000
0000
,
0000
0000
0000
0000
,
0000
0000
0000
0000
,
0000
0000
0000
0000
,
0000
0000
0000
0000
,
0000
0000
0000
0000
,
0000
0000
0000
0000
,
0001
0010
0001
1000
,
0000
0010
0100
0001
,
0000
0010
0100
1000
,
0000
0001
0000
1000
,
0001
0100
0010
0100
,
0000
0010
1000
0000
,
0001
0001
1000
1000
,
0020
0000
0000
0000
,
0130
0100
0010
1000
,
0001
0010
0001
1000
,
0010
0010
1000
0100
,
1000
0001
1000
0100
,
0010
0010
0001
0100
,
0001
0010
1000
0100
,
1000
1000
0001
0100
,
0020
2030
3020
2030
,
3001
1000
0100
0100
,
1000
0010
0001
0100
,
0001
0010
0001
0100
,
0010
1000
0100
0010
,
1001
0110
1000
0100
,
1001
0110
0001
1000
,
0001
0100
1000
1000
,
0000
0010
0100
0100
,
0001
0010
0001
1000
,
0020
0000
0000
0130
,
0010
1000
0100
0010
,
0002
0000
1000
1003
,
0001
0100
1000
0000
,
0010
0000
1000
0001
,
2200
0000
0000
0000
,
0000
0300
3001
1001
,
0010
0010
1000
1000
,
0010
0100
0010
0100
,
0001
0010
0001
0001
,
0001
0100
0010
1000
,
0100
1000
0010
1000
,
0100
0010
0001
0100
,
0001
0001
1000
1000
,
0020
0000
0000
0000
,
0130
0010
0100
0001
,
0010
0001
0100
1000
,
0010
0100
0001
0001
,
1000
0100
1000
1000
,
0001
0010
0001
0100
,
1000
0001
0010
1000
,
0100
0100
0010
0001
,
0200
0302
0203
0302
,
1003
0001
1000
0010
,
1000
0100
0010
0010
,
0010
0001
0100
0001
,
0010
0001
0100
1000
,
1001
0110
1000
0100
,
1001
0110
0001
0010
,
0001
0001
1000
0100
,
0010
0010
0010
0010
,
0002
0100
0000
0100
,
0000
1000
0000
1003
,
0000
0200
0000
0010
,
0000
1000
0000
0301
,
1000
1000
0001
0001
,
1000
0000
0010
0000
,
0100
0001
0100
0001
,
0010
0100
1000
0000
,
1010
0100
0001
0010
,
0011
0100
1000
0010
,
0101
1000
0010
0001
,
1100
0010
1000
0001
,
0101
0010
1100
0001
,
1010
0100
1001
0010
,
1000
0100
0010
0001
,
0110
0000
1002
0100
,
2000
0000
0000
0000
,
0000
0000
0000
0000
,
3003
0000
0000
0000
;

//---------------dance-single - ----------------
#NOTES:
     dance-single:
     :
     Beginner:
     4:
     0.189061,0.284782,0.000000,0.039213,0.000000,135.000000,135.000000,0.000000,4.000000,0.000000,0.000000,0.189061,0.284782,0.000000,0.039213,0.000000,135.000000,135.000000,0.000000,4.000000,0.000000,0.000000:
0000
0000
0000
0000
,
0000
0000
0000
0000
,
0000
0000
0000
0000
,
0000
0000
0000
0000
,
0000
0000
0000
0000
,
0000
0000
0000
0000
,
0000
0000
0000
0000
,
0000
0000
0000
0000
,
0000
0000
0000
0000
,
0001
0000
0000
0000
,
1000
0000
0000
0000
,
0001
0000
0000
0000
,
0100
0000
0000
0000
,
0010
0000
0000
0000
,
1000
0000
0000
0000
,
0100
0000
1000
0000
,
0001
0000
0000
0000
,
0000
0000
0100
0100
,
0000
0000
0010
0010
,
0000
0000
1000
1000
,
0000
0001
0000
1000
,
0000
0001
0000
0100
,
0000
0010
0000
0100
,
0000
0000
0010
0010
,
0010
0000
1000
0000
,
0001
0000
0000
1000
,
0000
0000
0100
0100
,
0000
0000
0010
0010
,
0000
0001
0000
0100
,
0100
0000
0010
0000
,
0100
0100
0000
0000
,
0001
0000
1000
0000
,
0010
0000
0100
0000
,
0001
0001
0001
0000
,
1000
0000
0000
0000
,
0100
0100
0100
0000
,
1000
0000
0001
0000
,
1000
1000
1000
0000
,
0010
0000
0100
0000
,
0002
0000
0000
0000
,
0000
0000
0003
0000
,
0010
0010
0010
0000
,
0001
0000
0100
0000
,
0010
0010
0010
0000
,
1000
0000
0001
0000
,
1000
1000
1000
0000
,
0100
0000
0010
0000
,
0001
0000
1000
0000
,
0001
0000
0000
0000
,
0010
0000
0100
0000
,
1000
1000
1000
0000
,
0010
0000
1000
0000
,
0001
0001
0000
0100
,
0000
0000
0010
0010
,
0000
0100
0000
0100
,
0000
0001
0000
1000
,
1000
0000
0100
0000
,
1000
1000
1000
0000
,
0001
0001
0001
0000
,
0010
0010
0000
0000
,
0001
0001
0000
0000
,
0100
0000
0100
0000
,
0010
0000
0100
0000
,
0001
0001
0001
0000
,
1000
0000
0000
0000
,
0200
0000
0000
0000
,
0000
0000
0300
0000
,
0020
0000
0000
0000
,
0000
0000
0030
0000
,
0001
0000
0001
0000
,
0001
0000
0000
0000
,
0100
0000
0010
0000
,
1000
0000
0000
0000
,
0010
0010
0000
0010
,
0000
0100
0000
0100
,
0000
0001
0000
1000
,
0000
0001
0000
0100
,
0000
0010
0000
1000
,
0000
0100
0000
1000
,
0000
0001
0000
0100
,
0100
0000
0000
0000
,
2000
0000
0000
0000
,
0000
0000
0000
0000
,
3000
0000
0000
0000
;

//---------------dance-single - ----------------
#NOTES:
     dance-single:
     :
     Challenge:
     17:
     0.992919,1.220492,0.019606,0.274488,0.985217,709.000000,707.000000,2.000000,28.000000,0.000000,0.000000,0.992919,1.220492,0.019606,0.274488,0.985217,709.000000,707.000000,2.000000,28.000000,0.000000,0.000000:
// measure 0
0000
0000
0000
0000
,  // measure 1
0000
0000
0000
0000
,  // measure 2
0000
0000
0000
0000
,  // measure 3
0000
0000
0000
0000
,  // measure 4
0000
0000
0000
0000
,  // measure 5
0000
0000
0000
0000
,  // measure 6
0000
0000
0000
0000
,  // measure 7
0000
0000
0000
0000
,  // measure 8
0000
0000
0000
0000
,  // measure 9
0001
0000
0010
0000
0001
0000
0100
0000
0010
1000
0000
1000
0010
0000
0100
0000
,  // measure 10
0000
0000
0001
0000
1000
0100
1000
0000
0010
0000
0100
0000
0001
0000
1000
0000
,  // measure 11
0000
0000
0100
0000
0010
0001
0010
0000
1000
0000
0100
0000
1000
0000
0001
0000
,  // measure 12
0000
0000
0100
0000
0010
1000
0010
0000
0100
0000
0001
0000
1000
0100
1000
0000
,  // measure 13
0010
0000
0100
0000
0001
0000
1000
0000
0001
0010
0000
0010
0001
0000
0100
0000
,  // measure 14
0000
0000
0010
0000
1000
0001
1000
0000
0100
0000
0010
0000
0001
0000
1000
0000
,  // measure 15
0001
0100
0001
0100
0010
1000
0010
1000
0001
0010
0001
0010
0100
1000
0100
1000
,  // measure 16
0002
0000
0000
0000
0000
0000
0000
0000
1003
0100
1000
0100
1000
0100
1000
0100
,  // measure 17
0010
0000
0000
0001
0100
0000
0010
0000
1000
0000
0100
0000
0020
0000
0000
0000
,  // measure 18
0031
1000
0000
0001
1000
0000
0010
0000
1000
0000
0100
0000
1000
0000
0001
0000
,  // measure 19
0100
0000
0001
0010
0001
0000
0100
0000
1000
0000
0010
0000
0200
0000
0000
0000
,  // measure 20
0301
0010
0001
0000
0100
0000
1000
0000
0010
0000
0100
0000
1001
0000
0010
0000
,  // measure 21
1000
0100
0000
0100
0010
0000
0001
0000
0100
0000
0001
0000
2000
0000
0000
0000
,  // measure 22
3010
1000
0000
1000
0001
0000
0100
0000
0010
0000
1000
0000
0100
0000
0010
0000
,  // measure 23
0001
0000
0100
0010
0100
0000
0001
0000
1000
0000
0100
0000
0020
0000
0000
0000
,  // measure 24
0031
1000
0001
0000
1000
0001
1000
0000
0010
1000
0010
0100
0010
1000
0010
0000
,  // measure 25
0100
0100
0100
0001
0010
0001
2000
0000
,  // measure 26
3010
1000
0000
0010
0100
0000
0001
0000
0010
0000
0100
0000
1000
0001
1000
0000
,  // measure 27
0010
0000
0100
0001
0100
0000
0010
0000
1000
0000
0100
0000
0002
0000
0000
0000
,  // measure 28
0013
0100
1000
0000
0001
0000
0100
0000
0001
0000
0010
0000
1000
0100
1000
0000
,  // measure 29
0001
0000
0100
0001
0010
0000
0100
0000
1000
0000
0001
0000
0200
0000
0000
0000
,  // measure 30
0301
0100
0000
0010
0100
0000
0001
0000
1000
0000
0100
0000
0010
0001
1000
0000
,  // measure 31
0001
0010
0000
0010
0100
0000
1000
0000
0010
0100
0010
1000
0001
0000
0100
0000
,  // measure 32
0001
0000
0010
0000
0001
1000
0100
0000
0010
0000
0001
1000
0001
0010
0100
1000
,  // measure 33
0010
0000
0100
0000
0010
0000
1000
0000
0100
0010
0000
0010
0001
0000
2000
0000
,  // measure 34
0000
3020
0000
0000
1030
0000
0001
0100
0001
0000
1000
0010
0000
0100
0001
0000
,  // measure 35
0010
0000
0100
0000
0010
0000
0100
0000
1000
0000
0001
0100
0000
0001
0100
0000
,  // measure 36
0000
0000
0020
0000
0000
2030
0000
0000
3100
0010
0001
0100
0001
0010
0100
0000
,  // measure 37
1000
0001
1000
0000
0010
0000
0100
0000
0002
0000
0000
0023
0000
0000
0031
1000
,  // measure 38
0000
0000
0100
0000
0000
0100
0000
0000
1000
0010
0000
1000
0100
0010
0001
0000
,  // measure 39
2100
0000
0001
0000
0001
0000
0001
0000
0001
0000
0000
0001
0000
0000
0001
0000
,  // measure 40
3001
0010
0100
0010
0100
0010
0100
0010
0001
0000
0001
0000
0001
0000
0000
0000
,  // measure 41
0010
0000
0001
0000
0100
0000
0001
0000
1000
0010
0000
1000
0010
0000
0100
0001
,  // measure 42
0000
0100
0001
0000
2000
0000
0000
0000
3100
0000
0000
0010
0000
0000
0001
0100
,  // measure 43
0001
0000
1000
0000
0100
0000
1000
0000
0010
0100
0000
0010
0100
0000
0001
0000
,  // measure 44
0000
0000
1000
0100
0000
0100
0010
0000
0001
0100
0010
0100
0001
1000
0001
0000
,  // measure 45
0010
0100
1000
0000
0001
0000
0100
0000
0020
0000
0000
2030
0000
0000
3100
0010
,  // measure 46
0000
0001
0100
0000
0010
0000
1000
0000
0100
0010
0100
1000
0010
0100
0001
0000
,  // measure 47
1000
0010
1000
0010
0100
0001
0100
0001
0010
0100
0010
0100
1000
0001
1000
0001
,  // measure 48
0200
0000
0000
0000
0000
0000
0000
0000
0301
1000
0001
1000
0001
1000
0001
1000
,  // measure 49
0100
0000
0010
0001
0100
0000
0010
0000
1000
0000
0100
0000
0002
0000
0000
0000
,  // measure 50
0013
0001
0000
0100
0001
0000
1000
0000
0010
0000
0100
0000
0001
1000
0010
0000
,  // measure 51
0100
0000
0001
0010
0100
0000
1000
0010
1000
0000
0001
0000
0200
0000
0000
0000
,  // measure 52
0301
0010
0001
0000
0100
0000
0010
0000
1000
0000
0100
0010
0001
0000
1000
0000
,  // measure 53
0001
0000
0100
0010
1000
0000
0001
1000
0100
0000
0010
0000
0002
0000
0000
0000
,  // measure 54
0103
0000
0010
1000
0001
0000
0010
0000
0100
0000
1000
0000
0010
0100
0001
0000
,  // measure 55
1000
0100
0000
1000
0100
0000
0010
0000
0001
0000
0100
0000
0020
0000
0000
0000
,  // measure 56
1030
0100
1000
0000
0001
0100
0001
0000
1000
0100
1000
0000
0001
0100
0001
0000
,  // measure 57
0010
0010
0010
0001
0100
1000
0020
0000
,  // measure 58
1030
0100
0000
0010
0001
0000
0100
0000
0001
0000
0010
0000
1000
0000
0001
0000
,  // measure 59
1000
0100
0010
0100
1000
0000
0001
0000
0100
0000
0010
0000
2000
0000
0000
0000
,  // measure 60
3001
0010
0001
0000
0100
0000
0010
0000
1000
0000
0100
0000
0010
0001
1000
0001
,  // measure 61
0010
0000
0100
1000
0100
0000
1000
0000
0010
0000
0100
0000
0002
0000
0000
0000
,  // measure 62
0013
0001
0000
0001
0100
0000
0010
0000
1000
0000
0100
0000
1000
0000
0001
0000
,  // measure 63
0100
0010
0000
0010
1000
0000
0001
0000
0010
0000
0100
1000
0002
0000
0000
0000
,  // measure 64
1003
0010
1000
0010
1000
0010
1000
0010
0100
0000
0100
0000
0100
0000
0000
0000
,  // measure 65
0001
0000
0010
0000
0001
0000
0100
0000
0001
0010
0100
0000
1000
0000
0001
0000
,  // measure 66
0000
0000
1000
0000
0100
0000
0010
0000
0001
1000
0001
1000
0001
1000
0100
0000
,  // measure 67
0010
0001
0010
0000
0100
1000
0100
0000
0000
0000
0010
0000
0001
0000
1000
0000
,  // measure 68
0001
0000
0100
0000
0001
0000
0010
0000
0100
1000
0100
0000
1000
0000
0001
0000
,  // measure 69
0100
0010
1000
0000
0100
0010
0001
0000
1000
0010
1000
0000
0001
0010
0100
0000
,  // measure 70
0000
1000
0100
0000
1000
0010
1000
0000
0100
0010
0001
0000
0100
0001
0100
0000
,  // measure 71
0001
1000
0001
0000
1000
0001
1000
0000
0001
0000
0100
0000
0010
1000
0001
0000
,  // measure 72
0010
0000
0001
0000
0100
0010
1000
0000
0001
0000
1000
0100
1000
0100
1000
0000
,  // measure 73
0010
0100
0001
0000
0010
0100
1000
0000
0001
0100
0001
0000
1000
0100
1000
0000
,  // measure 74
0010
0100
0010
0000
1000
0001
1000
0000
0100
0010
0001
0000
0100
0001
0100
0000
,  // measure 75
0001
0010
0001
0000
1000
0000
0100
0000
1000
0010
1000
0000
0010
0100
0001
0000
,  // measure 76
1000
0100
1000
0000
0100
0000
0010
0000
0001
0000
1000
0010
0100
0010
1000
0010
,  // measure 77
0100
0000
0001
0000
0010
0001
1000
0000
0001
0010
0100
0000
1000
0010
0100
0000
,  // measure 78
0001
0010
0100
0000
1000
0100
0010
0000
0001
1000
0001
0000
0100
0010
1000
0001
,  // measure 79
0100
0010
0100
0010
1000
0001
1000
0001
0100
0010
0100
0010
1000
0001
1000
0001
,  // measure 80
0010
0000
0100
0000
1000
0010
1000
0010
1000
0000
0001
0000
0010
0001
1000
0100
,  // measure 81
2000
0000
0000
0000
,  // measure 82
0000
0000
0000
0000
,  // measure 83
3000
0000
0000
0000
;
