#TITLE:Anti-Matter;
#SUBTITLE:(25th Anniversary Special);
#ARTIST:Orbit1 & Milo;
#TITLETRANSLIT:;
#SUBTITLETRANSLIT:;
#ARTISTTRANSLIT:;
#GENRE:;
#CREDIT:;
#BANNER:Anti-Matter (25th Anniversary Special)-bn.png;
#BACKGROUND:Anti-Matter (25th Anniversary Special)-bg.png;
#LYRICSPATH:;
#CDTITLE:;
#MUSIC:Anti-Matter (25th Anniversary Special).ogg;
#OFFSET:0.000000;
#SAMPLESTART:19.200001;
#SAMPLELENGTH:20.000000;
#SELECTABLE:YES;
#DISPLAYBPM:100.000000:400.000000;
#BPMS:0.000000=200.000000
,67.000000=100.000000
,67.500000=200.000000
,74.500000=100.000000
,75.000000=200.000000
,82.000000=100.000000
,82.500000=200.000000
,89.500000=100.000000
,90.000000=200.000000
,94.000000=400.000000
,100.000000=200.000000
,101.000000=400.000000
,115.000000=200.000000
,116.000000=400.000000
,148.000000=200.000000
,196.000000=400.000000
,220.000000=200.000000
,256.000000=400.000000
,262.000000=200.000000
,263.000000=400.000000
,277.000000=200.000000
,278.000000=400.000000
,292.000000=200.000000
,293.000000=400.000000
,307.000000=200.000000
,344.000000=400.000000
,400.000000=200.000000
;
#STOPS:176.000000=0.037000,
176.125000=0.037000,
176.250000=0.037000,
176.375000=0.037000,
176.500000=0.037000,
176.625000=0.037000,
176.750000=0.037000,
176.875000=0.037000,
177.000000=0.037000,
177.125000=0.037000,
177.250000=0.037000,
177.375000=0.037000,
177.500000=0.037000,
177.625000=0.037000,
177.750000=0.037000,
177.875000=0.037000,
178.000000=0.037000,
178.125000=0.037000,
178.250000=0.037000,
178.375000=0.037000,
178.500000=0.037000,
178.625000=0.037000,
178.750000=0.037000,
178.875000=0.037000,
179.000000=0.074000,
179.250000=0.074000,
179.500000=0.150000
;
#BGCHANGES:;
#KEYSOUNDS:;
#ATTACKS:;

//---------------dance-single - ----------------
#NOTES:
     dance-single:
     :
     Challenge:
     19:
     1.298246,2.012424,0.360703,0.070137,1.042032,907.000000,871.000000,36.000000,7.000000,0.000000,0.000000,1.298246,2.012424,0.360703,0.070137,1.042032,907.000000,871.000000,36.000000,7.000000,0.000000,0.000000:
// measure 0
0000
0000
0000
0000
,  // measure 1
0000
0000
0000
0000
,  // measure 2
0000
0000
0000
0000
,  // measure 3
0000
0000
0000
0000
,  // measure 4
0001
0000
0001
0000
0001
0000
0001
0000
0001
1000
0000
0001
1000
0000
0100
0000
,  // measure 5
0000
0000
0010
0001
0010
0100
1000
0000
0001
0000
0001
0000
1000
0000
0100
0010
,  // measure 6
0001
0000
0100
0010
1000
0001
1000
0000
0010
0100
0010
1000
0100
0010
0001
0000
,  // measure 7
0100
0000
0010
0000
0100
0001
1000
0000
0001
0010
0000
0010
0001
1000
0010
0100
,  // measure 8
0001
0000
0010
0001
0100
0000
0010
1000
0100
0000
0010
0001
0100
0000
0010
0000
,  // measure 9
0000
0000
0100
0001
1000
0001
0010
0000
0100
0000
0100
0000
1000
0000
0001
0100
,  // measure 10
0001
0000
0010
0001
1000
0001
0100
0000
0010
0000
0010
0000
1000
0000
0001
0000
,  // measure 11
0100
0000
0001
0010
0100
1000
0001
0000
0100
0000
0100
0000
0010
1000
0001
0000
,  // measure 12
0100
0000
0001
1000
0100
0000
1000
0001
0010
0000
0100
0010
0001
0000
1000
0000
,  // measure 13
0000
0000
0010
1000
0100
0010
0001
0000
1000
0000
1000
0000
0001
0000
0100
0010
,  // measure 14
1000
0000
0001
0100
0001
0010
0100
0010
0001
1000
0010
0100
0010
1000
0100
0010
,  // measure 15
0001
1000
0001
1000
0001
1000
0001
1000
0010
0100
0001
1000
0010
0100
0001
1000
,  // measure 16
0100
0000
0010
0001
1000
0000
0001
0000
0100
0000
0010
0000
1010
0000
0100
1000
,  // measure 17
0000
0001
0100
0000
0010
0000
1000
0001
1000
0000
0100
0000
0010
0000
0001
0000
,  // measure 18
0100
0001
0010
0000
0100
0000
1000
0000
1000
0000
1010
0000
0001
1000
0001
0000
,  // measure 19
0100
0000
0010
0000
1000
0000
0001
0000
0110
0000
0100
0000
0001
0000
1000
0001
,  // measure 20
0010
0000
0100
1000
0010
0000
0100
0000
0101
0000
0001
0010
0000
0100
1000
0000
,  // measure 21
0010
0000
0100
0000
0001
0000
1000
0000
0100
0000
0010
0000
0001
1000
0010
0000
,  // measure 22
0100
0001
1000
0000
0010
0000
0101
0000
0001
0100
1000
0000
0001
0100
1000
0000
,  // measure 23
0001
0100
0010
1000
0100
0010
0001
0000
1100
0000
0000
0000
0101
0000
0000
0000
,  // measure 24
1100
0010
0001
0100
,  // measure 25
0110
0000
0010
1000
0000
1000
0001
0000
,  // measure 26
0100
0001
0000
0001
1000
0000
0010
0100
,  // measure 27
0001
0000
0010
0000
0001
1000
0001
0000
,  // measure 28
0100
0000
0010
1000
0100
0000
0011
0000
,  // measure 29
1000
0001
1000
0000
0010
0000
0100
0000
,  // measure 30
0001
0000
0000
0010
0000
0000
0001
1000
0010
0100
0000
0000
,  // measure 31
0001
0000
0010
0001
0100
0000
0010
1000
,  // measure 32
0100
0000
0001
0000
0010
0100
1000
0000
,  // measure 33
0001
0100
0000
0010
1000
0000
0100
0000
,  // measure 34
0010
0000
0001
0000
0100
0001
1000
0000
,  // measure 35
0001
0010
0000
0010
1000
0000
0100
0000
,  // measure 36
0010
0001
0100
0000
0010
1000
0100
0000
,  // measure 37
1000
0000
0001
0000
0010
0001
0100
0000
0010
1000
0000
1000
0100
0010
0001
0100
,  // measure 38
0010
0000
0010
0000
0010
0000
1000
0000
0001
0100
0000
0001
0100
0000
0001
0100
,  // measure 39
0000
0110
0000
0000
2002
0000
0003
0000
3010
1000
0000
1000
0100
0000
0010
0001
,  // measure 40
0100
0000
0100
0000
0100
0000
0010
0000
1000
0001
0000
1000
0001
0000
1000
0001
,  // measure 41
0000
0000
0011
0000
0000
1100
0000
0000
0001
0010
1000
0100
1000
0010
0001
0000
,  // measure 42
0100
0001
0010
0000
0001
0000
1000
0000
0010
1000
0000
0010
0100
0000
0001
1000
,  // measure 43
0000
0000
1100
0000
0000
0101
0000
0000
0010
0100
0000
0010
1000
0100
0001
0000
,  // measure 44
1000
0001
1000
0001
1000
0001
1000
0001
1000
0001
1000
0001
1000
0001
1000
0001
1000
0001
1000
0001
1000
0001
1000
0001
0100
0000
0100
0000
0100
0000
0000
0000
,  // measure 45
0001
0000
0001
0000
0001
0000
0010
0001
0010
0100
0000
0100
1000
0000
1000
0000
,  // measure 46
0001
0100
0000
0001
1000
0000
0010
0000
0100
0000
0001
0010
0000
0001
1000
0000
,  // measure 47
0010
1000
0100
0000
0010
0001
0100
0000
0010
1000
0000
1000
0001
0000
0100
0000
,  // measure 48
0010
0000
0000
0000
0000
0000
1000
0000
0000
0000
0000
0000
0100
0000
0000
0010
0000
0000
0001
0000
0000
0000
0000
0000
1000
0000
0000
0010
0000
0000
0001
0000
0000
0100
0000
0000
1000
0000
0100
0000
0010
0000
0001
0000
0000
0000
0000
0000
,  // measure 49
0100
0001
0010
0001
0100
0010
1000
0001
,  // measure 50
0010
0100
1000
0010
0100
0001
1000
0100
,  // measure 51
0010
0001
0100
0001
1000
0010
0100
0001
,  // measure 52
0010
0100
0010
0001
0100
0010
1000
0100
,  // measure 53
1000
0010
1000
0010
1000
0000
0001
0000
0010
0000
0100
0000
1000
0000
0001
0000
,  // measure 54
0100
0010
0100
0010
0100
0000
0001
0000
1000
0000
0100
0000
1000
0000
0001
0000
,  // measure 55
0010
0100
0010
0100
0010
0100
0010
0100
0010
0001
0100
1000
0010
0001
0100
1000
,  // measure 56
0010
0000
0100
0001
0010
0000
0001
0100
1000
0000
0010
0000
0101
0000
0000
0000
,  // measure 57
0001
0010
0000
0100
1000
0000
0010
0000
0100
0001
1000
0000
0010
1000
0100
0000
,  // measure 58
0010
0000
0001
1000
0010
0000
1000
0100
0001
0000
0010
0000
0011
0000
0000
0000
,  // measure 59
0100
0001
0010
0000
0001
0000
1000
0000
0010
0000
1000
0001
0100
0000
0010
0000
,  // measure 60
1000
0000
0001
0100
1000
0000
0010
0100
0001
0000
1000
0000
1010
0000
0100
0001
,  // measure 61
0010
0000
0100
1000
0001
0000
0010
0000
0001
0000
1000
0010
0100
0000
0001
0000
,  // measure 62
0010
0000
0001
0100
0010
0000
1000
0100
0001
0000
0010
0000
1001
0000
0000
0000
,  // measure 63
0100
0100
0100
0000
0010
0010
0010
0000
0100
0100
0100
0000
0010
0010
0010
0000
,  // measure 64
1010
0011
1010
0100
,  // measure 65
0001
0000
0010
0000
0101
0000
0010
1000
,  // measure 66
0000
0100
0001
0000
0010
0000
0001
0000
,  // measure 67
1000
0000
0010
0000
0100
0000
0001
0010
,  // measure 68
1000
0100
0001
0000
0100
0010
1000
0000
,  // measure 69
0001
0000
0110
0000
0010
1000
0100
0000
,  // measure 70
1000
0001
0010
0100
,  // measure 71
1000
0000
0001
0000
0100
0000
0010
0000
0000
0000
0000
0000
1001
0000
0000
0000
0000
0000
0100
0000
0000
0001
0000
0000
,  // measure 72
0010
0000
0100
1000
0010
0000
0001
0000
,  // measure 73
0101
0000
1100
0000
0010
0001
0100
0000
,  // measure 74
0001
0000
0000
0010
0000
0000
1000
0000
0000
0000
0000
0000
0100
0000
0000
0000
0000
0000
1000
0000
0010
0000
0100
0000
,  // measure 75
0001
0000
0010
0000
0001
0100
1000
0000
,  // measure 76
0010
0100
0010
0000
0110
0000
1001
0000
,  // measure 77
1000
0100
0001
0100
1000
0100
0001
0100
1000
0000
1000
0000
1000
0000
0000
0000
,  // measure 78
0001
0000
0010
0001
0100
0000
1000
0000
0000
0000
2010
0000
3001
0000
1010
0000
,  // measure 79
0000
0000
0102
0000
1003
0000
0101
0000
0010
1000
0001
0000
0100
0010
1000
0000
,  // measure 80
0001
0010
0100
1000
0100
0010
0001
0000
0000
0000
0210
0000
0301
0000
0110
0000
,  // measure 81
1000
0000
0100
0010
0100
0000
1000
0000
0001
0100
0001
0000
0010
0000
0100
0000
,  // measure 82
1000
0010
1000
0000
0001
0010
0001
0000
0100
0010
0100
0000
0001
1000
0001
0000
,  // measure 83
0100
0010
0100
0010
1000
0100
0001
0000
0010
0100
0010
0100
0010
0001
1000
0000
,  // measure 84
0001
0010
1000
0000
0100
0010
0001
0000
0100
0010
1000
0000
0001
1000
0100
0000
,  // measure 85
0010
0001
0100
0000
0010
1000
0100
0000
1000
1000
0001
0001
1000
1000
0001
0001
,  // measure 86
0010
0100
0001
1000
1000
0100
0010
0001
,  // measure 87
0001
0100
0010
1000
0010
0001
1000
0100
,  // measure 88
0100
0100
0010
0001
1000
0001
0010
1000
,  // measure 89
0001
0100
0100
0001
1000
1000
0010
0010
,  // measure 90
1000
0010
0010
1000
0100
0001
0001
0100
,  // measure 91
1000
0100
0001
0100
1000
0001
0010
0010
,  // measure 92
0001
0100
0100
0001
1000
0010
1000
0010
,  // measure 93
1000
0010
1000
0100
0001
0001
0100
0010
,  // measure 94
0100
1000
0100
0001
1000
0010
0010
0001
,  // measure 95
0001
0100
0010
0010
1000
0001
0100
1000
,  // measure 96
1000
0100
0001
0100
0001
1000
0010
0010
,  // measure 97
0100
1000
0001
1000
0100
0010
0001
0010
,  // measure 98
1000
0100
0010
0100
1000
0000
0001
0000
0100
0000
0010
0000
1000
0000
0001
0000
,  // measure 99
0010
0001
1000
0001
0010
0000
0100
0000
1000
0000
0010
0000
0100
0000
0001
0000
,  // measure 100
1000
0000
0010
0100
0010
0100
0001
1000
0100
0010
0100
1000
0010
0100
0001
1000
,  // measure 101
0020
0000
0000
0000
,  // measure 102
0200
0000
0000
0000
,  // measure 103
0330
0000
0000
0000
;
