#TITLE:Anthema;
#ARTIST:oo39.com;
#BANNER:Anthema-bn.png;
#BACKGROUND:Anthema-bg.png;
#JACKET:Anthema-jacket.png;
#MUSIC:Anthema.ogg;
#OFFSET:-0.059;
#SAMPLESTART:15.047;
#SAMPLELENGTH:20;
#DISPLAYBPM:144;
#BPMS:0=143.964;
#BGCHANGES:;

//---------------dance-single - ----------------
#NOTES:
     dance-single:
     :
     Beginner:
     2:
     :
0000
0000
0000
0000
,
0000
0000
0000
0000
,
0000
0000
0000
0000
,
0010
0000
0000
0000
,
0100
0000
0000
0000
,
0010
0000
0000
0000
,
0100
0000
0000
0000
,
1000
0000
0000
0000
,
0001
0000
0000
0000
,
1000
0000
1000
0000
,
0200
0000
0000
0300
,
0100
0000
0100
0000
,
0020
0000
0000
0030
,
0010
0000
0010
0000
,
0002
0000
0000
0003
,
0001
0000
0001
0000
,
2000
0000
0000
3000
,
1000
0000
0000
0000
,
0010
0000
0000
0000
,
0100
0000
0000
0000
,
0001
0000
0000
0000
,
0010
0000
0000
0000
,
0010
0000
0000
0000
,
0100
0000
0000
0000
,
0100
0000
0000
0000
,
1000
1000
1000
0000
,
0100
0000
0100
0000
,
0001
0001
0001
0000
,
0100
0000
0100
0000
,
0100
0000
0100
0000
,
0010
0000
0000
0000
,
1000
0000
0000
0000
,
0100
0000
0000
0000
,
0001
0000
0000
0000
,
0010
0000
0000
0000
,
1000
0000
0000
0000
,
0100
0000
0000
0000
,
0001
0000
0000
0000
,
0010
0000
0000
0000
,
0100
0000
0000
0000
,
1000
0000
0001
0000
,
1000
0000
0000
0000
,
0001
0000
1000
0000
,
0001
0000
0000
0000
,
0010
0000
0010
0000
,
0100
0000
0100
0000
,
0100
0000
0100
0000
,
1000
1000
0000
0000
,
0001
0001
0000
0000
,
0010
0010
0000
0000
,
0001
0001
0000
0000
,
0100
0100
0000
0000
,
1000
1000
0000
0000
,
1001
0000
0000
0000
;

//---------------dance-single - ----------------
#NOTES:
     dance-single:
     :
     Easy:
     5:
     :
0000
0000
0000
0000
,
0000
0000
0000
0000
,
0000
0000
0000
0000
,
0010
0010
0100
0000
,
0010
0010
0100
0000
,
0010
1000
0100
0000
,
0010
0001
0100
0000
,
0010
0010
0100
0000
,
2002
0000
3003
0000
,
1000
0100
0001
0000
,
0010
0000
0010
0000
,
0001
0100
1000
0000
,
0010
0000
0010
0000
,
1000
0010
0001
0000
,
0100
0000
0100
0000
,
0001
0010
1000
0000
,
0100
0000
0100
0000
,
1000
0000
0100
0000
,
0010
0000
0001
0000
,
0010
0000
0100
0000
,
1000
0001
1000
0000
,
0001
0000
0100
0000
,
0010
0000
1000
0000
,
0010
0000
0100
0000
,
0001
1000
0001
0000
,
1000
0100
0001
0000
,
0200
0000
0300
0000
,
0001
0100
1000
0000
,
0100
0000
0100
0000
,
0100
0000
0100
0000
,
0010
1000
0010
0000
,
1000
0100
1000
0000
,
0100
0001
0100
0000
,
0001
0010
0001
0000
,
0010
0100
0010
0000
,
0001
1000
0001
0000
,
0010
0000
0100
0000
,
0010
0000
1000
0000
,
0001
0000
0010
0000
,
0100
0000
0010
0000
,
0001
0010
1000
0000
,
0100
0000
0100
0000
,
1000
0010
0001
0000
,
0100
0000
0100
0000
,
0001
1000
0001
0000
,
0100
0000
0010
0000
,
0100
0000
0010
0000
,
1000
1000
0001
0000
,
0010
0010
0100
0000
,
1000
1000
0010
0000
,
0100
0100
0001
0000
,
0010
0100
1000
0000
,
0010
0100
0001
0000
,
1001
0000
0000
0000
;

//---------------dance-single - ----------------
#NOTES:
     dance-single:
     :
     Medium:
     7:
     :
0000
0000
0000
0000
,
0000
0000
0000
0000
,
0000
0000
0000
0000
,
0010
1000
1100
1100
,
0010
0001
0101
0101
,
0010
1000
0001
0010
,
0100
1000
0001
0100
,
0010
0010
0100
0100
,
2002
0000
3003
1001
,
0010
1000
0010
1000
,
0001
0000
0000
0010
0000
0000
0000
0000
0100
0000
0000
0010
0000
0000
0000
0000
,
0001
0100
0001
0100
,
0010
0000
0000
1000
0000
0000
0000
0000
0100
0000
0000
1000
0000
0000
0000
0000
,
0001
0010
0001
0010
,
0100
0000
0000
1000
0000
0000
0000
0000
0001
0000
0000
1000
0000
0000
0000
0000
,
0100
1000
0100
1000
,
0010
0000
0000
0100
0000
0000
0000
0000
0001
0000
0000
0100
0000
0000
0000
0000
,
0010
0100
0100
0100
,
0001
0000
1000
0000
0001
0010
0100
0000
,
0010
0100
0100
0100
,
1000
0000
0001
0000
1000
0010
0100
0000
,
0010
1000
1000
1000
,
0001
0000
1000
0000
0010
0100
0001
0000
,
0010
0001
0001
0001
,
1000
0000
0001
0000
0010
0100
1000
0000
,
0010
1000
0001
0010
,
0200
0000
0000
0300
,
0010
0001
1000
0010
,
0100
0101
0100
0101
,
0100
0101
0100
0101
,
2002
0000
0000
0000
,
0000
0000
0000
3003
,
0010
0001
0100
0101
,
0010
1000
0100
1100
,
1000
0001
0010
1100
,
0001
1000
0010
0101
,
0010
0000
1000
0000
0100
0000
0010
0001
,
0010
0000
0001
0000
0100
0000
0010
1000
,
0100
0000
1000
0000
0010
0000
0100
0001
,
0100
0001
0010
0100
,
1000
0100
0001
0100
,
2000
3100
0002
0103
,
1000
0010
0001
0010
,
2000
3010
0002
0013
,
0100
0100
0010
0010
,
0001
1001
1000
1001
,
0001
1001
1000
1001
,
2002
0000
0000
3003
,
0010
0100
0010
0100
,
0001
0010
0100
1000
,
0010
0100
0010
0100
,
0001
0010
0100
1000
,
0001
1000
0001
1000
,
0110
0000
0000
0000
;

//---------------dance-single - ----------------
#NOTES:
     dance-single:
     :
     Hard:
     12:
     :
0000
0000
0000
0000
,
0000
0000
0000
0000
,
0000
0000
0000
0000
,
0010
1000
0100
0010
0001
0000
1000
0000
,
0100
1000
0010
0100
0001
0000
0010
0000
,
0001
1000
0010
0100
0001
0000
1000
0000
,
0100
0010
0001
0100
0010
0000
1000
0000
,
0001
1000
0100
1000
0010
0100
0001
0010
,
0100
1000
0001
0100
0001
0010
0100
0000
,
1000
0010
0000
0010
0000
0000
1000
0000
0010
0000
0100
0000
0001
0000
0010
0000
,
0100
0000
0000
1000
0000
0000
0001
0000
0010
0000
0000
0100
0000
0000
1000
0000
,
0001
0100
0000
0100
0000
0000
0010
0000
1000
0000
0100
0000
1000
0000
0001
0000
,
0010
0000
0000
0001
0000
0000
0100
0000
0010
0000
0000
1000
0000
0000
0000
0000
,
0001
1000
0000
1000
0000
0000
0010
0000
0100
0000
0001
0000
0010
0000
0100
0000
,
1000
0000
0000
0001
0000
0000
0100
0000
0001
0000
0000
0010
0000
0000
0100
0000
,
1000
0001
0000
0001
0000
0000
0100
0000
0010
0000
1000
0000
0001
0000
0010
0000
,
0100
0000
0000
0010
0000
0000
0001
0000
1000
0000
0000
0010
0000
0000
0000
0000
,
0100
0000
0001
0010
0001
0000
1000
0010
,
1000
0000
0100
0100
0100
0000
0010
0000
,
0001
0000
1000
0010
1000
0000
0001
1000
,
0001
0000
0010
0010
0010
0000
0001
0000
,
0100
0000
0010
1000
0010
0000
0100
0001
,
0100
0000
0001
0001
0001
0000
0010
0000
,
0100
0000
1000
0001
1000
0000
0100
0010
,
0100
0000
1000
1000
1000
0000
0010
0000
,
1000
0100
0010
0001
,
2002
0000
3003
1001
,
0001
0000
0000
0000
0010
0000
0000
0000
0100
0000
0000
0000
1000
0001
0010
0001
,
0010
0000
0000
1000
0000
0001
0010
0001
0010
0000
0000
1000
0000
0001
0010
0001
,
0010
0000
0000
1000
0000
0001
0010
0001
0010
0000
0000
0100
0000
0100
0000
0000
,
0010
0100
1000
0100
0010
0100
1000
0010
,
0100
0001
0100
0010
0100
0001
0100
0000
,
0001
0010
1000
0010
0001
0010
1000
0010
,
0100
1000
0100
0001
0100
1000
0100
0000
,
1000
0001
0010
0001
1000
0001
0010
0001
,
1000
0100
1000
0001
1000
0100
1000
0000
,
0010
0100
0010
1000
1000
0000
0001
0010
,
0001
0100
0010
0100
0100
0000
0001
0010
,
0100
1000
0010
0100
0001
0010
0100
1000
,
0010
0100
0001
0010
0100
1000
0010
0000
,
1000
0001
0000
0001
0000
0010
0100
0000
0100
0000
1000
0000
0010
0000
0100
0000
,
0001
0000
0000
1001
0000
0010
0100
0010
0100
0000
0000
1100
0000
0000
0010
0000
,
0001
1000
0000
1000
0000
0010
0100
0000
0100
0000
0001
0000
0010
0000
0100
0000
,
1000
0000
0000
1001
0000
0010
0100
0010
0100
0000
0000
0101
0000
0000
0000
0000
,
0010
1000
0000
1000
0000
0001
0100
0000
0100
0000
0001
0000
0100
0000
0010
1000
,
0010
0000
0000
0001
0000
1000
0010
1000
0010
0000
0000
0001
0000
1000
0010
1000
,
0010
0000
0000
0001
0000
1000
0010
1000
0010
0000
0000
0001
0000
1000
0000
0000
,
0010
0000
0100
0000
0010
0000
1000
0001
,
0100
0000
0010
0000
0100
0000
0001
1000
,
0100
0000
0000
0010
0000
0000
0001
0000
1000
0000
0000
0010
0000
0000
0100
0000
,
0001
0000
0000
0010
0000
0000
0001
0000
1000
0000
0000
0100
0000
0000
1000
0000
,
0010
0100
0010
1000
0001
0010
0001
0100
,
1000
0100
0010
1000
0100
0001
0100
1000
,
2002
0000
0000
3003
;

//---------------dance-single - ----------------
#NOTES:
     dance-single:
     :
     Challenge:
     15:
     :
0000
0000
0000
0000
,
0000
0000
0000
0000
,
0000
0000
0000
0000
,
0010
0000
1000
0000
0001
0000
1000
0100
1000
0000
0001
0100
0001
0000
0010
0000
,
0100
0000
0010
0000
0001
0000
1000
0010
1000
0000
0001
0010
0001
0000
0100
0000
,
0010
0001
0100
1000
0001
1000
0100
0010
,
0001
1000
0001
1000
0010
0100
0010
0100
,
0010
0000
0001
0010
1000
0000
0100
0001
0010
0000
1000
0100
0001
0000
0100
1000
,
0001
0100
0010
0100
1000
0100
0001
0000
,
1000
0001
0000
0010
0000
0001
0100
0000
0010
0000
0001
0000
0010
0000
1000
0100
,
0010
0000
0000
0001
0000
0100
0010
0100
0001
0000
0000
1000
0000
0000
0010
0000
,
0100
0001
0000
0010
0000
0100
1000
0000
0010
0000
0100
0000
1000
0000
0100
0001
,
0010
0000
0000
0100
0000
0010
0001
1000
0001
0010
0000
0100
0000
1000
0000
0000
,
0010
1000
0000
0100
0000
1000
0001
0000
0010
0000
1000
0000
0010
0000
0100
0000
,
0010
0000
0000
0001
0000
0100
0010
1000
0001
0000
0000
1000
0000
0000
0100
0000
,
0001
0010
0000
0001
0000
1000
0100
0000
0010
0000
0100
0000
1000
0000
0001
0100
,
0010
0000
0000
1000
0000
0100
0010
0001
0100
0000
0000
0010
0000
1000
0000
0000
,
0100
1000
0000
0001
0000
1000
0100
0000
0010
0000
1000
0000
0010
0000
0001
0000
,
0100
0000
0000
0010
0000
0000
1000
0000
0001
0000
0000
0100
0000
0000
0010
0000
,
1000
0001
0000
0010
0000
0001
0100
0000
1000
0000
0100
0000
0010
0000
1000
0001
,
0010
0000
0000
0001
0000
0100
0010
0000
1000
0000
0000
0001
0000
0000
0010
0000
,
0001
0100
0000
0010
0000
1000
0001
0000
0010
0000
1000
0000
0010
0000
0100
0000
,
1000
0000
0000
0001
0000
0010
0000
0001
0100
0000
0000
0010
0000
0000
1000
0000
,
0100
0010
0000
0001
0000
0100
0010
0000
1000
0000
0001
0000
0010
0000
0100
1000
,
0001
0000
0000
0100
0000
0010
1000
0010
0100
0001
0000
0010
0000
0001
1000
0000
,
0010
1000
0000
0100
0000
1000
0010
0100
0001
0010
0100
0000
1000
0000
0001
0000
,
0100
0000
0000
0010
0000
0100
0010
0100
0010
0000
0000
0100
0000
0000
0010
0000
,
1000
0100
0000
0001
0000
0010
0100
0000
1000
0000
0001
0000
0100
0000
0010
1000
,
0001
0000
0000
0011
0000
0100
0010
1000
0001
0000
0000
1010
0000
0100
0010
1000
,
0001
0000
0000
0110
0000
0010
1000
0001
0100
0000
0010
1000
0000
1000
0001
0000
,
0010
0000
0100
0000
1000
0000
0010
0100
0001
0000
0010
0000
0100
0000
1000
0000
,
0010
0000
0100
0000
1000
0000
0100
0010
0100
0000
0001
0000
1000
0000
0100
0000
,
0010
0000
0001
0000
0100
0000
0010
1000
0100
0000
0010
0001
0100
0000
1000
0000
,
0100
0000
0010
0000
0100
0000
0001
0010
0001
0000
1000
0010
1000
0000
0100
0000
,
0010
0000
1000
0000
0010
0000
0001
1000
0010
0000
0100
0010
0100
0000
0001
0000
,
1000
0000
0100
0000
0001
0000
0010
0100
1000
0000
0010
0100
0001
0000
1000
0000
,
0010
0000
1000
0000
0100
0000
0001
0000
0010
0000
0000
0001
1000
0000
0100
0000
,
0010
0000
0100
0000
1000
0000
0001
0000
0100
0000
0000
0010
1000
0000
0001
0000
,
1000
0001
0010
0100
0010
0001
0100
1000
,
0100
1000
0001
0010
0001
0100
1000
0000
,
0010
1000
0000
0001
0000
0010
0100
0000
1000
0000
0010
0000
0100
0000
0001
0000
,
0010
0000
0000
1000
0000
0100
0010
0001
0100
0000
0000
0001
0000
0000
1000
0000
,
0010
1000
0000
0001
0000
0010
0100
0000
0001
0000
0100
0000
1000
0000
0010
0100
,
0001
0010
0000
0001
0000
1000
0010
0100
0001
1000
0000
0010
0000
0100
0000
0000
,
0001
0010
0000
0100
0000
0010
0001
1000
0010
0000
0100
0000
1000
0000
0100
0001
,
1000
0010
0000
0101
0000
0001
0010
0100
1000
0100
0000
1100
0000
0010
0001
1000
,
0010
0100
0001
1000
0000
0010
1000
0100
0010
0001
0100
0010
0000
0010
1000
0000
,
0001
0000
0100
0000
1000
0000
0001
0000
0100
0000
0010
0000
1000
0000
0100
0010
,
0001
0000
1000
0000
0010
0000
0100
0001
1000
0000
0010
1000
0100
0000
0001
0000
,
0100
0000
0000
1000
0000
0010
0100
0001
1000
0000
0000
0010
0000
1000
0100
0010
,
0001
0000
0000
1000
0000
0001
0100
0010
1000
0000
0000
0100
0000
0010
0001
0000
,
0100
0000
0001
0010
0001
0000
1000
0010
1000
0000
0001
0100
0001
0000
1000
0100
,
1000
0010
0100
1000
0100
0001
0010
0100
,
2002
0000
0000
3003
;

//---------------dance-double - ----------------
#NOTES:
     dance-double:
     :
     Easy:
     4:
     :
00000000
00000000
00000000
00000000
,
00000000
00000000
00000000
00000000
,
00000000
00000000
00000000
00000000
,
00001000
00000000
00000100
00000000
,
00000010
00000000
00000001
00000000
,
00000100
00000000
00001000
00000000
,
00010000
00000000
01000000
00000000
,
10000000
00000000
00100000
00000000
,
01000000
00000000
00010000
00000000
,
10000000
00100000
00010000
00000000
,
00001000
00000000
00010000
00000000
,
00001000
00000010
00000001
00000000
,
00000100
00000000
00000100
00000000
,
00000001
00000010
00001000
00000000
,
00010000
00000000
00001000
00000000
,
00010000
00100000
10000000
00000000
,
01000000
00000000
01000000
00000000
,
10000000
00000000
01000000
00000000
,
00100000
00100000
00010000
00000000
,
00001000
00000000
00000100
00000000
,
00000010
00000010
00000001
00000000
,
00000001
00000000
00000100
00000000
,
00000010
00000010
00001000
00000000
,
00010000
00000000
01000000
00000000
,
00100000
00100000
10000000
00000000
,
01000000
00010000
00001000
00000000
,
00020000
00000000
00030000
00000000
,
00001000
00000100
00000001
00000000
,
00000010
00000000
00000010
00000000
,
00000010
00000000
00000010
00000000
,
00000001
00001000
00000001
00000000
,
00000100
00000000
00001000
00000000
,
00010000
00001000
00010000
00000000
,
01000000
00000000
10000000
00000000
,
00010000
10000000
00010000
00000000
,
01000000
00000000
00100000
00000000
,
10000000
00000000
00100000
00000000
,
01000000
00000000
00001000
00000000
,
00010000
00000000
00000100
00000000
,
00000010
00000000
00000001
00000000
,
00000100
00001000
00010000
00000000
,
00001000
00000000
00010000
00000000
,
00001000
00010000
01000000
00000000
,
10000000
00000000
00010000
00000000
,
10000000
00100000
00010000
00000000
,
00001000
00000000
00001000
00000000
,
00001000
00000000
00001000
00000000
,
00000010
00000010
00000100
00000000
,
00001000
00001000
00000001
00000000
,
00000100
00000100
00001000
00000000
,
00010000
00010000
01000000
00000000
,
10000000
10000000
00010000
00000000
,
00100000
00100000
00001000
00000000
,
00011000
00000000
00000000
00000000
;

//---------------dance-double - ----------------
#NOTES:
     dance-double:
     :
     Medium:
     8:
     :
00000000
00000000
00000000
00000000
,
00000000
00000000
00000000
00000000
,
00000000
00000000
00000000
00000000
,
00000010
00000100
00000101
00000011
,
00000010
00000100
00010100
00010010
,
00000010
00001000
00000100
00010000
,
00001000
01000000
00010000
00100000
,
00010000
00010000
10000000
10000000
,
02000000
00000000
00000000
03010000
,
00001000
00000010
00000001
00000100
,
00000001
00000000
00000000
00000010
00000000
00000000
00000000
00000000
00000100
00000000
00000000
00010000
00000000
00000000
00000000
00000000
,
00001000
00000010
00000001
00000100
,
00001000
00000000
00000000
00010000
00000000
00000000
00000000
00000000
01000000
00000000
00000000
10000000
00000000
00000000
00000000
00000000
,
00100000
10000000
00010000
01000000
,
00100000
00000000
00000000
00010000
00000000
00000000
00000000
00000000
00001000
00000000
00000000
00000010
00000000
00000000
00000000
00000000
,
00000001
00000100
00001000
00010000
,
00000010
00000000
00000000
00000100
00000000
00000000
00000000
00000000
00000001
00000000
00000000
00000010
00000000
00000000
00000000
00000000
,
00000100
00010000
00001000
01000000
,
00100000
00000000
10000000
00000000
00100000
00010000
00001000
00000000
,
00100000
00001000
00010000
00000010
,
00000100
00000000
00000001
00000000
00000100
00001000
00010000
00000000
,
01000000
10000000
00100000
00010000
,
00001000
00000000
00100000
00000000
01000000
10000000
00010000
00000000
,
00100000
00001000
00010000
00000010
,
00001000
00000000
00000001
00000000
00000100
00000010
00010000
00000000
,
00001000
00000010
00000001
00000100
,
00002002
00000000
00000000
00003003
,
00000010
00001000
00000100
00010000
,
00001000
00010100
00001000
00010100
,
00001000
00010100
00001000
00010100
,
00022000
00000000
00000000
00000000
,
00000000
00000000
00000000
00033000
,
00100000
00010000
10000000
10100000
,
00100000
01000000
00001000
00011000
,
00010000
00000010
00000100
00000101
,
00000001
00000010
00001000
00011000
,
00010000
00000000
00000100
00000000
00000010
00000000
00000001
00000100
,
00000001
00000000
00000010
00000000
00000100
00000000
00010000
00001000
,
00010000
00000000
01000000
00000000
00100000
00000000
00001000
00010000
,
00001000
01000000
00100000
10000000
,
01000000
00100000
00010000
01000000
,
20000000
31000000
02000000
13000000
,
00100000
00010000
00001000
00000010
,
00000002
00000103
00000200
00000301
,
00000010
00001000
00010000
00000100
,
00010000
01001000
00010000
01001000
,
00010000
01001000
00010000
01001000
,
20020000
00000000
00000000
30030000
,
00100000
10000000
01000000
00010000
,
00001000
00010000
00001000
00001000
,
00000010
00000001
00000100
00001000
,
00010000
00001000
00010000
00010000
,
00100000
10000000
01000000
00010000
,
00011000
00000000
00000000
00000000
;

//---------------dance-double - ----------------
#NOTES:
     dance-double:
     :
     Hard:
     12:
     :
00000000
00000000
00000000
00000000
,
00000000
00000000
00000000
00000000
,
00000000
00000000
00000000
00000000
,
00000010
00001000
00000010
00000100
00000001
00000000
00000101
00000000
,
00000100
00001000
00010000
00001000
00100000
00000000
00110000
00000000
,
00010000
10000000
00100000
00000000
01010000
00000000
00000000
00000000
,
10000000
01000000
00100000
00000000
01000000
00010000
00001000
00000000
,
00010000
00001000
00000100
00000010
00001000
00000010
00000100
00000010
,
00001000
00000100
00000010
00000001
00000100
00000000
00001010
00000000
,
00000001
00000100
00001000
00010000
00100000
01000000
00010000
00100000
,
01000000
00000000
00000000
10000000
00000000
00000000
00010000
00000000
00100000
00000000
00000000
10000000
00000000
00000000
00000000
00000000
,
10000000
01000000
00010000
00001000
00000100
00000010
00001000
00000100
,
00000010
00000000
00000000
00000001
00000000
00000000
00001000
00000000
00000010
00000000
00000000
00000001
00000000
00000000
00000000
00000000
,
00000001
00000100
00000010
00001000
00000100
00010000
00001000
00100000
,
00010000
00000000
00000000
00100000
00000000
00000000
01000000
00000000
10000000
00000000
00000000
00100000
00000000
00000000
00000000
00000000
,
10000000
01000000
00100000
00010000
01000000
00001000
00010000
00000010
,
00001000
00000000
00000000
00000010
00000000
00000000
00000100
00000000
00000001
00000000
00000000
00000010
00000000
00000000
00000000
00000000
,
00001001
00000000
00000100
00000010
00000100
00001000
00010000
00001000
,
00010000
00000000
00001000
00100000
00010000
00000000
01000000
00000000
,
00010000
10000000
01000000
00000000
10000000
01000000
00010000
00001000
,
00010000
00000000
00001000
00010000
00000010
00000000
00001000
00000000
,
00001100
00000000
00000011
00000000
00000001
00000100
00001000
00000000
,
00010000
00000000
00001000
00010000
00001000
00000000
00100000
00000000
,
01000000
00000000
10000000
00010000
10000000
00000000
00100000
01000000
,
00100000
00000000
10000000
01000000
00010000
00000000
00001000
00000000
,
00000010
00000001
00000100
00000010
,
00000220
00000000
00000330
00001001
,
00000010
00000000
00000000
00000000
00000001
00000000
00000000
00000000
00000100
00000000
00000000
00000000
00001000
00010000
00001000
00010000
,
00001000
00000000
00000000
00100000
00000000
00010000
00001000
00010000
00001000
00000000
00000000
01000000
00000000
00010000
00001000
00010000
,
00001000
00000000
00000000
00000100
00000000
00010000
00001000
00010000
00001000
00000000
00000000
00000010
00000000
00000010
00000000
00000000
,
00000001
00000010
00000100
00000010
00000001
00000010
00000100
00001000
,
00000010
00000100
00001000
00000100
00000010
00000100
00001000
00000000
,
00010000
00100000
10000000
00100000
00010000
00100000
10000000
00100000
,
01000000
10000000
01000000
00010000
01000000
10000000
01000000
00000000
,
00010000
00001000
00100000
00010000
00100000
00001000
00010000
00000100
,
00010000
00001000
00010000
00000010
00010000
00001000
00010000
00000000
,
00000100
00001000
00000010
00000100
00000010
00000000
00001010
00000000
,
00000001
00000100
00001000
00010000
00001000
00000000
00011000
00000000
,
00010000
00100000
10000000
00100000
01000000
00100000
10000000
10000000
,
01000000
00100000
01000000
00010000
00001000
00001000
00000010
00000000
,
00000001
00000010
00000100
00001000
00000010
00000100
00000001
00000100
,
00001000
00000000
00000000
00011000
00000000
00010000
00001000
00010000
00001000
00000000
00000000
00101000
00000000
00000000
00000000
00000000
,
10000000
00100000
01000000
00010000
00100000
01000000
10000000
01000000
,
00010000
00000000
00000000
00011000
00000000
00001000
00010000
00001000
00010000
00000000
00000000
00010100
00000000
00000000
00000000
00000000
,
00001000
00000000
00000100
00000000
00001000
00000000
00000010
00000000
00000100
00000000
00000001
00000000
00000100
00000000
00001000
00010000
,
00001000
00000000
00000000
00000010
00000000
00001000
00010000
00001000
00010000
00000000
00000000
00000100
00000000
00001000
00010000
00001000
,
00010000
00000000
00000000
01000000
00000000
00001000
00010000
00001000
00010000
00000000
00000000
00100000
00000000
00100000
00000000
00000000
,
01000000
00000000
00010000
00000000
10000000
00000000
01000000
00010000
,
00001000
00000000
00010000
00000000
00000100
00000000
00001000
00000010
,
00000100
00000000
00000000
00000001
00000000
00000000
00001000
00000000
00000100
00000000
00000000
00010000
00000000
00000000
00001000
00000000
,
00100000
00000000
00000000
00010000
00000000
00000000
01000000
00000000
00100000
00000000
00000000
10000000
00000000
00000000
01000000
00000000
,
00100000
00010000
10000000
01000000
00010000
00001000
00000100
00000010
,
00000100
00001000
00000010
00000100
00000001
00000100
00001000
00010000
,
00022000
00000000
00033000
00000000
;
