#TITLE:Another Planet;
#SUBTITLE:;
#ARTIST:Crystal Aliens vs. Mutor Sound System;
#TITLETRANSLIT:;
#SUBTITLETRANSLIT:;
#ARTISTTRANSLIT:;
#GENRE:;
#CREDIT:;
#BANNER:Another Planet-bn.png;
#BACKGROUND:Another Planet-bg.png;
#LYRICSPATH:;
#CDTITLE:;
#MUSIC:Another Planet.ogg;
#OFFSET:0.000000;
#SAMPLESTART:42.292000;
#SAMPLELENGTH:20.000000;
#SELECTABLE:YES;
#DISPLAYBPM:136.000000;
#BPMS:0.000000=136.000000
;
#STOPS:
;
#BGCHANGES:;
#KEYSOUNDS:;
#ATTACKS:;

//---------------dance-single - ----------------
#NOTES:
     dance-single:
     :
     Beginner:
     2:
     0.101237,0.126784,0.000000,0.035433,0.000000,80.000000,80.000000,0.000000,4.000000,0.000000,0.000000,0.101237,0.126784,0.000000,0.035433,0.000000,80.000000,80.000000,0.000000,4.000000,0.000000,0.000000:
0000
0000
0000
0000
,
0000
0000
0000
0000
,
0000
0000
0000
0000
,
0000
0000
0000
0000
,
0000
0000
0000
0000
,
1000
0000
0000
0000
,
0001
0000
0000
0000
,
1000
0000
0000
0000
,
0001
0000
0000
0000
,
0100
0000
0000
0000
,
0010
0000
0000
0000
,
0100
0000
0000
0000
,
0010
0000
0000
0000
,
0100
0000
0001
0000
,
0100
0000
0000
0000
,
0010
0000
1000
0000
,
0010
0000
0000
0000
,
1000
0000
0100
0000
,
1000
0000
0000
0000
,
0001
0000
0010
0000
,
0001
0000
0000
0000
,
0100
0000
0000
0000
,
0010
0000
0000
0000
,
1000
0000
1000
0000
,
0001
0000
0001
0000
,
0020
0000
0000
0030
,
0010
0000
0000
0000
,
0200
0000
0000
0300
,
0100
0000
0100
0000
,
1000
0000
0000
0000
,
0001
0000
0000
0000
,
1000
0000
0000
0000
,
0001
0000
0000
0100
,
0100
0000
0010
0000
,
0100
0000
0010
0000
,
1000
0000
0001
0000
,
1000
0000
0001
0000
,
0000
0010
0010
0000
,
0000
0100
0100
0000
,
0000
1000
1000
0000
,
0000
0001
0001
0000
,
1000
0000
0000
0000
,
0100
0000
0000
0000
,
0001
0000
0000
0000
,
0010
0000
0000
0000
,
2000
0000
0000
3000
,
1000
0000
0001
0000
,
0000
0100
0000
0100
,
0000
0001
0000
0001
,
0000
1000
0000
0001
,
0000
1000
0000
0001
,
0000
0010
0000
0010
,
0000
0100
0000
0100
,
0000
1000
0000
0001
,
0000
1000
0000
0001
,
0002
0000
0000
0003
,
0001
0000
0100
0000
,
1000
1000
0000
0000
;

//---------------dance-single - ----------------
#NOTES:
     dance-single:
     :
     Easy:
     4:
     0.146794,0.201968,0.026575,0.203740,0.000000,116.000000,113.000000,3.000000,23.000000,0.000000,0.000000,0.146794,0.201968,0.026575,0.203740,0.000000,116.000000,113.000000,3.000000,23.000000,0.000000,0.000000:
0000
0000
0000
0000
,
0000
0000
0000
0000
,
0000
0000
0000
0000
,
0000
0000
0000
0000
,
0000
0000
0000
0000
,
1000
0000
0100
0000
,
1000
0000
0001
0000
,
0100
0200
0000
0300
,
0010
0020
0000
0030
,
1000
0000
0001
0000
,
0010
0000
0001
0000
,
0100
0200
0000
0300
,
0010
0020
0000
0030
,
1000
0100
0000
0000
,
0001
0100
0000
0000
,
1000
0010
0000
0000
,
0001
0010
0000
0000
,
0100
1000
0000
0000
,
0010
0100
0000
0000
,
0002
0000
0003
1000
,
0100
0100
0010
0010
,
0001
1000
0000
0010
,
1000
0001
0000
0100
,
0001
0010
0000
0100
,
2000
0000
0000
3000
,
0002
0000
0003
0100
,
0001
0000
0000
1000
,
0200
0300
2000
3000
,
0002
0003
0200
0300
,
0001
0010
0000
0000
,
1000
0010
0000
0000
,
0002
0003
0020
0030
,
0100
1000
0001
1000
,
0001
0100
0000
0010
,
0100
1000
0000
0001
,
0010
0100
0000
1000
,
1001
0000
0110
0000
,
0002
0000
0000
0003
,
2000
0000
0000
3000
,
0200
0000
0000
0300
,
0020
0000
0000
0030
,
0001
0000
0001
0000
,
1000
0000
1000
0000
,
0010
0000
0010
0000
,
0100
0000
0100
0000
,
0001
0000
0001
0000
,
0001
0000
0001
0000
,
1000
1000
0000
0010
,
0001
0001
0000
0100
,
1000
1000
0000
0001
,
0200
0300
0020
0030
,
1000
1000
0000
0001
,
0100
0100
0000
1000
,
0001
0001
0000
0010
,
0200
0300
2000
3000
,
2002
0000
0000
0000
,
3003
0000
0000
0000
,
0100
0000
0000
0000
;

//---------------dance-single - ----------------
#NOTES:
     dance-single:
     :
     Medium:
     7:
     0.258155,0.328198,0.088583,0.177165,0.000000,204.000000,194.000000,10.000000,20.000000,0.000000,0.000000,0.258155,0.328198,0.088583,0.177165,0.000000,204.000000,194.000000,10.000000,20.000000,0.000000,0.000000:
0000
0000
0000
0000
,
0000
0000
0000
0000
,
0000
0000
0000
0000
,
0000
0000
0000
0000
,
0000
0000
0000
0000
,
0010
0001
0100
0001
,
1000
0100
0010
0001
,
0100
1000
0100
0001
,
0010
1000
0100
0001
,
0010
0100
1000
0010
,
0100
1000
0100
0001
,
0010
0100
1000
0001
,
0100
0010
1000
1001
,
0100
0000
1000
0000
0010
0010
0010
0000
,
0100
0000
0001
0000
0010
0010
0010
0000
,
0001
0000
1000
0000
0100
0100
0100
0000
,
0010
0000
0001
0000
1000
1000
1000
0000
,
0010
0100
0001
0010
,
0100
1000
0001
0010
,
0100
0010
1000
0010
,
0001
0000
1000
0000
0001
0000
0100
0100
,
0000
0001
0000
0010
0000
0100
0000
1000
,
0000
0001
0000
0100
0000
0001
0000
0010
,
0000
0100
0000
1000
0000
0010
0000
0100
,
0000
0010
0000
1000
0000
0100
0000
1000
,
0000
0001
0000
0010
0000
0100
0000
0010
,
0000
0001
0000
1000
0000
0010
0000
0100
,
0000
1000
0000
0100
0000
0001
0000
0010
,
0000
0100
0000
1000
0000
0001
0000
1000
,
1000
0000
0010
0000
0100
0100
0100
0000
,
0001
0000
0010
0000
1000
1000
1000
0000
,
0010
0000
0001
0000
1000
1000
1000
0000
,
0010
0000
0100
0000
0001
0001
0001
0000
,
0020
0230
2300
3002
,
0203
0320
2030
3002
,
0003
0011
0000
0011
0000
0100
0000
1000
,
0000
1010
0000
1010
0000
1000
0000
0001
,
0020
0000
0000
0030
,
2000
0000
3020
0000
,
0032
0000
0000
0003
,
0200
0000
2300
0000
,
3200
0000
0000
0300
,
0002
0000
0023
0000
,
0032
0000
0000
0003
,
0200
0000
0320
0000
,
1030
0000
0001
0000
,
1000
0000
1000
0000
,
0001
0000
0100
0000
0010
1000
0010
0000
,
0100
1000
0100
0001
,
1000
0000
0001
0000
0010
0100
0010
0000
,
1000
0010
0001
0100
,
0010
0000
1000
0000
0001
1000
0001
0000
,
0100
0010
0100
0001
,
0010
0000
0100
0000
1000
0001
1000
0000
,
0010
0001
1000
0010
,
0101
0000
0011
0000
,
1100
0000
1010
0000
,
1001
0000
0000
0000
;

//---------------dance-single - ----------------
#NOTES:
     dance-single:
     :
     Hard:
     11:
     0.401153,0.479675,0.274606,0.115157,0.057579,317.000000,286.000000,31.000000,13.000000,0.000000,0.000000,0.401153,0.479675,0.274606,0.115157,0.057579,317.000000,286.000000,31.000000,13.000000,0.000000,0.000000:
0000
0000
0000
0000
,
0000
0000
0000
0000
,
0000
0000
0000
0000
,
0000
0000
0000
0000
,
0000
0000
0000
0000
,
1000
0000
0010
0000
1000
0100
1000
0000
,
0001
0000
0010
0000
0001
0100
0001
0000
,
1000
0000
0100
0000
0001
0010
0001
0000
,
0001
0000
0100
0000
1000
0010
1000
0000
,
0010
0000
0100
0000
0001
0010
0100
0000
,
0010
0000
0100
0000
1000
0010
0100
0000
,
0110
0000
0101
0000
0010
0010
1000
0000
,
0100
0000
0001
0000
0010
0000
1000
0100
,
0010
0000
0110
0000
0001
0100
0001
0000
,
0010
0000
0110
0000
1000
0100
1000
0000
,
0010
0000
1001
0000
0100
0001
0100
0000
,
0010
0000
1001
0000
0100
1000
0100
0000
,
0210
0000
0301
0000
2000
0001
3100
0000
,
0120
0000
1030
0000
0002
1000
0103
0000
,
0101
0000
1100
0000
0010
0001
0100
0000
,
1010
0000
0011
0000
0010
1000
0100
0000
,
0010
0001
1000
0000
0100
0100
0100
0000
,
0100
0010
0001
0000
1000
1000
1000
0000
,
1000
0001
0100
0000
0010
0010
0010
0000
,
2002
0000
0000
3003
,
1000
0100
1000
0100
0010
0001
1000
0000
,
0001
0100
0001
0100
0010
1000
0001
0000
,
0010
1000
0100
1000
0010
0100
0001
0000
,
0010
0000
0000
0100
0000
0000
0001
0000
0000
0000
1000
0000
1100
0000
0000
0000
,
0010
0001
0100
0001
0010
0100
1000
0000
,
0100
1000
0010
1000
0001
0100
0010
0000
,
0100
0001
1000
0001
0100
0010
1000
0000
,
0001
0010
0100
0010
0001
1000
0010
0000
,
0120
0000
1030
0000
0002
1000
0013
0000
,
0210
0000
0301
0000
2000
0001
3010
0000
,
1010
0000
0011
0000
0100
1000
0010
0000
,
0101
0000
1100
0000
0100
0001
0010
0000
,
0110
0000
0000
0100
0000
1000
0000
0001
,
0101
0000
0001
0000
0100
0010
0100
0000
,
1001
0000
0000
0001
0000
0010
0000
0100
,
1100
0000
2000
0000
0010
0000
0010
3010
,
0100
0000
0001
0010
0000
0100
0000
0000
,
0110
0000
1001
0000
1000
0100
0010
0000
,
1001
0000
0000
0010
0000
0100
0000
0001
,
1001
0000
0000
0010
0000
0000
0010
0000
0000
0000
0000
0000
1000
0000
1000
0000
,
0100
0000
0000
1000
0000
0000
0010
0000
0001
0000
0100
0000
0001
0000
0000
0000
,
0010
0000
0000
0001
0000
0000
0100
0000
1000
0000
0010
0000
1000
0000
0000
0000
,
0001
0000
0010
0000
1000
0100
1000
0000
,
1000
0000
0010
0000
0100
0001
0100
0000
,
0001
0000
0000
0010
0001
0000
0000
0000
1000
0000
0100
0000
1000
0000
0000
0000
,
1000
0000
0000
0010
1000
0000
0000
0000
0001
0000
0100
0000
0001
0000
0000
0000
,
1000
0000
0000
1000
0100
0000
0010
0000
0001
0000
1000
0000
0001
0000
0100
0000
,
0001
0000
0000
0001
0100
0000
0010
0000
1000
0000
0001
0000
1000
0000
0100
0000
,
1000
0000
0000
1000
0010
0000
0100
0000
0001
0000
0100
0000
0010
1000
0010
0000
,
0001
0000
0000
0001
0010
0000
0100
0000
1000
0000
0100
0000
0010
0001
0010
0000
,
1000
0000
0000
0100
0000
0000
1000
0000
0001
0000
0010
0000
0100
0000
0000
0000
,
1001
0220
0000
0330
,
1001
0000
0000
0000
;

//---------------dance-double - ----------------
#NOTES:
     dance-double:
     :
     Easy:
     3:
     0.115157,0.151476,0.017717,0.106299,0.000000,91.000000,89.000000,2.000000,12.000000,0.000000,0.000000,0.115157,0.151476,0.017717,0.106299,0.000000,91.000000,89.000000,2.000000,12.000000,0.000000,0.000000:
00000000
00000000
00000000
00000000
,
00000000
00000000
00000000
00000000
,
00000000
00000000
00000000
00000000
,
00000000
00000000
00000000
00000000
,
00000000
00000000
00000000
00000000
,
00000010
00000000
00000001
00000000
,
00000010
00000000
00000001
00000000
,
00000100
00000000
00001000
00000000
,
00000100
00000000
00001000
00000000
,
00010000
00000000
01000000
00000000
,
00010000
00000000
01000000
00000000
,
10000000
00000000
00100000
00000000
,
10000000
00000000
00100000
00000000
,
10000000
01000000
00100000
00000000
,
00020000
00000000
00030000
00000000
,
10000000
01000000
00100000
00000000
,
00020000
00000000
00030000
00000000
,
00001000
00000100
00000010
00000000
,
00000002
00000000
00000003
00000000
,
00001000
00000100
00000010
00000000
,
00000002
00000000
00000003
00000000
,
00001001
00000000
00000000
00000000
,
00000100
00000000
00000000
00000000
,
00001000
00000000
00000000
00000000
,
00010000
00000000
00000000
00000000
,
00011000
00000000
00000000
00000000
,
00001000
00000000
00000000
00000000
,
00010000
00000000
00000000
00000000
,
01000000
00000000
00000000
00000000
,
10000000
00000000
00100000
00000000
,
02000000
00000000
03000000
00000000
,
00001000
00000000
00010000
00000000
,
00002000
00000000
00003000
00000000
,
00010000
00000000
00001000
00000000
,
00020000
00000000
00030000
00000000
,
00000100
00000000
00000010
00000000
,
00000002
00000000
00000003
00000000
,
00000100
00000000
00000100
00000000
,
00000100
00000000
00000100
00000000
,
00001000
00000000
00001000
00000000
,
00001000
00000000
00001000
00000000
,
00010000
00000000
00010000
00000000
,
00010000
00000000
00010000
00000000
,
01000000
00000000
01000000
00000000
,
01000000
00000000
01000000
00000000
,
20000000
00000000
00000000
30000000
,
00020000
00000000
00000000
00030000
,
10000000
00000000
00100000
00000000
,
10000000
00000000
01000000
00000000
,
10000000
00000000
00100000
00000000
,
00010000
00000000
00001000
00000000
,
00010000
00000000
00001000
00000000
,
00000010
00000000
00000001
00000000
,
00000100
00000000
00000001
00000000
,
00000010
00000000
00000001
00000000
,
00002000
00000000
00000000
00003000
,
00000002
00000000
00000000
00000003
,
00000100
00000000
00000000
00000000
;

//---------------dance-double - ----------------
#NOTES:
     dance-double:
     :
     Medium:
     7:
     0.258155,0.328198,0.088583,0.177165,0.000000,204.000000,194.000000,10.000000,20.000000,0.000000,0.000000,0.258155,0.328198,0.088583,0.177165,0.000000,204.000000,194.000000,10.000000,20.000000,0.000000,0.000000:
00000000
00000000
00000000
00000000
,
00000000
00000000
00000000
00000000
,
00000000
00000000
00000000
00000000
,
00000000
00000000
00000000
00000000
,
00000000
00000000
00000000
00000000
,
00000001
00000010
00000001
00001000
,
00000010
00000100
00000001
00000100
,
00001000
00010000
00001000
00100000
,
00001000
00010000
00100000
10000000
,
01000000
00100000
00010000
01000000
,
00100000
00010000
00100000
10000000
,
01000000
00100000
00001000
00010000
,
00000010
00001000
00000001
00001001
,
00000010
00000000
00000001
00000000
00000100
00000100
00000100
00000000
,
00001000
00000000
00010000
00000000
01000000
01000000
01000000
00000000
,
10000000
00000000
00010000
00000000
00100000
00100000
00100000
00000000
,
01000000
00000000
10000000
00000000
00010000
00010000
00010000
00000000
,
01000000
00001000
00010000
00000100
,
00000010
00000001
00001000
00000100
,
00000010
00000100
00010000
00001000
,
00100000
00000000
00010000
00000000
10000000
00000000
01000000
01000000
,
00000000
10000000
00000000
00100000
00000000
01000000
00000000
00001000
,
00000000
00010000
00000000
00100000
00000000
10000000
00000000
01000000
,
00000000
00100000
00000000
00001000
00000000
00010000
00000000
00000010
,
00000000
00000100
00000000
00000001
00000000
00000010
00000000
00000001
,
00000000
00001000
00000000
00000100
00000000
00000010
00000000
00000100
,
00000000
00010000
00000000
00001000
00000000
01000000
00000000
00001000
,
00000000
00010000
00000000
00100000
00000000
10000000
00000000
01000000
,
00000000
00100000
00000000
00001000
00000000
00010000
00000000
00001000
,
00001000
00000000
01000000
00000000
00100000
00100000
00100000
00000000
,
10000000
00000000
01000000
00000000
00010000
00010000
00010000
00000000
,
00001000
00000000
00000100
00000000
00000001
00000001
00000001
00000000
,
00000100
00000000
00000010
00000000
00001000
00001000
00001000
00000000
,
00000200
00000320
00000032
00000203
,
00002300
00023000
02030000
23000000
,
30000000
11000000
00000000
11000000
00000000
00100000
00000000
00001000
,
00000000
00011000
00000000
00011000
00000000
00010000
00000000
00000010
,
00000200
00000000
00000000
00000300
,
00000002
00000000
00000023
00000000
,
00000230
00000000
00000000
00000300
,
00020000
00000000
00032000
00000000
,
00203000
00000000
00000000
00300000
,
00020000
00000000
02030000
00000000
,
03002000
00000000
00000000
00003000
,
00200000
00000000
02300000
00000000
,
13000000
00000000
10000000
00000000
,
00010000
00000000
00010000
00000000
,
10000000
00000000
00100000
00000000
01000000
00010000
01000000
00000000
,
00100000
00010000
00001000
00000010
,
00000001
00000000
00001000
00000000
00000010
00000100
00000010
00000000
,
00010000
00001000
00000100
00000001
,
00000010
00000000
00001000
00000000
00010000
00001000
00010000
00000000
,
00001000
01000000
00100000
10000000
,
01000000
00000000
00100000
00000000
00001000
00010000
00001000
00000000
,
01000000
00001000
00010000
01000000
,
10100000
00000000
11000000
00000000
,
00110000
00000000
01010000
00000000
,
10010000
00000000
00000000
00000000
;

//---------------dance-double - ----------------
#NOTES:
     dance-double:
     :
     Hard:
     10:
     0.404949,0.479675,0.274606,0.159449,0.057579,320.000000,289.000000,31.000000,18.000000,0.000000,0.000000,0.404949,0.479675,0.274606,0.159449,0.057579,320.000000,289.000000,31.000000,18.000000,0.000000,0.000000:
00000000
00000000
00000000
00000000
,
00000000
00000000
00000000
00000000
,
00000000
00000000
00000000
00000000
,
00000000
00000000
00000000
00000000
,
00000000
00000000
00000000
00000000
,
10000000
00000000
00100000
00000000
10000000
01000000
00010000
00000000
,
00001000
00000000
00010000
00000000
00001000
00000100
00000001
00000000
,
00001000
00000000
00000001
00000000
00001000
00000010
00000100
00000000
,
00000001
00000000
00001000
00000000
00000001
00000100
00001000
00000000
,
00010000
00000000
00001000
00000000
00010000
01000000
10000000
00000000
,
00010000
00000000
10000000
00000000
00010000
00100000
01000000
00000000
,
01100000
00000000
00110000
00000000
00010000
00100000
00001000
00000000
,
00010000
00000000
00000100
00000000
00001000
00000000
00000001
00000010
,
00000100
00000000
00001001
00000000
00000100
00001000
00010000
00000000
,
00001000
00000000
00011000
00000000
00100000
00010000
01000000
00000000
,
00100000
00000000
10010000
00000000
01000000
10000000
00100000
00000000
,
01000000
00000000
11000000
00000000
01000000
00010000
00001000
00000000
,
01002000
00000000
00013000
00000000
00020000
00001000
00030100
00000000
,
00000120
00000000
00000031
00000000
00002000
00000001
00003100
00000000
,
00001100
00000000
00010100
00000000
00000100
00010000
00001000
00000000
,
00011000
00000000
00101000
00000000
00001000
00100000
00010000
00000000
,
00100000
00010000
01000000
00100000
10000000
10000000
10000000
00000000
,
01000000
00100000
00010000
10000000
01000000
01000000
01000000
00000000
,
00100000
00010000
01000000
00001000
00010000
00010000
00010000
00000000
,
00022000
00000000
00000000
00033000
,
00010000
00000100
00001000
00000010
00000100
00000001
00001000
00000000
,
00000010
00000100
00000001
00001000
00000100
00010000
00001000
00000000
,
00100000
00010000
01000000
00100000
10000000
00100000
01000000
00000000
,
00200000
00000000
00000000
20300000
00000000
00000000
32000000
00000000
00000000
00000000
03100000
00000000
10010000
00000000
00000000
00000000
,
00100000
10000000
00010000
01000000
00001000
00010000
00001000
00000000
,
00010000
00001000
00010000
00000010
00001000
00000001
00000100
00000000
,
00001000
00000001
00000010
00000100
00010000
00001000
00010000
00000000
,
00001000
00010000
00001000
00100000
00010000
10000000
01000000
00000000
,
01200000
00000000
00310000
00000000
00020000
10000000
00130000
00000000
,
00102000
00000000
00013000
00000000
00020000
00001000
00030100
00000000
,
00010100
00000000
00011000
00000000
00000010
00001000
00000100
00000000
,
00000011
00000000
00000101
00000000
00000100
00001000
00010000
00000000
,
00011000
00000000
00000000
00100000
00000000
00010000
00000000
10000000
,
11000000
00000000
00010000
00000000
01000000
00001000
00010000
00000000
,
00011000
00000000
00000000
00000100
00000000
00001000
00000000
00000001
,
00000011
00000000
00002000
00000000
00000010
00000000
00000010
00003010
,
00001000
00000000
00000001
00001000
00000000
00000100
00000000
00000000
,
00001100
00000000
00010100
00000000
00000100
00010000
00001000
00000000
,
00011000
00000000
00000000
00010000
00000000
00001000
00000000
00100000
,
00120000
00000000
00000000
00230000
00000000
00000000
00310000
00000000
00000000
00000000
00000000
00000000
10000000
00000000
10000000
00000000
,
01000000
00000000
00000000
00100000
00000000
00000000
00010000
00000000
00100000
00000000
00001000
00000000
00010000
00000000
00000000
00000000
,
00001000
00000000
00000000
00010000
00000000
00000000
00000010
00000000
00001000
00000000
00000010
00000000
00000100
00000000
00000000
00000000
,
00000001
00000000
00000010
00000000
00000100
00001000
00000100
00000000
,
00010000
00000000
00001000
00000000
01000000
00010000
01000000
00000000
,
00100000
00000000
00000000
10000000
00100000
00000000
00000000
00000000
10000000
00000000
01000000
00000000
10000000
00000000
00000000
00000000
,
00010000
00000000
00000000
00001000
00010000
00000000
00000000
00000000
00001000
00000000
00010000
00000000
00001000
00000000
00000000
00000000
,
00000100
00000000
00000000
00000010
00001000
00000000
00000001
00000000
00000100
00000000
00000010
00000000
00000001
00000000
00001000
00000000
,
00000001
00000000
00000000
00001000
00000001
00000000
00000100
00000000
00001000
00000000
00010000
00000000
00001000
00000000
00010000
00000000
,
01000000
00000000
00000000
00100000
00010000
00000000
01000000
00000000
00010000
00000000
00100000
00000000
10000000
01000000
10000000
00000000
,
01000000
00000000
00000000
00100000
01000000
00000000
00010000
00000000
00001000
00000000
00000100
00000000
00000010
00000100
00000010
00000000
,
00001000
00000000
00000000
00000001
00000000
00000000
00000100
00000000
00001000
00000000
00010000
00000000
00001000
00000000
00000000
00000000
,
00011000
02200000
00000000
03300000
,
10010000
00000000
00000000
00000000
;

//---------------dance-single - ----------------
#NOTES:
     dance-single:
     :
     Challenge:
     14:
     0.560601,0.673671,0.194882,0.124016,0.673228,443.000000,421.000000,22.000000,14.000000,0.000000,0.000000,0.560601,0.673671,0.194882,0.124016,0.673228,443.000000,421.000000,22.000000,14.000000,0.000000,0.000000:
// measure 0
0000
0000
0000
0000
,  // measure 1
0000
0000
0000
0000
,  // measure 2
0000
0000
0000
0000
,  // measure 3
0000
0000
0000
0000
,  // measure 4
0000
0000
0000
0000
,  // measure 5
0010
0000
0000
0001
0000
1000
0000
0000
0010
0000
0100
0000
0001
0000
0100
0000
,  // measure 6
0010
0000
0000
1000
0000
0100
0000
0000
1000
0000
0010
0000
0100
0000
0001
0000
,  // measure 7
1000
0000
0000
0001
0000
0010
0000
0000
0100
0000
0010
0000
0100
0000
1000
0000
,  // measure 8
0010
0000
0000
1000
0000
0001
0000
0000
0100
0000
0010
0000
1000
0000
0100
0000
,  // measure 9
0010
0000
0000
0001
0000
0001
0000
0000
1000
0000
0010
0000
0100
0000
0001
0000
,  // measure 10
0100
0000
0000
0010
0000
0010
0000
0000
1000
0000
0001
0000
1000
0000
0100
0000
,  // measure 11
1100
0000
0000
0011
0000
0000
0000
1001
0000
0000
0100
0000
0010
0000
1000
0000
,  // measure 12
0001
0000
0000
1000
0000
0000
0010
0000
0000
1000
0000
0100
0000
0001
0000
0000
,  // measure 13
0010
0001
0010
0001
0000
0100
0000
0000
0010
0000
1000
0000
0001
0000
0100
0000
,  // measure 14
0010
1000
0010
1000
0000
0100
0000
0000
1000
0000
0001
0000
0010
0000
0100
0000
,  // measure 15
0010
0100
0010
0100
0000
1000
0000
0000
0001
0000
1000
0000
0001
0000
0010
0000
,  // measure 16
0001
0100
0001
0100
0000
0010
0000
0000
1000
0000
0100
0000
1000
0000
0010
0000
,  // measure 17
0100
0001
0100
0001
0000
1000
0000
0000
0010
0000
0100
0000
0001
0000
1000
0000
,  // measure 18
0100
0010
0100
0010
0000
0001
0000
0000
0100
0000
0010
0000
1000
0000
0001
0000
,  // measure 19
1000
0010
1000
0010
0000
0100
0000
0000
0010
0000
1000
0000
0001
0000
0100
0000
,  // measure 20
0001
1000
0001
1000
0000
0010
0000
0000
0100
0000
0001
0000
0010
0000
0100
0000
,  // measure 21
1000
0100
0000
0100
1000
0000
0000
0001
0100
0000
0010
0000
1000
0000
0001
0000
,  // measure 22
0100
0010
0000
0100
0000
0001
0000
0000
1000
0100
1000
0000
0001
0000
0100
0000
,  // measure 23
0001
0010
0000
0010
0001
0000
0000
1000
0001
0000
0100
0000
0010
0000
1000
0000
,  // measure 24
0020
0000
0000
0230
0000
0000
0302
0000
0000
0000
0000
0000
0000
0000
0000
0000
,  // measure 25
0103
0010
0000
0010
1000
0000
0000
0000
0001
0010
0001
0100
0000
0000
0000
0000
,  // measure 26
0010
0000
0000
1000
0000
1000
0000
0000
0001
0000
0010
0000
0100
0000
1000
0000
,  // measure 27
0010
0100
0000
0100
0001
0000
0000
0000
1000
0010
1000
0100
0000
0000
0000
0000
,  // measure 28
1010
0000
0000
0101
0000
0000
0110
0000
0000
0000
0000
0000
1000
0001
1000
0001
,  // measure 29
1000
0000
0000
0010
0000
0100
0000
0001
1000
0000
0001
0000
0010
0000
0100
0000
,  // measure 30
1000
0000
0000
0010
0000
0100
0000
0001
1000
0000
0100
0000
0010
0000
0001
0000
,  // measure 31
0100
0010
0100
0010
0000
1000
0000
0001
1000
0000
0100
0000
0010
0000
0001
0000
,  // measure 32
0100
0001
0100
0001
0000
1000
0000
0010
0100
0000
0010
0000
1000
0000
0001
0000
,  // measure 33
0010
0100
0010
0100
0000
1000
0000
0010
0100
0000
0001
0000
1000
0000
0100
0000
,  // measure 34
1000
0001
1000
0001
0000
0010
0000
0100
1000
0000
0010
0000
1000
0000
0001
0000
,  // measure 35
0100
0010
0100
0001
0000
0001
0000
1000
0001
0000
0010
0000
0100
0000
1000
0000
,  // measure 36
0010
1000
0010
0100
0000
0100
0000
0001
1000
0000
0100
0000
0010
0000
0001
0000
,  // measure 37
1001
0000
0000
0011
0000
1100
0000
0001
,  // measure 38
0102
0000
2003
0000
3001
0100
1000
0000
,  // measure 39
0110
0000
0000
1010
0000
0101
0000
1000
,  // measure 40
1200
0000
0320
0000
0031
0000
1000
1000
,  // measure 41
1001
0000
0000
0000
0100
0000
0000
0001
0000
0000
0000
0010
0000
0000
1000
0000
,  // measure 42
1020
0000
0230
0000
0301
0010
1000
0000
,  // measure 43
0110
0000
0000
0000
0001
0000
0000
0010
0000
0000
0000
1000
0000
0000
0100
0000
,  // measure 44
0012
0000
0203
0000
0310
1000
0001
0000
,  // measure 45
0010
0000
0001
0100
0000
0100
0000
0000
0010
0000
1000
0000
0001
0000
0000
0000
,  // measure 46
0100
0000
0001
1000
0000
1000
0000
0000
0010
0100
0010
0100
0020
0000
0000
0000
,  // measure 47
1030
0100
1000
0010
0000
0100
0000
0001
0100
0000
0010
0000
0100
0001
1000
0000
,  // measure 48
0001
0010
0100
0010
0000
0001
0000
1000
0010
0000
0100
0000
0010
1000
0001
0000
,  // measure 49
1000
0100
1000
0001
0000
0100
0000
0001
0010
0000
0100
0000
1000
0001
0010
0000
,  // measure 50
0001
0100
0010
0100
0000
0001
0000
1000
0001
0000
0010
0000
0100
1000
0001
0000
,  // measure 51
1000
0010
0100
0001
0000
1001
0000
0100
0010
0000
1000
0000
0100
0010
0001
0000
,  // measure 52
0100
0010
0100
0001
0000
1010
0000
1000
0100
0000
0010
0000
0001
1000
0010
0000
,  // measure 53
0100
0001
1000
0010
0000
0101
0000
1000
0001
0000
0010
0000
0001
0100
0010
0000
,  // measure 54
1000
0001
0010
0100
0000
0110
0000
0010
0100
0000
1000
0000
0010
0100
0001
0000
,  // measure 55
1000
0000
0000
0010
0000
0010
0100
0000
0001
0000
0010
0000
0001
0000
1000
0000
,  // measure 56
0010
0000
0000
0000
1000
0001
0000
1000
0000
0000
0000
0100
0000
0000
0010
0000
,  // measure 57
0002
0000
0000
1000
0000
0000
0200
0000
0000
0000
0000
0000
0000
0000
0000
0000
,  // measure 58
0000
0000
0303
0000
;
