#TITLE:Angel;
#ARTIST:Master Source;
#BANNER:Angel-bn.png;
#BACKGROUND:Angel-bg.png;
#JACKET:Angel-jacket.png;
#LYRICSPATH:Angel.lrc;
#MUSIC:Angel.ogg;
#OFFSET:-0.904;
#SAMPLESTART:31.139;
#SAMPLELENGTH:20;
#DISPLAYBPM:127;
#BPMS:0=127;
#BGCHANGES:;

//---------------dance-single - ----------------
#NOTES:
     dance-single:
     :
     Beginner:
     1:
     :
0000
0000
0000
0000
,
0000
0000
0000
0000
,
1000
0000
0000
0000
,
0001
0000
0000
0000
,
0100
0000
0000
0000
,
0010
0000
0000
0000
,
1000
0000
0000
0000
,
0100
0000
0000
0000
,
0010
0000
0000
0000
,
0010
0000
0000
0000
,
0100
0000
0000
0000
,
0100
0000
0000
0000
,
1000
0000
0000
0000
,
1000
0000
0000
0000
,
0001
0000
0000
0000
,
0001
0000
0000
0000
,
1001
0000
0000
0000
,
0001
0000
0000
0000
,
0100
0000
0000
0000
,
0010
0000
0000
0000
,
0110
0000
0000
0000
,
0010
0000
0000
0000
,
1000
0000
0000
0000
,
0100
0000
0000
0000
,
0010
0000
0000
0000
,
0010
0000
0000
0000
,
0010
0000
0000
0000
,
0020
0000
0000
0030
,
0000
0000
0000
0000
,
0100
0000
0000
0000
,
1000
0000
0000
0000
,
0001
0000
0001
0000
,
0100
0000
0000
0000
,
0010
0000
0000
0000
,
1000
0000
0000
0000
,
0100
0000
0100
0000
,
0010
0000
0010
0000
,
0100
0000
0100
0000
,
1000
0000
1000
0000
,
0001
0000
0001
0000
,
0100
0000
0100
0000
,
0010
0000
0010
0000
,
1000
0000
1000
0000
,
0001
0000
0001
0000
,
0000
0010
0000
0010
,
0000
0100
0000
0100
,
0000
1000
0000
1000
,
0000
0001
0000
0001
,
0000
0100
0000
0100
,
0000
0010
0000
0010
;

//---------------dance-single - ----------------
#NOTES:
     dance-single:
     :
     Easy:
     4:
     :
0000
0000
0000
0000
,
0000
0000
0000
0000
,
1000
0000
0010
0000
,
0100
0000
0001
0000
,
2000
0000
0000
3000
,
0002
0000
0000
0003
,
0200
0000
0000
0300
,
0010
0000
1000
0000
,
0001
0000
0001
0000
,
1000
0000
1000
0000
,
0100
0000
0100
0000
,
0100
0000
0100
0000
,
0010
0000
0010
0000
,
0001
0000
0001
0000
,
1000
0000
1000
0000
,
1000
0000
1000
0000
,
0010
0000
0100
0000
,
0001
0000
0001
0000
,
0010
0000
0100
0000
,
1000
0000
1000
0000
,
0010
0000
0100
0000
,
0001
0000
0001
0000
,
0010
0000
0100
0000
,
0010
0000
0010
0000
,
0001
0001
0000
1000
,
0000
0010
0000
0100
,
0000
0001
0000
1000
,
1001
0000
0000
0000
,
1000
0000
0001
0000
,
0100
0000
0100
0000
,
0010
0000
0010
0000
,
0110
0000
0000
0000
,
1000
0000
0100
0000
,
0010
0000
0001
0000
,
0010
0000
0100
0000
,
0110
0000
0000
0000
,
0001
0000
0100
0010
,
0100
0000
0001
0000
,
1000
0000
0100
0010
,
0100
0000
0000
0000
,
1000
0000
0010
0100
,
0001
0000
1000
0010
,
0100
0000
0001
0010
,
0100
0000
1000
0100
,
0000
0010
0000
0010
,
0000
0001
0000
0001
,
0000
0100
0000
0100
,
0000
0010
0000
0010
,
0000
1000
0000
1000
,
0000
0100
0000
0100
;

//---------------dance-single - ----------------
#NOTES:
     dance-single:
     :
     Medium:
     8:
     :
0000
0000
0000
0000
,
0000
0000
0000
0000
,
1000
0000
0100
0000
0010
0000
0001
0100
,
0010
0000
1000
0000
0010
0000
0100
0001
,
2000
0001
0100
0001
,
3200
0010
1000
0010
,
2300
0010
0001
0010
,
3001
0100
0010
1000
,
1001
0000
0001
0000
0100
0000
0010
1000
,
0001
0000
0010
0000
0100
1000
0001
0000
,
1001
0000
1000
0000
0100
0000
0010
0001
,
1000
0000
0010
0000
0100
0010
0100
0000
,
0110
0000
0010
0000
1000
0000
0100
0010
,
0100
0000
0010
0000
0001
1000
0001
0000
,
0101
0000
0100
0000
0010
0000
1000
0001
,
0100
0010
1000
0100
,
0010
0001
0010
0000
0100
1000
0100
0000
,
1000
0000
0010
0000
0100
0001
1000
0000
,
0100
0010
0100
0000
1000
0001
1000
0000
,
0010
0000
0100
0000
0001
0100
0010
0000
,
1000
0010
1000
0000
0001
0100
0001
0000
,
0010
0000
0100
0000
1000
0001
0010
0000
,
0100
1000
0100
0000
1000
0010
1000
0000
,
0001
0000
0100
0000
0010
1000
0001
0000
,
0020
0130
2000
3100
,
0000
0010
0000
0001
,
0000
1000
0000
0010
,
0200
0000
0000
0300
,
1001
0010
0100
0001
,
1010
1000
0100
0010
,
0011
0001
1000
0100
,
0020
0100
0000
0130
,
1100
0001
0100
0010
,
1001
0010
1000
0100
,
0011
1000
0010
1000
,
0002
0100
0000
0103
,
0010
1000
0001
0000
0010
0001
1000
0000
,
0010
0000
0100
0000
0001
1000
0100
0000
,
0010
0001
0100
0000
0010
1000
0100
0000
,
0020
0000
0030
0000
,
0001
1000
0010
0000
1000
0001
0010
0000
,
0100
0000
1000
0000
0001
1000
0010
0000
,
1000
0100
0001
0000
0001
0100
1000
0000
,
0010
0000
0100
0000
0001
0100
1000
0000
,
0200
0310
0200
0301
,
0000
0100
0000
0010
,
2000
3001
0020
0031
,
0000
0100
0000
0001
,
0020
0130
0020
0031
,
0000
0100
0000
0010
;

//---------------dance-single - ----------------
#NOTES:
     dance-single:
     :
     Hard:
     12:
     :
0000
0000
0000
0000
,
0000
0000
0000
0000
,
0001
0000
0100
0000
0000
0000
0010
0000
1000
0000
0000
0100
0000
0000
0010
0000
,
0001
0000
1000
0000
0000
0000
0100
0000
0010
0000
0000
0001
0000
0000
1000
0000
,
0010
0100
0001
0100
0010
0100
0001
1000
,
0100
0010
0001
0010
0100
0010
0001
0010
,
0100
1000
0001
1000
0100
1000
0001
0100
,
0010
0001
0010
0100
0010
0001
0010
1000
,
0001
0000
0010
0000
0000
0000
2100
0000
0000
0100
0000
3100
0000
0000
1000
0000
,
0001
0000
0100
0000
0000
0000
1020
0000
0000
1000
0000
1030
0000
0000
0001
0000
,
1000
0000
0001
0000
0000
0000
0201
0000
0000
0001
0000
0301
0000
0000
1000
0000
,
0100
0000
0010
0000
0000
0000
0012
0000
0000
0010
0000
0013
0000
0000
0100
0000
,
1000
0000
0010
0000
0000
0000
2001
0000
0000
0100
0000
3100
0000
0000
1000
0000
,
0001
0000
0100
0000
0000
0000
1020
0000
0000
0100
0000
0130
0000
0000
0001
0000
,
0010
0000
0100
0000
0000
0000
2100
0000
0000
0001
0000
3001
0000
0000
0010
0000
,
0100
1000
0001
0100
,
0010
0000
1000
0000
0000
0100
0000
0100
0000
0010
0000
0000
0100
0000
0010
0000
,
0001
0000
1000
0000
0000
0001
0000
0001
0000
0100
0000
0010
1000
0000
0001
0000
,
0010
0000
0100
0000
0000
1000
0000
1000
0000
0010
0000
0000
0100
0000
0001
0000
,
0010
0000
0100
0000
0000
1000
0000
1000
0000
0001
0000
0100
0010
0000
1000
0000
,
0010
0000
0100
0000
0000
0001
0000
0001
0000
0010
0000
0000
0100
0000
1000
0000
,
0010
0000
1000
0000
0000
0100
0000
0100
0000
0010
0000
0100
1000
0000
0001
0000
,
0100
0000
0010
0000
0000
1000
0000
1000
0000
0010
0000
0000
0100
0000
0001
0000
,
1000
0000
0001
0000
0000
0010
0000
0010
0000
0100
0000
1000
0001
0000
0100
0000
,
0020
1000
0032
0100
,
0000
1003
0000
0100
,
0000
0010
0000
0001
,
2000
0000
0000
0000
0000
0000
0000
3000
,
0010
0000
0100
0001
1000
0100
0000
0010
,
0000
0000
0002
0000
0000
0000
0000
0000
1003
0000
0000
0010
0000
0000
0000
0000
,
0010
0100
0001
0010
,
0002
0010
0000
0013
,
0100
1000
0001
0100
0010
1000
0000
0001
,
0000
1000
0000
0200
0000
0000
0310
0000
,
0002
0000
1000
0000
0000
0000
1000
0003
,
0200
0010
0000
0310
,
1000
0000
0100
0000
0010
0001
0000
0001
0000
1000
0000
0000
0010
0000
0100
0000
,
0001
0000
1000
0000
0010
1000
0000
1000
0000
0100
0000
0010
0001
0000
0010
0000
,
0100
0000
1000
0000
0001
0100
0000
0100
0000
0010
0000
0000
1000
0000
0001
0000
,
0020
0000
0130
0000
,
0010
0000
0100
0000
1000
0100
0000
0100
0000
0010
0000
0000
0100
0000
1000
0000
,
0001
0000
0100
0000
0001
1000
0000
1000
0000
0100
0000
1000
0010
0000
0100
0000
,
0001
0000
1000
0000
0100
0010
0000
0010
0000
0100
0000
0000
1000
0000
0001
0000
,
0100
0000
0010
0000
1000
0001
0000
0001
0000
1000
0000
0100
0010
0000
0100
0000
,
2000
0010
3020
0100
,
0000
1030
0000
0001
,
0020
0100
0230
1000
,
0000
1300
0000
0010
,
0200
0001
0302
1000
,
0000
0000
1003
0000
0000
0000
0100
0010
;

//---------------dance-single - ----------------
#NOTES:
     dance-single:
     :
     Challenge:
     16:
     :
0000
0000
0000
0000
,
0000
0000
0000
0000
,
0010
0000
0001
0000
0100
0010
0000
0010
1000
0100
0000
0100
0010
0000
0001
0000
,
1000
0000
0001
0000
0010
0100
0000
0100
1000
0010
0000
0010
0100
0000
0001
0000
,
1001
0000
0010
0000
1000
0001
0000
0001
0010
0100
0000
0100
1000
0000
0001
0000
,
0011
0000
0100
0000
1000
0010
1000
0000
0001
0100
0000
0100
0010
0000
1000
0000
,
1100
0000
0001
0000
0010
0100
0000
0100
1000
0001
0000
0001
0100
0000
0010
0000
,
1010
0000
0001
0000
0010
0100
0010
0000
0001
1000
0000
1000
0010
0000
0100
0000
,
0101
0000
0010
0000
1000
0100
1000
0000
0001
0010
0100
0010
0001
0000
1000
0000
,
0010
0000
1000
0000
0100
0010
0001
0000
1000
0001
0100
0001
1000
0000
0010
0000
,
0100
0000
0001
0000
0010
0100
1000
0000
0001
1000
0010
1000
0000
0001
0100
0000
,
0010
0000
1000
0000
0100
1000
0001
0000
0010
0100
0010
0001
0000
1000
0100
0000
,
0110
0000
0001
0000
1000
0001
0100
0000
0001
0010
0100
0010
0001
0000
1000
0000
,
0100
0000
1000
0000
0010
0100
0010
0000
1000
0001
0010
0001
1000
0000
0100
0000
,
0010
0000
0001
0000
1000
0001
0100
0000
0001
0010
0100
1000
0000
1000
0001
0000
,
0010
0000
0001
0000
0100
0001
1000
0000
0010
1000
0100
0010
0000
0000
0001
1000
,
0002
0000
0100
0000
0103
1000
0000
0010
2000
0100
0000
0100
3001
0000
1000
0000
,
0010
0000
1000
0000
0100
0010
0000
0001
1000
0001
0010
0100
1000
0000
0001
0000
,
2000
0000
0010
0000
3010
0100
0000
0001
0020
0100
0000
0100
0031
0000
1000
0000
,
0001
0000
0010
0000
0001
0100
0000
0100
0010
1000
0001
0010
0100
0000
1000
0001
,
1000
0000
0010
0100
0001
0000
0010
0001
0010
0000
0100
1000
0010
0000
1000
0001
,
1000
0000
0010
0100
0001
0000
0010
0100
1000
0001
0000
1000
0001
0000
0100
0000
,
0010
0000
1000
0001
1000
0000
0001
0010
0100
0000
1000
0010
1000
0000
0001
0100
,
0010
0000
1000
0001
0010
0000
0100
1000
0010
0100
0000
0010
0100
0000
0001
1000
,
0100
0000
0010
0000
0001
1000
0000
0010
1000
0001
0000
1000
0100
0000
0010
0000
,
0001
0000
0100
0000
0010
1000
0000
0000
0100
1000
0000
1000
0001
0000
0100
0010
,
0100
0000
0001
0000
0010
0100
0010
0001
1000
0001
0000
1000
0100
0000
0010
0001
,
1000
0000
0000
0000
0000
0000
0000
0000
0000
0000
0000
0000
0000
0000
0000
0000
0010
0000
0000
0000
0000
0000
0000
0000
0000
0000
0000
0000
0000
0000
0100
0000
0000
0000
0000
0000
0001
0000
0000
0000
0000
0000
0100
0000
0000
0000
0000
0000
0001
0000
0000
0000
0000
0000
0000
0000
0000
0000
0000
0000
0000
0000
0000
0000
1000
0000
0000
0000
0000
0000
0000
0000
0000
0000
0000
0000
0000
0000
0010
0000
0000
0000
0000
0000
0100
0000
0000
0000
0000
0000
0010
0000
0000
0000
0000
0000
0100
0000
0000
0000
0000
0000
0000
0000
0000
0000
0000
0000
0000
0000
0000
0000
0001
0000
0000
0000
0000
0000
0000
0000
0000
0000
0000
0000
0000
0000
1000
0000
0000
0000
0000
0000
0100
0000
0000
0000
0000
0000
1000
0000
0000
0000
0000
0000
0100
0000
0000
0000
0000
0000
0000
0000
0000
0000
0000
0000
0000
0000
0000
0000
0010
0000
0000
0000
0000
0000
0000
0000
0000
0000
0000
0000
0000
0000
0000
0000
0001
0000
0000
0000
0000
0000
0000
0000
0000
0000
0000
0000
0000
0000
0000
0000
,
1000
0000
0010
0000
1000
0000
0001
0000
0010
0100
1000
0100
0010
0000
0001
0000
,
0100
0000
0001
0000
1000
0000
0100
0000
0010
0001
1000
0001
0010
0000
0100
0000
,
1000
0000
0001
0000
1000
0010
0000
0100
0000
0001
1000
0001
0000
0010
0100
1000
,
0001
0000
0000
0000
0000
0000
0000
0000
0000
0000
0000
0000
0000
0000
0000
0000
0100
0000
0000
0000
0000
0000
0000
0000
0000
0000
0000
0000
0000
0000
0010
0000
0000
0000
0000
0000
1000
0000
0000
0000
0000
0000
0010
0000
0000
0000
0000
0000
1000
0000
0000
0000
0000
0000
0000
0000
0000
0000
0000
0000
0000
0000
0000
0000
0001
0000
0000
0000
0000
0000
0000
0000
0000
0000
0000
0000
0000
0000
0100
0000
0000
0000
0000
0000
0010
0000
0000
0000
0000
0000
0100
0000
0000
0000
0000
0000
0010
0000
0000
0000
0000
0000
0000
0000
0000
0000
0000
0000
0000
0000
0000
0000
1000
0000
0000
0000
0000
0000
0000
0000
0000
0000
0000
0000
0000
0000
0001
0000
0000
0000
0000
0000
0100
0000
0000
0000
0000
0000
0001
0000
0000
0000
0000
0000
0100
0000
0000
0000
0000
0000
0000
0000
0000
0000
0000
0000
0000
0000
0000
0000
0010
0000
0000
0000
0000
0000
0000
0000
0000
0000
0000
0000
0000
0000
0000
0000
1000
0000
0000
0000
0000
0000
0000
0000
0000
0000
0000
0000
0000
0000
0000
0000
,
0001
0000
0010
0000
1000
0100
0010
0100
1000
0000
0001
0100
0001
0000
0010
0000
,
0100
0000
1000
0001
1000
0000
0001
0010
0001
0000
0100
0010
0100
0001
1000
0000
,
0001
0000
0010
0000
1000
0100
0000
0010
0000
0001
1000
0001
0000
0100
0010
1000
,
0001
0000
0000
0000
0000
0000
0000
0000
0000
0000
0000
0000
0000
0000
0000
0000
1000
0000
0000
0000
0000
0000
0000
0000
0000
0000
0000
0000
0000
0000
0001
0000
0000
0000
0000
0000
0010
0000
0000
0000
0000
0000
0001
0000
0000
0000
0000
0000
0010
0000
0000
0000
0000
0000
0000
0000
0000
0000
0000
0000
0000
0000
0000
0000
0100
0000
0000
0000
0000
0000
0000
0000
0000
0000
0000
0000
0000
0000
1000
0000
0000
0000
0000
0000
0010
0000
0000
0000
0000
0000
1000
0000
0000
0000
0000
0000
0010
0000
0000
0000
0000
0000
0000
0000
0000
0000
0000
0000
0000
0000
0000
0000
0100
0000
0000
0000
0000
0000
0000
0000
0000
0000
0000
0000
0000
0000
0001
0000
0000
0000
0000
0000
1000
0000
0000
0000
0000
0000
0001
0000
0000
0000
0000
0000
1000
0000
0000
0000
0000
0000
0000
0000
0000
0000
0000
0000
0000
0000
0000
0000
0010
0000
0000
0000
0000
0000
0000
0000
0000
0000
0000
0000
0000
0000
0000
0000
0000
0000
0000
0000
0000
0000
0000
0000
0000
0000
0000
0000
0000
0000
0000
0000
,
0200
0000
0001
0000
0301
1000
0010
1000
0002
0100
0000
0100
0013
0000
1000
0000
,
0100
0000
0010
0000
0001
0100
0000
0010
1000
0001
1000
0100
0010
0000
0001
0000
,
2000
0000
0010
0000
3010
0100
0001
1000
0002
0010
0000
0010
1003
0000
0100
0000
,
0001
0000
0010
0000
0001
0100
0000
0100
0010
1000
0000
1000
0001
0000
0100
0000
,
0001
0000
1000
0010
1000
0000
0100
0010
0001
0000
0100
0001
0010
0000
0100
1000
,
0001
0000
1000
0001
0010
0000
0100
1000
0010
0100
0000
0001
1000
0000
0100
0000
,
0010
0000
0001
0100
0001
0000
0010
0100
1000
0000
0100
1000
0001
0000
0010
0001
,
0100
0000
0001
0010
1000
0000
0100
0010
0001
1000
0000
1000
0010
0100
0001
0000
,
0011
0000
0100
0000
1000
0010
0000
0000
0100
0001
0000
0001
1000
0000
0010
0000
,
1001
0000
0100
0000
0001
0010
0000
0000
0001
1000
0000
1000
0010
0000
0100
0001
,
1000
0000
0100
0000
0010
0001
0000
0000
0100
0001
0010
0001
0000
1000
0100
0010
,
0001
0000
1000
0010
0100
0010
0000
1000
0001
0010
0000
0100
1000
0010
1000
0001
,
0100
0000
0010
0000
0100
0001
1000
0000
0001
0010
0100
1000
0000
0001
1000
0000
,
0010
0000
1000
0100
0010
0001
0100
0000
0010
1000
0010
1000
0000
0001
0100
0000
;

//---------------dance-double - ----------------
#NOTES:
     dance-double:
     :
     Easy:
     5:
     :
00000000
00000000
00000000
00000000
,
00000000
00000000
00000000
00000000
,
00000001
00000000
00000100
00000000
,
00000010
00000000
00001000
00000000
,
00000100
00010000
00000100
00000000
,
00010000
00001000
00010000
00000000
,
00001000
01000000
00001000
00000000
,
01000000
00100000
01000000
00000000
,
00100000
10000000
01000000
00000000
,
00100000
10000000
01000000
00000000
,
10000000
01000000
00010000
00000000
,
10000000
01000000
00010000
00000000
,
00001000
00000100
00000001
00000000
,
00001000
00000100
00000001
00000000
,
00000100
00000001
00000010
00000000
,
00000100
00000001
00000010
00000000
,
00000100
00000000
00010000
00000000
,
00001000
00000000
01000000
01000000
,
00100000
00000000
10000000
00000000
,
01000000
00000000
00100000
00001000
,
00100000
00000000
00001000
00000000
,
00010000
00000000
00000100
00000100
,
00000010
00000000
00000001
00000000
,
00000100
00000000
00000010
00010000
,
00001000
01000000
00000000
00100000
,
00000000
10000000
00000000
01000000
,
00000000
00100000
00000000
00001000
,
00020000
00000000
00000000
00030000
,
00010000
00000100
00010000
00000000
,
00000100
00001000
00000100
00000000
,
00000010
00000001
00000010
00000000
,
00000002
00000000
00000000
00000003
,
00000001
00000100
00000001
00000000
,
00001000
00000100
00001000
00000000
,
00000100
00010000
00001000
00000000
,
00020000
00000000
00000000
00030000
,
00010000
00000000
00001000
00000000
,
01000000
00000000
00100000
00100000
,
10000000
00000000
01000000
00000000
,
00200000
00000000
00000000
00300000
,
00100000
00000000
00001000
00000000
,
00010000
00000000
00000100
00000100
,
00001000
00000000
00000001
00000000
,
00000100
00000000
00001000
00010000
,
00001000
01000000
00000000
00100000
,
00000000
10000000
00000000
01000000
,
00000000
00010000
00000000
00001000
,
00000000
00000100
00000000
00000001
,
00000000
00000010
00000000
00001000
,
00000000
00100000
00000000
10000000
;

//---------------dance-double - ----------------
#NOTES:
     dance-double:
     :
     Medium:
     8:
     :
00000000
00000000
00000000
00000000
,
00000000
00000000
00000000
00000000
,
10000000
00000000
00100000
00000000
01000000
00000000
00010000
00100000
,
00010000
00000000
00100000
00000000
00001000
00000000
00010000
00000010
,
00002000
00003100
00000010
00000001
,
00000200
00000310
00001000
00000100
,
00020000
00031000
01000000
00100000
,
10000000
01000000
00010000
01000000
,
10000000
00000000
00010000
01000000
00001000
00000000
00010000
00000000
,
00010000
00000000
00000010
00001000
00000010
00000000
00000100
00000000
,
00000100
00000000
00000001
00000010
00000100
00000000
00010000
00000000
,
00010000
00000000
00001000
01000000
00100000
00000000
10000000
00000000
,
10000000
00000000
01000000
00100000
00010000
00000000
00100000
00000000
,
00100000
00000000
00010000
00100000
00001000
00000000
00010000
00000000
,
00010000
00000000
00000010
00001000
00000100
00000000
00000010
00000000
,
00000010
00000001
00000100
00001000
,
00010000
01000000
00000000
00000000
01000000
10000000
00000000
00000000
,
10000000
00000000
00100000
00000000
01000000
00010000
10000000
00000000
,
01000000
00100000
00000000
00000000
00100000
00001000
00000000
00000000
,
00010000
00000000
00000100
00000000
00000010
00000001
00001000
00000000
,
00000010
00000100
00000000
00000000
00000100
00000001
00000000
00000000
,
00001000
00000100
00010000
01000000
,
10000000
01000000
00000000
00000000
01000000
00010000
00000000
00000000
,
00001000
00000000
00000100
00000000
00000001
00000000
00001000
00000100
,
00000020
00000130
00002000
00003100
,
00000000
00010000
00000000
00001000
,
00000000
01000000
00000000
00100000
,
20000000
00000000
00000000
30000000
,
01000000
11000000
00000000
01100000
,
00100000
00101000
00000000
00011000
,
00010000
00010100
00000000
00001001
,
00000020
00001000
00000000
00001030
,
00000001
00001001
00000000
00000101
,
00000100
00001100
00000000
00011000
,
00001000
00101000
00000000
00110000
,
00200000
01000000
00000000
01300000
,
10000000
00100000
00000000
00000000
00100000
00010000
00000000
00000000
,
00001000
00000000
00010000
00000000
00000100
00000010
00000001
00000000
,
00000010
00000100
00000000
00000000
00000100
00010000
00000000
00000000
,
00002000
00000000
00003000
00000000
,
01000000
10000000
00000000
00000000
01000000
00010000
00000000
00000000
,
00100000
00000000
01000000
00000000
10000000
01000000
00010000
00000000
,
00100000
00001000
00000000
00000000
00001000
00010000
00000000
00000000
,
00000010
00000000
00001000
00000000
00000100
00000010
00000001
00000000
,
00000200
00000310
00020000
00031000
,
00000000
00010000
00000000
01000000
,
20000000
30010000
00200000
00310000
,
00000000
01000000
00000000
00001000
,
00020000
00030010
00002000
00003100
,
00000000
00000010
00000000
00000001
;

//---------------dance-double - ----------------
#NOTES:
     dance-double:
     :
     Hard:
     12:
     :
00000000
00000000
00000000
00000000
,
00000000
00000000
00000000
00000000
,
10000000
00000000
01000000
00000000
00000000
00000000
00100000
00000000
00001000
00000000
00000000
00010000
00000000
00000000
00000100
00000000
,
00000010
00000000
00000001
00000000
00000000
00000000
00001000
00000000
00000100
00000000
00000000
00010000
00000000
00000000
00001000
00000000
,
01000000
00100000
10000000
00010000
01000000
10000000
00010000
00100000
,
01000000
00001000
00100000
00001000
00000010
00001000
00000001
00000100
,
00001000
00000010
00010000
00001000
01000000
00100000
10000000
00100000
,
00010000
00001000
00100000
00010000
10000000
01000000
00010000
00001000
,
00000100
00000010
00001000
00000001
00000100
00000010
00001000
00000001
,
00000100
00001000
00010000
00001000
00000100
00001000
00010000
00001000
,
00100000
00001000
01000000
00010000
00100000
00001000
01000000
00010000
,
10000000
01000000
00010000
01000000
10000000
01000000
00010000
01000000
,
00100000
00010000
01000000
00001000
00100000
00010000
01000000
00001000
,
00010000
00001000
00000010
00001000
00010000
00001000
00000010
00000001
,
00000100
00000010
00010000
00001000
00000100
00000010
00010000
00001000
,
00000100
00001000
00010000
01000000
,
11000000
01000000
00100000
00000000
01100000
00100000
00010000
00000000
,
00100000
00000000
00001000
00000000
00010000
00000010
00000100
00001000
,
00011000
00010000
00000100
00000000
00001100
00000100
00000010
00000000
,
00000001
00000000
00000010
00000000
00001000
00100000
01000000
10000000
,
02000000
03020000
00032000
00003200
,
00000302
00000000
00000023
00000000
00000230
00000000
00010300
00001000
,
02000000
03200000
20300000
32000000
,
03020000
00000000
00030020
00000000
00002030
00000000
00003100
00000010
,
00000002
00000100
00000203
00001000
,
00000000
00000310
00000000
00010000
,
00000000
01000000
00000000
10000000
,
00020000
00000000
00000000
00000000
00000000
00000000
00000000
00030000
,
00100000
00010000
10000000
01000000
00001000
00010000
00100000
00001000
,
00010000
00100000
00010000
00001000
00000100
00000010
00000001
00001000
,
00000100
00000001
00000010
00000100
00010000
00001000
00100000
00001000
,
00020000
00001000
00000000
00031000
,
01000000
00100000
10000000
00100000
00010000
10000000
01000000
10000000
,
00010000
00100000
01000000
00001000
00010000
01000000
00100000
00001000
,
00010000
00000010
00001000
00000100
00010000
00001000
00000100
00000001
,
00002000
00000001
00000000
00003001
,
00000100
00000010
00001010
00000000
00001000
00000100
00010100
00000000
,
00010000
00001000
01000000
00000000
00100000
10000000
00010000
01000000
,
10000000
01000000
01010000
00000000
00010000
01000000
01001000
00000000
,
00020000
00000000
00031000
00000000
,
00001000
00010000
00010100
00000000
00000100
00000010
00000110
00000000
,
00000100
00001000
00000001
00000100
00010000
00001000
00000010
00010000
,
00001000
01000000
01001000
00000000
00100000
10000000
10100000
00000000
,
00100000
01000000
00001000
00010000
00000100
00000010
00000001
00000100
,
00002000
00013000
00020000
00130000
,
00000000
01000000
00000000
10000000
,
00200000
01300000
00002000
00013000
,
00000000
00000100
00000000
00000010
,
00000002
00001003
00002000
00003100
,
00000000
00010000
00000000
00001000
;
