#TITLE:Amalgamation;
#SUBTITLE:(25th Anniversary Special);
#ARTIST:Mystic Moon;
#BANNER:Amalgamation (25th Anniversary Special)-bn.png;
#BACKGROUND:Amalgamation (25th Anniversary Special)-bg.png;
#JACKET:Amalgamation (25th Anniversary Special)-jacket.png;
#MUSIC:Amalgamation (25th Anniversary Special).ogg;
#OFFSET:0.7;
#SAMPLESTART:15.2;
#SAMPLELENGTH:20;
#DISPLAYBPM:166;
#BPMS:0=166;
#BGCHANGES:;

//---------------dance-single - ----------------
#NOTES:
     dance-single:
     :
     Challenge:
     17:
     :
0000
0000
0000
0000
,
0000
0000
0000
0000
,
0000
0000
0000
0000
,
0000
0000
0000
0000
,
0000
0000
0000
0000
,
0010
1000
0100
0001
0010
1000
0100
0001
,
0010
0000
1000
0000
0100
0000
0001
0000
1000
0100
0010
0001
0010
0100
1000
0000
,
0010
0001
0100
1000
0010
0001
0100
1000
,
0010
0000
0001
0000
0100
0000
1000
0000
0001
0010
0100
1000
0100
0010
0001
0000
,
0011
0000
0000
0000
1100
0000
0000
0101
0000
0000
1010
0000
1001
0000
1100
0000
,
0120
0001
0001
0001
0001
0001
0001
0031
,
0010
0001
0100
1000
1010
0000
0101
0000
,
0011
0000
0000
0000
1001
0000
0000
0000
1000
0100
0010
0000
0001
0000
0100
0000
,
0001
0010
0100
0000
1000
0000
0001
0000
1010
0000
0000
0000
0110
0000
0000
0000
,
1001
0000
0000
0000
0010
0000
0100
0000
0001
0100
0010
0000
1000
0000
0001
0000
,
0110
0001
0100
1000
1010
0100
0001
0010
,
1100
0001
1000
0100
0011
0100
0010
0001
,
1001
0010
1000
0100
1010
0001
0100
1000
,
0001
0100
1000
0010
1001
1010
1100
0110
,
0001
0010
1000
0100
0011
0000
1001
0000
,
1010
0000
0000
0000
0101
0000
0000
0000
0010
1000
0100
0000
0001
0000
1000
0000
,
0001
0010
0100
0000
1000
0000
0001
0000
0011
0000
0000
0000
0110
0000
0000
0000
,
1001
0000
0000
0000
0010
0000
1000
0000
0100
0010
0001
0000
1000
0000
0001
0000
,
1010
0100
0001
1000
0011
0010
0100
1000
,
1001
0010
0001
1000
0110
1000
0100
0001
,
0010
0000
0100
0000
1000
0000
0010
0000
0001
0100
0010
0000
1000
0000
0001
0000
,
2100
0000
3002
0000
0013
0001
0100
1000
,
0010
1000
0100
0010
0001
1000
0010
0000
0202
0000
0000
0000
0003
0000
0000
0000
,
0301
0010
0100
1000
0010
1000
0001
0000
2020
0000
0000
0000
3000
0000
0000
0000
,
0130
0010
1000
0000
0001
0100
0000
0010
1000
0000
0100
0010
0000
0001
0100
0010
,
1000
0001
1000
0000
0100
0010
0000
0001
0100
0000
0100
0000
0110
0000
0110
0000
,
1000
0001
0010
0001
0100
0010
1000
0000
2200
0000
0000
0000
3000
0000
0000
0000
,
0310
0100
0010
0001
1000
0100
0010
0000
0022
0000
0000
0000
0003
0000
0000
0000
,
0130
0010
0001
0000
1000
0010
0000
1000
0001
0000
0010
0100
0000
1000
0100
0010
,
0001
0100
0010
0000
1000
0001
0000
0010
0100
0000
0100
0000
0110
0000
0110
0000
,
1001
0000
0010
1000
0100
0010
0001
0100
0020
0000
0000
1000
0000
0000
0031
0000
,
0110
0000
1000
0100
0010
0100
1000
0001
0200
0000
0000
1000
0000
0000
0301
0000
,
1010
0000
0100
0001
0010
0100
1000
0001
0200
0000
0000
0320
0000
0000
2030
0000
,
3000
1100
0000
0011
0000
0101
0000
0110
,
0101
0000
0010
1000
0100
0010
0001
1000
0001
0000
0010
0100
0000
0100
1000
0000
,
1001
0000
0001
0010
0100
0010
0001
1000
0010
0000
1000
0100
0000
1000
0001
0000
,
0011
0000
1000
0001
0010
0100
0010
0001
1000
0000
0010
0100
0000
0010
1000
0000
,
0001
0100
0010
1000
0100
0010
0001
0000
0000
0001
0100
0010
,
1000
0100
1000
0001
0000
0000
0010
0001
0100
0010
1000
0001
,
1000
0100
0010
0001
0100
0010
1000
0001
1000
0100
0010
0001
,
0100
0010
0100
0001
0010
2000
0002
0000
0000
0000
0000
0000
,
0000
0000
0000
3000
,
0013
0001
0100
1000
0110
0000
1001
0000
,
0011
0000
0000
0000
1100
0000
0000
0000
0001
0100
0001
0000
1000
0000
0010
0000
,
1000
0100
1000
0000
0010
0000
0100
0000
1001
0000
0000
0000
0011
0000
0000
0000
,
0101
1000
0100
0001
,
1000
0100
0010
0100
1000
0100
0010
0100
1000
0010
0100
0010
1000
0010
0100
0010
,
1000
0001
0010
0001
1000
0001
0010
0001
1000
0001
0100
0001
1000
0001
0100
0001
,
1000
0010
0001
0100
0001
0010
1000
0001
,
0011
0000
1100
0000
1001
1010
0110
0101
,
0010
0001
1000
0000
0010
0000
0100
0000
0001
0010
1000
0000
0100
0000
0010
0000
,
1001
0000
0000
0000
1010
0000
0100
0001
1000
0000
0001
0000
0010
0000
0100
0000
,
1000
0010
0100
0000
0001
0010
0100
0010
0001
1000
0010
0000
0100
0001
0100
0010
,
1000
0000
0100
0000
0001
0000
0010
0000
1000
0001
0010
0100
1000
0000
0001
0000
,
0010
0100
1000
0100
0010
0100
1000
0100
0010
0001
0100
0001
0010
0001
0100
0001
,
1000
0001
0100
0001
1000
0001
0100
0001
1000
0010
0001
0010
1000
0010
0001
0010
,
1000
0000
0100
0000
0001
0000
0010
0000
0001
1000
0010
0000
0100
0000
0001
0000
,
0011
0000
1000
0100
0001
0010
0001
1000
,
0010
1000
0100
0001
0010
1000
0100
0001
,
0010
0000
1000
0000
0100
0000
0001
0000
1000
0100
0010
0001
0010
0100
1000
0000
,
0010
0001
0100
1000
0010
0001
0100
1000
,
0010
0000
0001
0000
0100
0000
1000
0000
0001
0010
0100
1000
0100
0010
0001
0000
,
1001
0000
0000
0000
0011
0000
0000
1100
0000
0000
1010
0000
1001
0000
0011
0000
,
0120
0000
0000
0000
0031
0000
1000
0010
0001
0100
0010
0100
0001
0010
0100
1000
,
2020
0000
0000
0000
,
3030
0000
0000
0000
;
