#TITLE:Always on My Mind;
#ARTIST:Pet Shop Boys;
#BANNER:Always on My Mind.png;
#BACKGROUND:Always on My Mind-bg.png;
#JACKET:Always on My Mind-jacket.png;
#MUSIC:Always on My Mind.ogg;
#SAMPLESTART:40.87;
#SAMPLELENGTH:20;
#DISPLAYBPM:124:125;
#BPMS:0=125,4=124.752,60=124.783,140=124.855,176=124.752,204=124.424;
#BGCHANGES:0=Always on My Mind.avi=1=0=0=0,
;

//---------------dance-single - ----------------
#NOTES:
     dance-single:
     :
     Beginner:
     1:
     :
0000
0000
0000
0000
,
0000
0000
0000
0000
,
0000
0000
0000
0000
,
1000
0000
0000
0000
,
1000
1000
0000
0000
,
0001
0000
0000
0000
,
0001
0001
0000
0000
,
1000
1000
0000
0000
,
1000
1000
0000
0000
,
0001
0000
0000
0000
,
0000
0000
0000
0000
,
1000
0000
0000
0000
,
0000
0000
0000
0000
,
0100
0000
0000
0000
,
0100
0000
0000
0000
,
0010
0000
0000
0000
,
0010
0000
0000
0000
,
0001
0000
0000
0000
,
0000
0000
0000
0000
,
0100
0000
0000
0000
,
0000
0000
0000
0000
,
0001
0000
0001
0000
,
1000
0000
0000
0000
,
1000
0000
1000
0000
,
0001
0000
0000
0000
,
0100
0000
0000
0000
,
0010
0000
0000
0000
,
0001
0000
0000
0000
,
1000
0000
0000
0000
,
0010
0000
0000
0000
,
0100
0000
0000
0000
,
0001
0000
0000
0000
,
1000
0000
0000
0000
,
0100
0000
0000
0000
,
1000
0000
0000
0000
,
0001
0000
0000
0000
,
0100
0000
0000
0000
,
1000
0000
1000
0000
,
0001
0000
0001
0000
,
0010
0000
0000
0000
,
0010
0000
0000
0000
,
2000
0000
3000
0000
,
1000
0000
0000
0000
,
0002
0000
0003
0000
,
0001
0000
0000
0000
,
0020
0000
0030
0000
,
0010
0000
0010
0000
,
1000
0000
0000
0000
,
0001
0000
0001
0000
,
0010
0000
0000
0000
,
0100
0000
1000
0000
,
0001
0000
0000
0000
,
0100
0000
0001
0000
,
1000
0000
0000
0000
,
0000
0000
0000
0000
;

//---------------dance-single - ----------------
#NOTES:
     dance-single:
     :
     Easy:
     4:
     :
0000
0000
0000
0000
,
0000
0000
0000
0000
,
0000
0000
0000
0000
,
1001
0000
0000
0000
,
0010
0000
1000
0000
,
0100
0000
0000
0001
,
0002
0000
0003
0100
,
0200
0000
0300
0010
,
0020
0000
0030
1000
,
1001
0000
0001
0000
,
1000
0000
0010
0000
,
0100
0000
0010
0000
,
0100
0000
0001
0001
,
0001
0000
1000
0000
,
0001
0000
0010
0000
,
0100
0000
0010
0000
,
0100
0000
1000
1000
,
1000
0000
0010
0000
,
0001
0000
0010
0000
,
1000
0000
0010
0000
,
0001
0000
0010
0000
,
1000
0000
0100
0000
,
0010
0001
0010
0001
,
1000
0000
0010
0000
,
0100
0001
0100
0001
,
1000
0000
0010
0000
,
0100
0000
0001
0001
,
1000
0000
0100
0000
,
0010
0000
0001
0001
,
0100
0000
1000
0000
,
0010
0000
0100
0100
,
0001
0000
0010
0000
,
0100
0000
1000
1000
,
0001
0000
0100
0000
,
1000
0000
0100
0000
,
0001
0000
0100
0000
,
1000
0000
0100
0000
,
0001
0000
0010
0000
,
0100
1000
0100
1000
,
0010
0000
0100
0000
,
0001
0010
0001
0010
,
0200
0000
0000
0300
,
2000
0000
0000
3000
,
0001
0000
0010
0000
,
0100
0000
1000
0000
,
0020
0000
0000
0030
,
0200
0000
0000
0300
,
0001
0000
1000
0000
,
0100
0000
0010
0000
,
0001
0000
1000
0000
,
0001
0100
0001
0100
,
0010
0000
1000
0000
,
0001
0001
1000
1000
,
1001
0000
0000
0000
,
0000
0000
0000
0000
;

//---------------dance-single - ----------------
#NOTES:
     dance-single:
     :
     Medium:
     5:
     :
0000
0000
0000
0000
,
0000
0000
0000
0000
,
0000
0000
0000
0000
,
1001
0000
0100
1000
,
0020
0000
0000
0230
0000
0000
0301
0000
,
1000
1000
0001
0001
,
0020
0000
0000
0230
0000
0000
1300
0000
,
0020
0000
0000
0230
0000
0000
0301
0000
,
0020
0000
0000
0230
0000
0000
1300
0000
,
1001
0000
0010
0000
,
0100
0100
0010
0010
,
1000
0000
0001
0000
,
1000
1000
0001
0001
,
0010
0000
0100
0000
,
0010
0010
0100
0100
,
1000
0000
0010
0000
,
0100
0000
0001
1000
,
0002
0000
0013
0000
,
2000
0000
3100
0000
,
0002
0000
0103
0000
,
2000
0000
3010
0000
,
0000
0100
0001
0010
,
0200
0001
0010
1300
,
0010
0100
0001
0010
,
0200
1300
0002
0103
,
1001
0000
0010
0000
,
0100
1000
0010
1000
,
0100
0000
0001
0000
,
0010
0001
0100
0001
,
0010
0000
0100
0000
,
1000
0010
0001
0010
,
1000
0000
0100
0000
,
0001
0100
1000
0100
,
0001
1000
0001
1000
,
0100
0100
0100
0100
,
0001
1000
0001
1000
,
0010
0010
0010
0010
,
0100
0001
0010
0100
,
2000
0100
0001
3010
,
0100
1000
0010
0100
,
0001
1001
1000
1001
,
0002
0000
0000
0003
,
0200
0000
0000
0300
,
0010
0000
1000
0000
,
0100
0000
0010
0000
,
0001
0001
0001
0001
,
0100
0100
0100
0100
,
0010
0000
1000
0000
,
0001
0000
0010
0000
,
0100
1000
0010
0100
,
0002
0010
1000
0103
,
0010
1000
0100
0010
,
0001
0101
1000
1100
,
1001
0000
0000
0000
,
0000
0000
0000
0000
;

//---------------dance-single - ----------------
#NOTES:
     dance-single:
     :
     Hard:
     9:
     :
0000
0000
0000
0000
,
0000
0000
0000
0000
,
0000
0000
0000
0000
,
1001
1000
0100
1000
,
0100
0010
0100
0010
0000
0000
1001
0000
,
0101
0001
0100
0001
,
1000
0100
1000
0100
0000
0000
0011
0000
,
0001
0100
0001
0100
0000
0000
1010
0000
,
1000
0001
1000
0001
0000
0000
0110
0000
,
1001
0100
0001
0100
,
0010
1000
0100
0000
0001
1000
0100
0000
,
0010
0001
0010
0001
,
0100
0001
1000
0000
0100
0001
0010
0000
,
0100
1000
0100
1000
,
0010
1000
0001
0000
0010
1000
0100
0000
,
0001
0100
0001
0100
,
0010
1000
0100
0010
0001
1000
0001
0000
,
0200
0010
0010
0310
,
0020
1000
0100
0031
,
0020
0100
0100
0130
,
0200
1000
0010
0301
,
0010
0000
0001
0100
0001
0010
0100
1000
,
0010
1010
1001
0101
,
0011
0000
1000
0100
1000
0010
0100
0002
,
0000
1003
0100
1000
0001
0000
0110
0000
,
1001
0100
0001
0100
,
0001
0010
0001
0100
0000
0100
0010
0000
,
1000
0010
1000
0010
,
1000
0100
1000
0010
0000
0010
0100
0000
,
0001
0010
0100
1000
,
0001
0010
0001
1000
0000
0100
0010
0000
,
0001
0100
0010
1000
,
0010
0100
0010
0100
0000
0001
1000
0000
,
0200
0010
0010
0310
,
2000
0100
0001
3010
,
0200
0010
0010
0310
,
0002
0010
1000
0103
,
0100
0000
0001
0010
0001
0100
0010
1000
,
0001
1001
0101
0110
,
1010
0000
1000
0100
1000
0010
0100
0002
,
0000
0013
0100
0010
0001
0000
0011
0000
,
2200
0000
0000
0300
,
0100
0001
0100
3001
,
0010
0001
1000
0010
1000
0100
0010
0001
,
0200
0000
0310
0110
,
1000
0010
1000
0010
1000
0001
1000
0001
,
0100
0001
0100
0001
1000
0001
1000
0001
,
0010
0011
1000
1100
,
0001
0101
1000
1010
,
0100
0000
0001
0100
0001
0010
0100
1000
,
0001
0000
1000
1000
0100
0100
0010
0010
,
0001
0000
1000
0010
1000
0100
0010
0001
,
1000
0110
0001
0110
,
1001
0000
0000
0000
,
0000
0000
0000
0000
;

//---------------dance-single - ----------------
#NOTES:
     dance-single:
     :
     Challenge:
     12:
     :
0000
0000
0000
0000
,
0000
0000
0000
0000
,
0000
0000
0000
0000
,
1001
0000
0000
0000
0001
0100
0001
0100
0001
0000
0010
0000
0100
0000
1000
0000
,
0010
0010
1000
0001
0100
0010
0110
0000
,
0101
0000
0000
0000
1000
0100
1000
0100
1000
0000
0010
0000
0100
0000
0001
0000
,
0010
0010
0001
1000
0010
0100
0110
0000
,
1000
1000
0001
0010
0001
0100
0110
0000
,
1000
1000
0100
0010
0001
0100
0110
0000
,
1001
0000
0000
0000
0010
1000
0000
0010
2000
0000
0000
0000
3010
0000
0001
0100
,
0001
0010
1000
0100
0010
0100
1000
0001
,
0100
0000
0000
0000
0000
0000
0010
0000
0000
0000
0000
0000
1000
0000
0000
0000
0001
0000
0000
0000
0100
0000
0000
0000
0000
0000
0000
0002
0000
0000
0000
0000
0000
0000
0000
0000
1003
0000
0000
0000
0010
0000
0000
0000
0100
0000
0000
0000
,
0001
0000
0010
0000
0100
0000
0010
0000
0001
0000
1000
0000
0010
0100
0010
0100
,
0010
0000
0000
0000
0000
0000
1000
0000
0000
0000
0000
0000
0100
0000
0000
0000
0010
0000
0000
0000
0001
0000
0000
0000
0200
0000
0000
0000
0000
0000
0000
0000
0000
0000
0000
0000
0310
0000
0000
0000
0000
0000
1000
0000
0000
0001
0000
0000
,
1000
0100
0010
0001
0100
1000
0010
0001
,
0010
0000
0000
0000
0000
0000
1000
0000
0000
0000
0000
0000
0100
0000
0000
0000
0010
0000
0000
0000
0001
0000
0000
0000
0200
0000
0000
0000
0000
0000
0000
0000
0000
0310
0000
0000
0000
0000
0000
0000
0000
0000
1000
0000
0000
0200
0000
0000
,
0000
0000
1300
0000
0001
0100
0001
0000
0010
0000
0100
0000
1000
0000
0001
0000
,
0101
0000
0000
0000
0000
0000
0000
0000
0000
0000
0000
0000
0010
0000
0000
0000
1000
0000
0000
0000
0001
0000
0000
0000
2000
0000
0000
0000
0000
0000
0000
0000
0000
0000
0000
0000
3100
0000
0000
0000
0000
0000
0010
0000
0000
0001
0000
0000
,
0000
0000
0100
0000
0010
0000
1000
0000
0100
0000
0001
0000
0100
0000
0010
0001
,
0020
0000
0130
1000
0010
0100
0001
1000
,
0100
1000
0000
0001
0100
0000
0010
0000
0000
0000
1000
0100
1000
0000
0001
0000
,
0100
0010
1000
0100
0001
0100
1000
0100
,
0110
0000
0001
0100
1000
0100
0001
0010
,
0200
0000
0000
0000
1300
0010
0000
2000
0000
0000
0001
0000
3001
0000
0100
0000
,
0010
1000
0100
0010
0002
0000
0103
0010
,
1001
0000
0000
0000
0010
0000
1000
0100
2000
0000
0000
0000
3001
0000
0100
0010
,
0100
0001
0010
0100
1000
0001
0110
0000
,
1100
0000
0001
0100
1000
0100
0010
1000
,
0001
0001
0010
0100
1000
0010
0110
0000
,
1001
0000
0000
0000
0000
0000
0000
0000
0000
0000
0000
0000
0010
0000
0000
1000
0000
0000
0000
0000
0100
0000
0000
0000
0020
0000
0000
0000
0000
0000
0000
0000
0000
0000
0000
0000
0031
0000
0000
0000
0100
0000
0000
0000
0001
0000
0000
0000
,
1000
1000
0001
1000
0010
0100
0110
0000
,
0101
0000
0020
0000
0000
2030
0000
0000
3100
0010
0000
0001
0000
2000
0000
0000
,
3010
0010
1000
0100
0001
0100
1100
0000
,
0011
0000
0000
0000
0000
0000
0000
0000
0000
0000
0000
0000
0100
0000
0000
0000
0010
0000
0000
0000
1000
0000
0000
0000
0000
0000
0000
0002
0000
0000
0000
0000
0000
0000
0000
0000
0013
0000
0000
0000
0000
0000
0100
0000
0000
0000
0000
0000
,
1000
0000
0010
0000
0100
0001
0000
0000
2000
0000
0100
0000
3100
0000
0000
0000
,
0020
0000
0000
0000
1030
0000
0010
0000
0001
0000
0100
0000
0000
0000
0010
1000
,
0010
0100
0001
0010
1000
0001
0100
0010
,
1000
0000
1000
0100
0001
0100
1000
0010
,
0110
0000
0010
1000
0001
1000
0100
0010
,
0002
0000
0000
0000
1003
0010
2000
0000
0000
0000
0100
0000
3100
0000
0010
0000
,
0001
0100
1010
0000
1000
0010
0101
0000
,
2001
0000
0000
0000
0010
0000
0000
0000
0100
0000
0000
3001
0000
0000
1000
0000
,
0020
0000
0000
0000
0130
0000
0000
0000
0001
1000
0000
0001
1000
0000
0010
0000
,
0100
0000
0000
0000
0000
0000
0001
0000
0000
1000
0000
0000
0000
0000
0000
0100
0000
0000
0000
0000
0000
0000
0000
0000
0010
0000
0000
0000
0000
0000
0010
0000
0000
0000
0000
0000
0000
0000
0000
0000
0001
0000
0000
0000
1000
0000
0000
0000
,
0000
0010
1000
0100
0001
0100
1000
0000
,
2001
0000
0010
0000
0001
0000
3100
0010
,
0001
0000
0100
0000
0010
0000
1000
0000
0200
0000
0000
0000
1300
0000
0000
0001
,
0000
0100
0000
0010
0000
0000
1000
0000
0100
0000
0000
0010
0000
0001
1000
0000
,
0000
0001
0100
0010
1000
0100
0002
0000
,
0013
0000
0001
0000
0100
0010
0200
0000
0000
0000
0301
0000
1000
0000
0100
0000
,
0000
0110
0000
0000
0010
0000
0010
0000
0001
0000
0001
0000
1000
0000
1000
0000
,
0010
0000
0000
0000
1000
0100
2000
0000
0000
0000
0001
0000
3001
0000
0100
0000
,
0010
1000
0101
0000
0001
0100
1010
0000
,
1001
0000
0000
0000
;

//---------------dance-double - ----------------
#NOTES:
     dance-double:
     :
     Easy:
     3:
     :
00000000
00000000
00000000
00000000
,
00000000
00000000
00000000
00000000
,
00000000
00000000
00000000
00000000
,
00011000
00000000
00001000
00000000
,
00010000
00000000
01000000
00000000
,
10000000
00000000
00100000
00000000
,
00010000
00000000
00000000
00001000
,
00000100
00000000
00000000
00000001
,
00000010
00000000
00000000
00000100
,
00001000
00000000
00000001
00000000
,
00000100
00000000
00001000
00000000
,
00010000
00000000
00100000
00000000
,
01000000
00000000
00010000
10000000
,
00010000
00000000
01000000
00000000
,
00001000
00000000
00010000
00000000
,
00000100
00000000
00001000
00000000
,
00000001
00000000
00000100
00000010
,
00000200
00000000
00000300
00000000
,
00002000
00000000
00003000
00000000
,
00020000
00000000
00030000
00000000
,
02000000
03000000
20000000
30000000
,
00100000
00000000
00010000
00000000
,
00001000
00010000
00001000
00010000
,
00001000
00000000
00000100
00000000
,
00000001
00001000
00000001
00001000
,
00000001
00000000
00000100
00000000
,
00000010
00000000
00001000
00001000
,
00000100
00000000
00010000
00000000
,
00001000
00000000
01000000
01000000
,
00010000
00000000
10000000
00000000
,
00100000
00000000
01000000
01000000
,
00010000
00000000
00100000
00000000
,
00001000
00000000
00010000
00010000
,
00002000
00000000
00003000
00000000
,
00000200
00000000
00000300
00000000
,
00000002
00000000
00000003
00000000
,
00000020
00000000
00000030
00000000
,
00000100
00000000
00010000
00000000
,
00001000
00010000
00001000
00010000
,
00001000
00000000
00100000
00000000
,
00010000
10000000
00010000
10000000
,
00200000
00000000
00000000
00300000
,
02000000
00000000
00000000
03000000
,
00100000
00000000
00010000
00000000
,
00001000
00000000
00000100
00000000
,
00000002
00000000
00000000
00000003
,
00002000
00000000
00000000
00003000
,
00000100
00000000
00010000
00000000
,
00001000
00000000
00100000
00000000
,
00010000
00000000
10000000
00000000
,
00100000
10000000
00100000
10000000
,
00010000
00000000
01000000
00000000
,
00001000
00001000
00010000
00010000
,
00011000
00000000
00000000
00000000
,
00000000
00000000
00000000
00000000
;

//---------------dance-double - ----------------
#NOTES:
     dance-double:
     :
     Medium:
     5:
     :
00000000
00000000
00000000
00000000
,
00000000
00000000
00000000
00000000
,
00000000
00000000
00000000
00000000
,
00000010
00001000
00000010
00001000
,
00000100
00000000
00000000
00000010
00000000
00000000
00000001
00000000
,
00000100
00000010
00000100
00000010
,
00010000
00000000
00000000
00001000
00000000
00000000
00100000
00000000
,
00001000
00000000
00000000
00010000
00000000
00000000
00000010
00000000
,
00010000
00000000
00000000
00001000
00000000
00000000
00010000
00000000
,
00011000
00000000
00100000
00000000
,
00010000
00010000
10000000
10000000
,
00100000
00000000
01000000
00000000
,
00010000
00010000
00100000
00100000
,
00001000
00000000
00010000
00000000
,
00000100
00000100
00001000
00001000
,
00000010
00000000
00000100
00000000
,
00000001
00000001
00001000
00001000
,
00000002
00000000
00000013
00000100
,
00002000
00000000
00003100
00010000
,
00002000
00000000
01003000
00010000
,
00200000
00000000
02300000
00000000
,
13000000
00010000
10000000
00010000
,
00100000
00001000
00010000
00000010
,
00001000
00000001
00001000
00000001
,
00000100
00000010
00010000
00001000
,
00011000
00000000
01000000
00000000
,
00100000
00100000
10000000
10000000
,
01000000
00000000
00100000
00000000
,
00010000
00010000
01000000
01000000
,
00001000
00000000
00010000
00000000
,
00000010
00000010
00001000
00001000
,
00000100
00000000
00000010
00000000
,
00000001
00000001
00001000
00001000
,
00001002
00000000
00000103
00000010
,
00002000
00000000
00003100
00010000
,
00002000
00000000
01003000
00100000
,
20000000
00000000
30020000
00000000
,
00130000
01000000
00100000
01000000
,
00100000
00001000
00010000
00000010
,
00000100
00000010
00000100
00000010
,
00001000
00001100
00000001
00000101
,
00002001
00000000
00000000
00000000
,
00003200
00000000
00000000
00000000
,
00010300
00000000
00001000
00000000
,
01000000
00000000
00100000
00000000
,
10000000
00010000
10000000
00010000
,
00100000
01000000
00100000
01000000
,
00010000
00000000
00001000
00000000
,
00000100
00000000
00000001
00001000
,
00000001
00000100
00000010
00000100
,
00001000
00010000
00001000
00010000
,
01000000
00100000
01000000
10000000
,
00010000
10010000
10000000
10010000
,
01100000
00000000
00000000
00000000
,
00000000
00000000
00000000
00000000
;

//---------------dance-double - ----------------
#NOTES:
     dance-double:
     :
     Hard:
     9:
     :
00000000
00000000
00000000
00000000
,
00000000
00000000
00000000
00000000
,
00000000
00000000
00000000
00000000
,
20020000
30030000
10000000
00010000
,
01000000
01000000
01000000
01000000
00000000
00000000
00100000
00000000
,
00010000
00001000
00000100
00000010
,
00001010
00001000
00001000
00000100
00000000
00000000
00000101
00000000
,
00000011
00000001
00000001
00000100
00000000
00000000
00001100
00000000
,
00001010
00001000
00001000
00000100
00000000
00000000
00010100
00000000
,
00011000
00001000
00010000
00100000
,
01000000
00100000
10000000
00000000
00010000
01000000
00100000
00000000
,
10000000
01000000
00010000
00001000
,
00000010
00000100
00001000
00000000
00000001
00000010
00000100
00000000
,
00001000
00000010
00000100
00000001
,
00001000
00000010
00010000
00000000
00001000
01000000
00010000
00000000
,
10000000
01000000
00100000
00010000
,
01000000
00001000
00010000
00000100
00001000
00000001
00000100
00000010
,
00001000
00001001
00000001
00001001
,
00000100
00010000
00001000
00000000
00100000
00010000
10000000
00000000
,
00010000
10010000
10000000
10010000
,
01000000
00001000
00010000
00000000
00000010
00001000
00000001
00000000
,
00000010
00000000
00000100
00001000
00000100
00010000
00001000
00100000
,
00010000
02000000
03200000
20300000
,
30010000
00000000
01000000
00010000
01000000
00001000
00010000
00000010
,
00001000
00001100
00000001
00000101
,
00001001
00001000
00000001
00000100
,
00000010
00001000
00000010
00010000
00000000
00010000
00001000
00000000
,
01000000
00010000
10000000
01000000
,
00100000
00010000
00100000
00001000
00000000
00001000
00010000
00000000
,
00000010
00001000
00000100
00000010
,
00000100
00010000
00001000
00100000
00000000
00100000
00010000
00000000
,
10000000
00010000
01000000
00100000
,
01000000
00001000
00010000
00000010
00000000
00000010
00000100
00000000
,
00000001
00000011
00000010
00000110
,
00000100
00010000
00001000
00000000
00100000
00010000
10000000
00000000
,
00100000
10100000
10000000
11000000
,
01000000
00100000
00001000
00000000
00010000
00000100
00000010
00000000
,
00000001
00000000
00001000
00000010
00001000
00000100
00010000
00001000
,
00100000
00020000
02030000
03200000
,
10300000
00000000
00010000
01000000
00010000
00100000
00001000
00010000
,
00000100
00011000
00100000
00011000
,
00000020
00000000
00000200
00000030
,
00000302
00001003
00002000
00003100
,
00020000
00000000
00002000
00030000
,
02003000
03010000
00020000
10030000
,
00100000
10000000
00100000
00000000
10000000
01000000
10000000
00000000
,
00010000
01000000
00010000
00000000
00100000
00010000
00100000
00001000
,
00010000
00010100
00001000
00101000
,
00010000
00010010
00001000
00001001
,
00000100
00000000
00000001
00000010
00000001
00001000
00000100
00010000
,
00001000
00000000
00100000
00100000
01000000
01000000
10000000
10000000
,
00100000
00000000
01000000
00010000
01000000
00001000
00010000
00000100
,
00001000
00000101
00000001
00001100
,
00002002
00000000
00000000
00003003
,
00000000
00000000
00000000
00000000
;
