#TITLE:Always Something There to Remind Me;
#ARTIST:Naked Eyes;
#BANNER:Always Something There to Remind Me-bn.png;
#BACKGROUND:Always Something There to Remind Me-bg.png;
#JACKET:Always Something There to Remind Me-jacket.png;
#MUSIC:Always Something There to Remind Me.ogg;
#OFFSET:0.777;
#SAMPLESTART:62.5;
#SAMPLELENGTH:20;
#DISPLAYBPM:147:152;
#BPMS:0=148.92,8=150,36=149.5,40=151,44=150.313,52=149,60=148,64=149.149,68=148.888,80=147.5,84=148.4,88=150.1,92.66666=150.08,100=147,102=151.2,104=148.59,108=149.675,132=149.31,136=147.991,140=148.4,148=150.3,164=149.875,180=148.333,208=149.573,216=152,224=150.051,228=147.93,244=149.01;
#BGCHANGES:;

//---------------dance-single - ----------------
#NOTES:
     dance-single:
     :
     Beginner:
     3:
     :
0000
0000
0000
0000
,
0000
0000
0000
0000
,
0000
0000
0000
0000
,
0000
0000
0000
0000
,
0000
0000
0000
0000
,
0000
0010
0010
0010
,
0010
0010
0010
0010
,
0000
0100
0100
0100
,
0100
0100
0100
0100
,
0000
0000
0001
0000
,
1000
0000
0010
0000
,
1000
0000
0100
0000
,
0010
0000
0001
0000
,
0100
0000
0000
0000
,
0010
0000
1000
0000
,
0001
0000
1000
0000
,
0100
0000
0010
0000
,
0001
0000
1000
0000
,
0001
0000
0100
0100
,
0100
0000
0000
0000
,
0010
0010
0010
0000
,
0000
0000
1000
0000
,
0001
0001
0001
0000
,
0100
0000
0010
0000
,
1000
0000
0000
0000
,
0001
0000
0000
0000
,
0010
0010
0010
0000
,
0001
0000
0100
0000
,
1000
0000
0000
0000
,
0010
0000
0000
0000
,
0100
0100
0000
0000
,
0001
0000
0000
0000
,
1000
0000
0000
0000
,
0001
0001
0000
0000
,
0010
0000
0100
0000
,
1000
1000
0000
0000
,
0001
0000
0000
0000
,
0010
0000
0000
0000
,
0001
0001
0000
0000
,
1000
0000
0010
0010
,
0010
0000
0000
0000
,
0100
0100
0100
0000
,
0000
0000
0001
0000
,
0100
0100
0100
0000
,
0010
0000
1000
0000
,
0001
0000
0000
0000
,
1000
0000
0000
0000
,
0010
0010
0010
0000
,
1000
0000
0100
0000
,
0010
0000
0000
0000
,
0001
0000
1000
0000
,
1001
0000
0000
0000
,
0100
0100
0000
0000
,
0000
0000
0001
0000
,
1000
0000
0000
0000
,
0001
0000
0000
0000
,
0100
0100
0000
0000
,
0000
0000
0010
0010
,
0010
0000
0000
0000
,
1000
0000
0000
0000
,
0001
0001
0000
0000
,
1000
1000
0000
0000
,
0010
0010
0000
0000
,
0100
0100
0000
0000
,
0001
0000
1000
0000
,
1001
0000
0000
0000
;

//---------------dance-single - ----------------
#NOTES:
     dance-single:
     :
     Easy:
     7:
     :
0000
0000
0000
0000
,
0000
0000
0000
0000
,
0000
0000
0000
0000
,
0000
0000
0000
0000
,
0000
0000
0000
0000
,
0000
0010
1000
0100
,
1000
0010
0100
0001
,
0000
1000
0100
0010
,
0001
0100
0010
1000
,
1001
0000
1000
0100
,
1000
0010
0100
0001
,
0010
0100
0010
0001
,
0100
0010
1000
0001
,
0200
0000
0000
0300
,
0110
0000
0010
0100
,
0001
0010
0001
1000
,
0100
1000
0010
1000
,
0001
0000
0010
0001
,
0100
0000
1001
1001
,
0110
1000
0000
0001
,
1000
0100
0020
0030
,
0110
0000
0001
1000
,
1001
1001
0110
0110
,
1000
0010
0100
0001
,
0010
0000
0001
0100
,
2000
0000
0002
3003
,
1001
1001
0110
0110
,
1000
0010
0100
0001
,
0010
0000
0100
1000
,
0002
0000
0200
0303
,
0110
1001
1000
0100
,
1000
0010
0100
0001
,
0010
0001
0100
1000
,
0001
0001
1000
1000
,
0010
1000
0200
0300
,
1001
0110
0001
0010
,
0001
0100
0010
1000
,
0100
0010
0100
1000
,
0001
0000
1000
0001
,
0100
0000
0110
0110
,
1001
0100
0000
0010
,
1000
0100
0002
0003
,
1001
0000
0010
0100
,
1001
1001
0110
0110
,
1000
0010
0100
0001
,
1000
0000
0001
1000
,
0200
0000
0020
0330
,
1001
1001
0110
0110
,
1000
0010
0100
0001
,
1000
0000
0001
0100
,
0001
0000
1000
0100
,
2000
0000
0000
3010
,
0200
0002
0000
0303
,
1000
0100
0010
0001
,
0200
0000
0000
0310
,
0110
0000
0001
1000
,
1001
0100
0000
0001
,
0000
1000
0002
0203
,
0301
1000
0000
0010
,
0100
0000
0000
0000
,
0001
0001
1000
1000
,
0010
0010
0100
0100
,
0001
0010
0100
1000
,
0001
0100
0010
1000
,
0110
0000
1000
0001
,
1000
0010
0001
0100
,
0010
1000
0001
1001
;

//---------------dance-single - ----------------
#NOTES:
     dance-single:
     :
     Medium:
     9:
     :
0000
0000
0000
0000
,
0000
0000
0000
0000
,
0000
0000
0000
0000
,
0000
0000
0000
0000
,
0000
0000
0000
0000
,
0010
1001
1010
0101
,
0011
0110
1100
1001
,
0100
0101
1010
1100
,
0011
1001
0110
1010
,
1001
0000
0000
1000
0000
0000
0010
0000
0100
0001
0000
0000
,
0011
0000
0000
0100
0000
1000
0001
0000
0000
0100
0000
0000
,
1010
0000
0000
0001
0000
0010
0100
0000
0000
1000
0000
0000
,
0110
0000
0000
1000
0000
0010
0100
0000
0000
0001
0000
0000
,
0101
0000
0000
1000
0000
1000
0001
0000
0000
0100
0000
0000
,
1001
0000
0000
0001
0000
0010
0001
0000
0000
1000
0000
0000
,
1010
0000
0000
0100
0000
0100
0001
0000
0000
0010
0000
0000
,
0011
0000
0000
1000
0000
0001
0100
0000
0000
0010
0000
0000
,
1010
0000
0000
1000
0000
1000
0100
0000
0000
0010
0000
0000
,
0011
0000
0000
0001
0000
0100
0002
0000
0000
2003
0000
0000
,
3020
0000
0000
1030
0000
0100
0010
0000
0000
0001
0000
1000
,
0002
0203
0320
1030
,
1100
0000
0000
0001
0000
1000
0001
0000
0000
0100
0000
0000
,
0101
0000
0000
1100
0000
0000
0101
0000
0000
1000
0000
0001
,
0000
0000
0010
0000
0000
0001
0200
0000
0000
0320
0000
0000
,
1030
0000
0010
0100
0000
0002
0000
0000
0000
1003
0000
0000
,
0001
0000
0010
0100
0000
2000
0000
0000
0000
3000
0000
0000
,
1010
0000
0000
0011
0000
0000
1010
0000
0000
0001
0000
2000
,
0000
0000
0000
3010
0000
1000
0200
0000
0000
0320
0000
0000
,
0031
0000
1000
0001
0000
0200
0000
0000
0000
0310
0000
0000
,
1000
0000
0100
0010
0000
0002
0000
0000
0000
0003
0000
0100
,
0010
0000
0000
1001
0000
0000
1000
0000
0100
0010
0000
0000
,
0011
0000
0000
0100
0000
0100
0001
0000
0000
1000
0000
0000
,
1100
0000
0000
1000
0000
1000
0001
0000
0000
0100
0000
0100
,
0010
0000
0000
1000
0000
1000
0001
0000
0000
0010
0000
0000
,
1100
0000
0000
0010
0000
0001
0200
0000
0000
0300
0000
0010
,
1000
0000
0000
0101
0000
0000
0001
0000
0010
0100
0000
0000
,
0110
0000
0000
0010
0000
0001
1000
0000
0000
0100
0000
0000
,
0011
0000
0000
0001
0000
1000
0010
0000
0000
1000
0000
0100
,
0010
0000
0000
0001
0000
1000
0001
0000
0000
0100
0000
0010
,
1000
0000
0000
0001
0000
1000
0200
0000
0000
0320
0000
0000
,
0032
0000
0000
1003
0000
0001
0100
0000
0000
0010
0000
1000
,
0200
2300
3002
0013
,
0011
0000
0000
1000
0000
0001
0100
0000
0000
0010
0000
0000
,
1001
0000
0000
0110
0000
0000
1001
0000
0000
0010
0000
1000
,
0000
0000
0100
0000
0000
1000
0002
0000
0000
0203
0000
0000
,
0310
0000
1000
0001
0000
2000
0000
0000
0000
3100
0000
0000
,
0010
0000
0100
1000
0000
0002
0000
0000
0000
0003
0000
0000
,
0011
0000
0000
1100
0000
0000
0011
0000
0000
0100
0000
0020
,
0000
0000
0000
1030
0000
0010
0200
0000
0000
0302
0000
0000
,
1003
0000
0001
0010
0000
0200
0000
0000
0000
1300
0000
0000
,
0100
0000
1000
0001
0000
0100
0020
0000
0000
2030
0000
0000
,
3002
0010
1000
0103
,
1010
0201
1000
0301
,
0100
0000
0000
0010
0000
1000
0002
0000
0000
0203
0000
0000
,
0320
0000
0000
1000
0000
0000
0130
0000
1000
0001
0000
0000
,
1010
0000
0000
0000
0000
0000
0001
0000
0001
1000
0000
0000
,
0010
0101
0001
1100
,
0010
0000
0000
0110
0000
0000
0001
0000
1000
0001
0000
1000
,
0100
1001
0010
0101
,
1100
0000
0000
0001
0000
1000
0001
0000
0000
0100
0000
0000
,
0020
2030
3200
0320
,
0032
2003
3002
0203
,
0302
0023
0230
2300
,
3020
2030
3200
0320
,
0032
0000
0000
0003
0000
1000
0001
0000
1000
0100
0000
0000
,
0110
0011
0101
1001
,
1010
1100
0101
1001
;

//---------------dance-single - ----------------
#NOTES:
     dance-single:
     :
     Hard:
     12:
     :
0000
0000
0000
0000
,
0000
0000
0000
0000
,
0000
0000
0000
0000
,
0000
0000
0000
0000
,
0000
0000
0000
0000
,
0010
0000
0000
1001
0000
0000
0101
0000
1000
0100
0000
0000
,
1010
0000
0000
0101
0000
0000
0011
0000
1000
0001
0000
0100
,
0010
0000
0000
0101
0000
0000
1010
0000
0100
0001
0000
0000
,
0011
0000
0000
0110
0000
0000
1100
0000
0001
0100
0000
0010
,
1000
0000
0000
1001
0000
0010
0100
0000
0001
0000
0000
0010
,
0100
0000
1000
0000
0000
0001
0100
0000
0010
0000
0000
1000
,
0001
0000
0010
0000
0000
0100
0010
0000
0001
0000
0000
1000
,
0001
0000
0100
0010
0000
1000
0000
0000
0001
0000
0000
0100
,
0010
0000
0000
0010
0000
1000
0001
0000
0000
0110
0000
0000
,
1000
0000
0000
1010
0000
0001
1000
0000
0100
0000
0000
0010
,
0001
0000
0100
0000
0000
0010
0100
0000
0001
0000
0000
1000
,
0100
0000
0010
0001
0000
1000
0000
0000
0010
0000
0000
0100
,
0001
0000
0000
0011
0000
0100
1000
0000
0000
0010
0000
0100
,
0010
0000
1000
0001
0000
1000
0200
0000
0000
0320
0000
0000
,
0031
0000
0000
0101
0000
1000
0001
0000
0000
1100
0000
0100
,
0020
0000
0000
0230
0000
0000
1300
0000
0001
0100
0000
0000
,
0110
0000
0000
0001
0000
1000
0020
0000
0000
0130
0000
0000
,
0101
0000
0000
1100
0000
0000
0101
0000
0000
1000
0000
1000
,
0100
0000
0100
0010
0000
0010
0001
0000
0100
0001
0000
1000
,
0010
0000
0100
0010
0000
2000
0000
0000
3001
0100
0000
0010
,
1000
0000
0100
1000
0000
0002
0000
0000
0103
0010
0000
0000
,
1010
0000
0000
0011
0000
0000
1010
0000
0000
0001
0000
0001
,
1000
0000
1000
0100
0000
0100
1000
0000
0010
1000
0000
0001
,
0100
0000
0010
1000
0000
0002
0000
0000
0013
0001
0000
1000
,
0001
0000
0100
0010
0000
1000
0100
0000
1000
0001
0000
1000
,
0010
0000
0000
1010
0000
0100
0001
0000
1000
0000
0000
0100
,
0010
0000
0000
0001
0000
1000
0000
0000
0010
0000
0000
0100
,
0001
0000
0000
1000
0000
0100
1000
0000
0001
0100
0000
0010
,
2000
0000
0000
3100
0000
0100
0010
0000
0000
0011
0000
0001
,
1000
0000
0000
1001
0000
0001
0200
0000
0000
0310
0000
1000
,
0001
0000
0000
1100
0000
1000
0001
0000
0100
0000
0000
0010
,
1000
0000
0000
0110
0000
0001
1000
0000
0001
0100
0000
0000
,
0010
0000
1000
0100
0000
0001
0100
0000
0000
1000
0000
0010
,
0100
0000
0000
0101
0000
1000
0001
0000
0000
0010
0000
0001
,
0100
0000
0010
1000
0000
0001
2000
0000
0000
3200
0000
0000
,
0310
0000
0000
1001
0000
0100
0001
0000
0000
1010
0000
1000
,
0200
0320
0031
0011
,
1100
0000
0000
0101
0000
1000
0002
0000
0000
0103
0000
0000
,
0110
0000
0000
1001
0000
0000
0110
0000
0000
1000
0000
1000
,
0001
0000
0001
0010
0000
0010
0100
0000
0010
0100
0000
1000
,
0001
0000
0100
0001
0000
2000
0000
0000
3010
0100
0000
0100
,
0001
0000
1000
0001
0000
0020
0000
0000
0130
1000
0000
0000
,
1010
0000
0000
0101
0000
0000
1010
0000
0000
0100
0000
0100
,
0001
0000
0001
1000
0000
1000
0001
0000
0100
0010
0000
1000
,
0100
0000
0100
0010
0000
0002
0000
0000
0103
0010
0000
1000
,
0001
0000
0010
0001
0000
1000
0010
0000
0100
0001
0000
0000
,
0021
1000
0100
0031
,
0101
2100
0010
3100
,
0001
0000
0000
1000
0000
0001
0200
0000
0000
0310
0000
0000
,
2010
0000
0000
0100
0000
0000
3001
0000
1000
0001
0000
0000
,
0101
0000
0000
0000
0000
0100
0010
0000
0100
0010
0000
1000
,
0001
0000
0000
1001
0000
1000
0100
0000
0000
0010
0000
0000
,
0001
0000
0000
1000
0000
0001
0100
0000
0100
0010
0000
0010
,
1000
0000
0001
0100
0000
0010
1000
0000
0100
0010
0000
0000
,
0001
0000
0000
1100
0000
0100
0010
0000
0000
0011
0000
1000
,
0100
0000
0010
0001
0000
0000
1000
0010
1000
0010
0000
0100
,
0001
0000
1000
0100
0000
0000
0010
0001
0010
0001
0000
0100
,
0001
0000
0001
1000
0000
0000
0001
0010
0001
0010
0000
0100
,
1000
0000
1000
0010
0000
0000
0100
0001
0100
0001
0000
1000
,
0010
0000
1000
0000
0100
0000
0010
0000
0001
0000
0100
0000
,
0110
1001
1010
0101
,
0011
0110
1100
1001
;

//---------------dance-single - ----------------
#NOTES:
     dance-single:
     :
     Challenge:
     15:
     :
0000
0000
0000
0000
,
0000
0000
0000
0000
,
0000
0000
0000
0000
,
0000
0000
0000
0000
,
0000
0000
0000
0000
,
0010
0000
0000
1001
0000
1000
0100
0000
0000
0110
0000
0001
,
1000
0000
0010
1000
0000
0001
0100
0000
0010
1000
0000
0000
,
0001
0000
0000
0011
0000
0100
1000
0000
0000
1010
0000
0000
,
0101
0000
0000
0000
0000
0000
1100
0000
0000
0000
1000
0000
0010
0000
0000
0000
0100
0000
0001
0000
0000
0000
1000
0100
,
1000
0000
0000
1001
0000
0010
0001
0000
0100
0001
0000
1000
,
0010
0000
1000
0100
0000
0010
0001
0000
0100
0001
0000
1000
,
0001
0000
0010
0001
0000
0100
0001
0000
1000
0001
0000
0100
,
0010
0000
1000
0010
0000
1000
0100
0000
0010
0001
0000
1000
,
0100
0000
0000
0110
0000
0001
1000
0000
0000
0101
0000
0000
,
0010
0000
0000
1010
0000
1000
0100
0000
0100
0010
0000
0010
,
0001
0000
0100
0001
0000
1000
0010
0000
0100
0010
0000
1000
,
0100
0000
0100
0010
0000
0010
0100
0000
1000
0001
0000
0010
,
0001
0000
0000
0011
0000
1000
0100
0000
0000
1100
0000
0010
,
0001
0000
0100
0010
0000
1000
0002
0000
0000
2003
0000
0000
,
3010
0000
0000
1001
0000
0010
1000
0000
0000
0101
0000
0010
,
1000
0000
0000
1100
0000
0010
0001
0000
0000
0101
0000
0000
,
1000
0000
0000
0000
0000
0000
1001
0000
0000
0000
1000
0000
0001
0000
0000
0000
0000
0000
0110
0000
0000
0000
0001
0100
,
0001
0000
0000
0000
1000
0000
0100
0000
0000
0000
0010
0000
0001
0000
0000
0000
1000
0000
0001
0000
0000
0000
0100
0010
,
0100
0000
0000
0000
0001
0000
1000
0000
0000
0000
0010
0000
1000
0000
0100
0000
0010
0000
0001
0000
0010
0000
0100
1000
,
0100
0000
0000
0000
1000
0000
0001
0000
0000
0000
0010
0000
0100
0000
0000
0000
0100
0000
1000
0000
0000
0000
0001
0010
,
0001
0000
0000
0000
1000
0000
0001
0000
0000
0000
0100
0000
0010
0000
1000
0000
0001
0000
0010
0000
0100
0000
1000
0001
,
1000
0000
0000
0000
0001
0000
0100
0000
0000
0000
0010
0000
0100
0000
0000
0000
0001
0000
1000
0000
0000
0000
0100
0010
,
0100
0000
0000
0000
1000
0000
0001
0000
0000
0000
0010
0000
0001
0000
0100
0000
0010
0000
1000
0000
0001
0000
0010
0100
,
0010
0000
0000
0000
0001
0000
0100
0000
0000
0000
0010
0000
1000
0000
0000
0000
0100
0000
1000
0000
0000
0000
0001
0100
,
0001
0010
0100
1000
0010
0100
0010
1000
0001
0100
0001
1000
,
0010
0000
0000
0101
0000
1000
0100
0000
0100
0010
0000
0010
,
0001
0000
0000
1100
0000
0010
1000
0000
1000
0001
0000
0010
,
0100
0000
1000
1001
0000
0010
0100
0000
0001
1000
0000
0100
,
0010
0000
0000
0011
0000
0100
1000
0000
0000
0001
0000
1000
,
1010
0000
0000
0101
1000
0001
0200
0000
0000
0310
0000
1000
,
1100
0000
0000
0101
0000
0010
1000
0000
1000
0100
0000
0100
,
0010
0000
0000
1001
0000
0001
0100
0000
0010
1000
0000
0000
,
0001
0000
1000
1010
0000
0100
0001
0000
0010
0001
0000
1000
,
1100
0000
0000
0110
0000
0001
0100
0000
0010
1000
0000
0001
,
0010
0000
0001
0100
0000
0001
2000
0000
0000
3010
0000
1000
,
0100
0000
0000
1001
0000
0010
0001
0000
0000
1100
0000
0010
,
1000
0000
0000
0101
0000
0010
0100
0000
0000
0110
0000
0001
,
1000
0000
0000
0000
0000
0000
0101
0000
0000
0000
0010
0000
1000
0000
0000
0000
0000
0000
1010
0000
0000
0000
0001
1000
,
0001
0000
0010
0001
0000
0100
0010
0000
0010
1000
0000
0001
,
1000
0000
0000
0000
1000
0000
0100
0000
0000
0000
0100
0000
0010
0000
0001
0000
0100
0000
0001
0000
0000
0000
1000
0100
,
1000
0000
0000
0000
0001
0000
0100
0000
0000
0000
0010
0000
1000
0000
0000
0000
0001
0000
0010
0000
0000
0000
0100
1000
,
0100
0000
0000
0000
1000
0000
0001
0000
0000
0000
0100
0000
0001
0000
0010
0000
0001
0000
1000
0000
0100
0000
0010
0001
,
0010
0000
0000
0000
0100
0000
1000
0000
0000
0000
0010
0000
1000
0000
0000
0000
0001
0000
0010
0000
0000
0000
0001
0100
,
0001
0000
0000
0000
1000
0000
0100
0000
0000
0000
0010
0000
0001
0000
1000
0000
0001
0000
0100
0000
0000
0000
0010
1000
,
0010
0000
0000
0000
0100
0000
0001
0000
0000
0000
0010
0000
0100
0000
0000
0000
1000
0000
0001
0000
0000
0000
1000
0010
,
1000
0000
0100
0000
0010
0000
0001
0000
1000
0100
1000
0000
0001
0000
0010
0000
0100
0000
1000
0000
0100
0000
0010
0000
,
0001
0000
0000
0011
0000
0100
1000
0000
0001
0100
0000
0000
,
1010
0000
0000
1100
0000
0001
1000
0000
0010
0100
0000
0000
,
0001
0000
0000
1010
0000
1000
0100
0000
0010
0001
0000
0000
,
1001
0000
0000
0010
0000
0100
0001
0000
1000
0100
0000
0000
,
0110
0000
0000
0000
0000
0010
0001
0000
0001
1000
0000
1000
,
1001
0000
0000
0110
0000
0100
0001
0000
1000
1010
0000
0000
,
0001
0000
0000
0101
0000
0100
0010
0000
1000
0001
0000
1000
,
0100
0000
0010
0001
0000
0100
0010
0000
1000
1001
0000
0000
,
1100
0000
0000
0000
0000
0000
0011
0000
0000
0000
0100
0000
0010
0000
0000
0000
0000
0000
1010
0000
0000
0000
0001
1000
,
0001
0000
0000
0000
1000
0000
0100
0000
0000
0000
0000
0000
0010
0000
0001
0000
0100
0000
0010
0000
1000
0000
0001
0100
,
0001
0000
0000
0000
0010
0000
0100
0000
0000
0000
0000
0000
1000
0000
0010
0000
0100
0000
0001
0000
0010
0000
0100
1000
,
0100
0000
0000
0000
1000
0000
0001
0000
0000
0000
0000
0000
0010
0000
0001
0000
1000
0000
0010
0000
0100
0000
0001
1000
,
0001
0000
0000
0000
0010
0000
0100
0000
0000
0000
0000
0000
1000
0000
0010
0000
1000
0000
0100
0000
0010
0000
0001
1000
,
0001
0000
0100
0000
0010
1000
0001
1000
0100
0010
0001
0100
,
0110
1010
1100
0011
,
1001
0011
1010
1001
;
