#TITLE:All That She Wants;
#ARTIST:Ace of Base;
#BANNER:All That She Wants.png;
#BACKGROUND:All That She Wants-bg.png;
#JACKET:All That She Wants-jacket.png;
#MUSIC:All That She Wants.ogg;
#OFFSET:0.374;
#SAMPLESTART:53.45;
#SAMPLELENGTH:20;
#DISPLAYBPM:94;
#BPMS:0=93.75;
#BGCHANGES:;

//---------------dance-single - ----------------
#NOTES:
     dance-single:
     :
     Beginner:
     3:
     :
0000
0000
0000
0000
,
0000
0000
0000
0000
,
0000
0000
0000
0000
,
0010
0000
0001
0001
,
0001
0000
1000
0000
,
0001
0000
0100
0000
,
1000
0000
0100
0000
,
0001
0000
0100
0000
,
1000
0000
0100
0000
,
0001
0000
0000
0000
,
1000
0000
1000
0000
,
1000
0000
0000
0000
,
0001
0000
0001
0000
,
0000
0001
0000
0001
,
0000
1000
0000
1000
,
0000
0010
0000
0100
,
0000
0001
0001
0001
,
0000
0000
0000
0000
,
1000
0000
0000
1000
,
0000
0001
0000
1000
,
0000
0001
0000
1000
,
1000
1000
0000
1000
,
0000
0010
0000
0001
,
0001
0001
0000
0001
,
0000
0010
0000
1000
,
1000
1000
0000
1000
,
0000
0010
0000
0001
,
0001
0001
0000
0001
,
0000
0010
0000
1000
,
1000
0000
0001
0001
,
0001
0000
1000
0000
,
0010
0000
0001
0001
,
0001
0000
1000
0000
,
0001
0000
1000
1000
,
1000
0000
0001
0000
,
0010
0000
1000
1000
,
1000
0000
0001
0000
;

//---------------dance-single - ----------------
#NOTES:
     dance-single:
     :
     Easy:
     5:
     :
0000
0000
0000
0000
,
0000
0000
0000
0000
,
0000
0000
0000
0000
,
0010
0000
0010
0001
,
0100
0000
1000
0001
,
0001
0000
0100
0000
,
1000
0000
0100
0000
,
0001
0000
0100
0000
,
1000
0000
0100
0000
,
0001
0000
1000
0100
,
0010
0000
0100
0000
,
0010
0000
0100
1000
,
0001
0000
1000
0000
,
0001
0001
1000
0100
,
1000
0000
0010
0000
,
0020
0030
0200
0300
,
1000
0000
0001
0100
,
0100
0000
0100
1000
,
1000
0000
1000
0010
,
0010
0000
1000
0001
,
1000
0000
0100
0100
,
2000
3000
0010
0001
,
0100
0000
0010
0000
,
2000
3000
0010
0001
,
1000
0000
0001
0100
,
0002
0003
0010
1000
,
0100
0000
0010
0000
,
0002
0003
0010
1000
,
0001
0000
1000
0100
,
0010
0000
0010
0001
,
0100
0000
1000
0001
,
0010
0000
0010
1000
,
0100
0000
0100
0000
,
2000
3000
0010
0001
,
0100
0000
1000
0001
,
2000
3000
0010
0001
,
0100
0000
0001
1000
;

//---------------dance-single - ----------------
#NOTES:
     dance-single:
     :
     Medium:
     7:
     :
0000
0000
0000
0000
,
0000
0000
0000
0000
,
0000
0000
0000
0000
,
0002
0000
0003
0000
1000
0001
0100
0000
,
1000
0000
0001
0000
0001
1000
0100
0000
,
0001
0100
1000
1100
,
0001
0100
1000
0100
,
0001
0100
1000
1100
,
0001
0100
1000
0100
,
0010
0110
0100
1000
,
0001
0001
1000
0100
,
0010
0110
0100
0001
,
1000
1000
0001
0100
,
0010
0100
0010
0000
0001
0000
0100
0000
,
2000
3100
0002
0103
,
1000
1000
0100
0000
0001
0001
0100
0000
,
0010
1000
0100
0001
,
0100
0010
0100
0000
1000
0000
0010
0000
,
0001
0001
0200
0310
,
1000
0100
1000
0000
0001
0000
0010
0000
,
0010
0000
0010
1001
,
0002
0000
0003
0000
0010
1000
0100
0000
,
0000
1100
0000
0101
,
0002
0000
0003
0000
0001
1000
0001
0000
,
1001
0000
0010
0100
,
2000
0000
3000
0000
0010
0001
0100
0000
,
0000
0101
0000
1100
,
2000
0000
3000
0000
0010
0001
1000
0000
,
1001
0000
0010
0100
,
0002
0000
0003
0000
1000
0001
0100
0000
,
1000
0000
0001
0000
0001
1000
0100
0000
,
2000
0000
3000
0000
0001
1000
0100
0000
,
0001
0000
1000
0000
1000
0001
0100
0000
,
0002
0000
0003
0000
0010
1000
0100
0000
,
1000
0000
0001
0000
0001
1000
0100
0000
,
0002
0000
0003
0000
0001
1000
0001
0000
,
0001
0000
1000
0000
1000
0001
0100
0000
;

//---------------dance-single - ----------------
#NOTES:
     dance-single:
     :
     Hard:
     9:
     :
0000
0000
0000
0000
,
0000
0000
0000
0000
,
0000
0000
0000
0000
,
0020
0000
0030
0000
0001
0010
0100
0010
,
0002
0000
0103
0000
1000
1000
0100
0000
,
0001
0100
0000
0100
0001
0100
1000
0100
,
0000
0001
0000
0001
0100
1000
0000
1000
,
1000
0100
0000
0100
0001
0100
1000
0100
,
0000
0001
0000
0001
0100
1000
0100
1000
,
0020
0000
1030
0000
0100
0000
1000
0100
,
0001
0010
0100
0000
1001
0000
0110
0000
,
0020
0000
1030
0000
0100
0000
1000
0100
,
1000
0010
0100
0000
1001
0000
0110
0000
,
0200
0300
0001
0100
,
0010
0001
0100
0000
0010
1000
0100
0000
,
0001
0001
0100
0000
1000
1000
0100
0100
,
0010
0001
0100
1000
,
0020
0030
1000
0100
,
0010
0000
0001
1000
0200
0000
0300
0000
,
0002
1003
0200
0310
,
0010
0000
0010
1001
,
0001
0100
0010
0100
0001
1000
0010
0000
,
0001
0101
0010
1010
,
1000
0010
0100
0010
1000
0001
0100
0000
,
0001
0101
0010
0110
,
0001
0100
0010
0100
0001
1000
0010
0000
,
0001
0101
0010
1010
,
1000
0010
0100
0010
1000
0001
0100
0000
,
0001
0000
0101
0000
0010
1000
0100
0000
,
0020
0000
0030
0000
1000
0010
0100
0010
,
2000
0000
3100
0000
0001
0001
0100
0000
,
0020
0000
0030
0000
0001
0010
0100
0010
,
0002
0000
0103
0000
1000
1000
0100
0000
,
0001
0100
0010
0100
0001
1000
0010
0000
,
2000
0000
3100
0000
0001
0001
0100
0000
,
1000
0100
0010
0100
1000
0001
0010
0000
,
0002
0000
0103
0000
1000
1000
0100
0000
;

//---------------dance-single - ----------------
#NOTES:
     dance-single:
     :
     Challenge:
     13:
     :
0000
0000
0000
0000
,
0000
0000
0000
0000
,
0000
0000
0000
0000
,
0010
0000
0000
0010
0000
0000
0010
0000
1000
0001
1000
0000
0200
0000
0000
0000
,
0310
0000
0000
0010
0000
0000
0010
0000
0001
0000
1000
0100
1000
0001
0000
0001
,
0000
0000
0100
0000
0001
0000
0010
0000
0001
0000
0000
1000
0000
0000
0010
0000
,
0100
0001
0100
0001
0100
1000
0100
1000
,
0100
0000
0001
0000
0010
0000
0100
0000
1000
0000
0000
0001
0000
0000
1000
0000
,
0010
0000
0001
0000
0010
0000
1000
0000
0010
0000
0100
0001
0100
0001
0100
0001
,
1000
0010
0100
0001
0010
0100
1000
0001
,
0100
0000
0010
1000
0000
0010
1000
0000
0001
0000
1000
0100
1000
0100
1000
0100
,
0010
0001
1000
0001
0100
0010
1000
0001
,
0010
0000
0100
1000
0000
1000
0001
0000
0101
0000
0000
0000
1100
0000
0001
1000
,
0001
0000
0010
0000
0100
0000
1000
0010
1000
0000
0001
0100
0000
0000
0010
1000
,
0001
0000
0001
0000
0001
0000
0010
0100
0000
1000
0010
0100
0000
0000
0001
0000
,
1000
0000
0010
0000
0010
0000
0100
0002
0000
0000
1000
0000
1003
0000
0100
0000
,
0000
0000
0010
0000
0001
0000
1000
0010
0000
0100
0001
0000
0000
0000
1000
0000
,
0000
0001
0010
0100
1000
0000
0010
0100
0000
0100
0001
0000
1000
0000
0100
0010
,
0001
0100
0010
1000
0110
0100
0001
1000
,
0100
0000
0010
0000
0001
0000
1000
0001
0100
0000
0010
0000
0100
0001
0000
1000
,
0100
0000
0010
0000
0001
0000
0100
0000
1001
0000
0010
1000
0010
0100
0000
0001
,
2000
0000
0001
0000
3010
0000
0100
0001
1000
0000
0000
0000
0010
0100
0010
0100
,
0001
0000
1010
0000
0100
0000
0010
0000
0001
0000
0100
0010
0000
1000
0001
0000
,
0020
0000
1000
0000
0130
0000
0010
0001
1000
0000
0000
0000
0001
0100
0010
0100
,
0001
0000
0011
0000
1000
0100
1000
0100
0010
0000
0001
0000
0100
0000
0001
0000
,
2000
0000
0100
0000
3001
0000
0010
0001
0100
0000
0010
0000
1000
0001
0010
0100
,
1000
0000
0101
0000
0010
0000
0100
0000
1000
0000
0100
0001
0000
0010
0001
0000
,
0200
0000
1000
0000
0301
0000
0100
0010
1000
0000
0001
0000
0010
0100
0010
0001
,
1000
0000
1100
0000
0010
0100
0001
1000
0100
0000
0010
0000
0001
0000
1000
0000
,
1010
0000
0100
0001
0100
0000
0010
0000
1000
0100
0010
0000
0001
0000
0100
0000
,
0101
0000
0001
1000
0001
0000
0010
0000
0100
1000
0001
0000
0100
0000
0010
0000
,
0110
0000
1000
0001
1000
0000
0100
0000
0010
0001
1000
0000
0100
0000
0010
0000
,
0001
0100
0010
0100
1000
0100
0001
1000
,
0002
0000
0010
0000
0103
0000
0001
1000
0010
1000
0001
0000
0100
0000
0010
0000
,
1000
0000
0100
0000
0010
0000
0001
0000
0100
0001
0010
0000
0100
0000
1000
0000
,
0020
0000
0001
0000
1030
0000
0001
0010
0100
1000
0010
0000
0100
0000
0001
0000
,
1000
0000
0010
0100
0010
0000
1000
0000
0001
0000
0010
0100
1000
0000
1001
0000
;

//---------------dance-double - ----------------
#NOTES:
     dance-double:
     :
     Easy:
     5:
     :
00000000
00000000
00000000
00000000
,
00000000
00000000
00000000
00000000
,
00000000
00000000
00000000
00000000
,
00000000
00000000
00000000
00000000
,
00000000
00000000
00000000
00000000
,
00010000
00000000
00000000
00000000
,
10000000
00000000
10000000
10000000
,
10000000
00000000
00000000
00000000
,
00010000
00000000
00010000
00010000
,
10000000
00000000
01000000
00000000
,
00010000
00010000
00001000
00001000
,
00000010
00000000
00000001
00000000
,
00001000
00001000
00000001
00000000
,
00001001
00000000
00000100
00000000
,
00000001
00000000
00000100
00000100
,
00000200
00000300
00002000
00003000
,
00000000
00010000
00010000
00010000
,
00011000
00000000
00010000
00000000
,
00100000
00100000
00100000
00100000
,
02000000
03000000
00200000
00300000
,
10000000
10000000
00010000
00010000
,
10010000
00000000
01000000
00000000
,
01000000
00010000
00001000
00001000
,
00011000
00000000
00000010
00000000
,
00000100
00000001
00001000
00001000
,
00001001
00000000
00000100
00000000
,
00000100
00001000
00010000
00010000
,
00011000
00000000
00100000
00000000
,
01000000
10000000
00010000
00010000
,
10000000
00000000
10000000
00000000
,
01000000
01000000
00010000
00010000
,
00001000
00000000
00001000
00000000
,
00000010
00000010
00000001
00000001
,
00000001
00000000
00000001
00000000
,
00000100
00000100
00001000
00001000
,
00010000
00000000
00010000
00000000
,
00100000
00100000
10000000
10000000
;

//---------------dance-double - ----------------
#NOTES:
     dance-double:
     :
     Medium:
     7:
     :
00000000
00000000
00000000
00000000
,
00000000
00000000
00000000
00000000
,
00000000
00000000
00000000
00000000
,
00000000
00000000
00000000
00000000
,
00000000
00000000
00000000
00000000
,
00010000
00010000
10000000
10000000
,
00100000
00000000
01000000
01000000
,
00010000
00010000
10000000
10000000
,
00100000
00000000
10000000
01000000
,
00010000
00000000
00010000
00000000
00001000
00000000
00001000
00000100
,
00000001
00001000
00000001
00000001
,
00000100
00000000
00000100
00000000
00001000
00000000
00001000
00010000
,
01000000
00000000
10000000
00000000
00010000
00000000
00010000
10000000
,
00010000
00010000
00100000
01000000
,
10000000
10000000
10000000
10000000
,
10000000
00100000
00010000
00000000
00010000
00001000
00000100
00000000
,
00000001
00000000
00000001
00001000
00000001
00000000
00000001
00000000
,
00000110
00001000
00001000
00001000
,
00000001
00000001
00000001
00000001
,
00000001
00000100
00001000
00000000
00001000
00010000
00100000
00000000
,
10000000
00000000
10000000
00010000
10000000
00000000
10000000
00010000
,
01000000
00000000
01000000
00000000
01000000
00000000
01000000
00100000
,
10000000
00000000
10000000
00000000
10000000
00000000
10000000
01000000
,
00010000
00001000
00000100
00000001
,
00000010
00000100
00000010
00000000
00001001
00000000
00000110
00000000
,
00000100
00000000
00000100
00000000
00000100
00000000
00000100
00000010
,
00000001
00000000
00000001
00000000
00000001
00000000
00000001
00000100
,
00001000
00010000
01000000
10000000
,
00100000
01000000
00100000
00000000
10010000
00000000
01100000
00000000
,
10010000
01000000
00000000
01000000
,
00010000
00001000
00000100
00000001
,
00001000
00001000
00000000
00000001
,
00000100
00001000
00010000
01000000
,
10000000
10000000
00010000
00010000
,
00100000
00000000
01000000
01000000
,
10000000
10000000
00010000
00010000
,
00100000
00000000
00000000
00000000
;

//---------------dance-double - ----------------
#NOTES:
     dance-double:
     :
     Hard:
     9:
     :
00000000
00000000
00000000
00000000
,
00000000
00000000
00000000
00000000
,
00000000
00000000
00000000
00000000
,
00000000
00000000
00000000
00000000
,
00000000
00000000
00000000
00000000
,
00010000
00000000
00010000
00000000
10000000
00000000
10000000
00010000
,
00100000
01000000
10000000
00100000
,
00010000
00000000
00001000
00000000
00000100
00000000
00000001
00001000
,
00000001
00000000
00000001
00000000
00001000
00000100
00000010
00000100
,
00000010
00000000
00001000
00000000
00000001
00000000
00000001
00000100
,
00001000
00010000
00010000
01000000
10000000
00000000
10000000
00000000
,
00100000
00000000
00010000
00000000
10000000
00000000
10000000
01000000
,
00010000
00001000
00001000
00000100
00000001
00000000
00001001
00000000
,
00000010
00000001
00000100
00000000
00000010
00000001
00000100
00000000
,
00000100
00001000
00010000
00001000
01000000
00100000
01000000
00000000
,
00100000
10000000
01000000
00000000
00100000
10000000
01000000
00000000
,
01000000
00000000
00010000
00001000
00010000
00001000
00000100
00000000
,
00000001
00000000
00001000
00000001
00001000
00001000
00001000
00000000
,
00000020
00000230
00000302
00001003
,
00000001
00000100
00001000
00000000
00001000
00010000
01000000
00000000
,
02000000
00000000
13000000
00000000
10000000
01000000
00100000
01000000
,
20000000
31000000
10020000
01030000
,
10000000
01000000
00010000
00000000
00002000
00000000
00013000
00000000
,
00001000
00010000
00001000
00000100
00000001
00000000
00001000
00000000
,
00000021
00000000
00000230
00000000
00001300
00000001
00001000
00000001
,
00000002
00000103
00002001
00003100
,
00010000
00001000
00010000
00000000
02000000
00000000
13000000
00000000
,
00010000
01000000
00100000
01000000
00100000
00000000
10000000
00000000
,
02020000
00000000
03030000
00000000
00100000
00010000
00001000
00000010
,
00000200
00001000
00001000
00001300
,
00001000
00000000
00001000
00000000
00000001
00001000
00000001
00000000
,
00000010
00000000
00000100
00000000
00001000
00000001
00000100
00000000
,
00000100
00001000
00010000
00001000
00010000
00000000
01000000
00000000
,
10000000
00000000
10000000
01000000
10000000
00000000
10000000
00000000
,
00100000
00000000
01000000
00000000
00010000
10000000
00010000
00000000
,
10000000
00000000
10000000
01000000
00010000
00000000
00001000
00000000
,
00001000
00001000
00001000
00001000
;
