#TITLE:All Over Again;
#ARTIST:Blu Mar Ten;
#BANNER:All Over Again.png;
#BACKGROUND:All Over Again-bg.png;
#JACKET:All Over Again-jacket.png;
#LYRICSPATH:All Over Again.lrc;
#MUSIC:All Over Again.ogg;
#OFFSET:-0.005;
#SAMPLESTART:60.289;
#SAMPLELENGTH:20;
#DISPLAYBPM:127;
#BPMS:0=127.4;
#BGCHANGES:;

//---------------dance-single - ----------------
#NOTES:
     dance-single:
     :
     Beginner:
     1:
     :
0000
0000
0000
0000
,
0000
0000
0000
0000
,
0000
0000
0000
0000
,
0000
0000
0000
0000
,
0001
0000
0000
0000
,
0001
0000
0000
0000
,
1000
0000
0000
0000
,
1000
0000
0010
0000
,
0010
0000
0000
0000
,
0100
0000
0000
0000
,
0010
0000
0000
0000
,
0100
0000
0001
0000
,
0001
0000
0000
0000
,
1000
0000
0000
0000
,
0001
0000
0000
0000
,
1000
0000
0100
0000
,
0100
0000
0000
0000
,
0010
0000
0000
0000
,
0100
0000
0000
0000
,
0010
0000
0100
0000
,
0100
0000
0000
0000
,
0010
0000
0000
0000
,
0001
0000
1000
0000
,
1000
0000
0000
0000
,
0010
0000
0000
0000
,
0010
0000
0000
0000
,
0100
0000
0000
0000
,
0001
0000
0001
0000
,
1000
0000
0000
0000
,
1000
0000
0000
0000
,
0100
0000
0000
0000
,
0010
0000
0000
0000
,
0001
0000
0000
0000
,
0010
0000
0000
0000
,
0001
0000
0000
0000
,
0100
0000
0000
0000
,
0010
0000
0000
0000
,
1000
0000
0000
0000
,
0001
0000
0000
0000
,
0010
0000
0000
0000
,
0100
0000
0010
0000
,
0100
0000
0000
0000
,
1000
0000
0001
0000
,
1000
0000
0000
0000
,
0001
0000
1000
0000
,
0001
0000
0000
0000
,
0100
0000
0010
0000
,
0100
0000
0000
0000
,
0010
0000
0000
0000
;

//---------------dance-single - ----------------
#NOTES:
     dance-single:
     :
     Easy:
     2:
     :
0000
0000
0000
0000
,
0000
0000
0000
0000
,
0000
0000
0000
0000
,
0000
0000
0000
0000
,
1000
0000
0000
0000
,
0001
0000
0000
0000
,
0100
0000
0000
0000
,
0010
0000
0000
0000
,
1000
0000
1000
0000
,
0100
0000
0000
0000
,
0010
0000
0100
0000
,
0010
0000
0000
0000
,
0001
0000
0100
0000
,
0001
0000
0000
0000
,
1000
0000
0010
0000
,
1000
0000
0000
0000
,
0001
0000
0100
0000
,
1000
0000
0000
0000
,
1000
0000
0100
0000
,
0001
0000
0000
0000
,
0010
0000
0001
0000
,
0100
0000
0000
0000
,
0010
0000
1000
0000
,
0100
0000
0000
0000
,
0010
0000
0010
0000
,
0001
0000
0000
0000
,
1000
0000
0010
0000
,
1000
0000
0000
0000
,
0001
0000
0010
0000
,
0001
0000
0000
0000
,
0010
0000
0100
0000
,
1000
0000
0000
0000
,
0001
0000
0001
0000
,
0001
0000
0000
0000
,
0100
0000
0010
0000
,
1000
0000
0001
0000
,
0010
0000
0010
0000
,
0010
0000
0000
0000
,
0100
0000
1000
0000
,
0001
0000
0000
0000
,
0100
0000
0010
0000
,
0100
0000
0001
0000
,
1000
0000
0100
0000
,
0010
0000
0001
0000
,
0010
0000
0100
0000
,
1000
0000
0001
0000
,
0100
0000
0010
0000
,
1000
0000
0001
0000
,
1001
0000
0000
0000
;

//---------------dance-single - ----------------
#NOTES:
     dance-single:
     :
     Medium:
     7:
     :
0000
0000
0000
0000
,
0000
0000
0000
0000
,
0000
0000
0000
0000
,
0000
0000
0000
0000
,
0010
1000
0001
0000
,
0010
0001
1000
0000
,
0001
0010
0100
1000
,
0001
0000
0100
0010
,
1000
0000
0001
0000
0010
0001
0100
0000
,
0010
1000
0001
0000
,
1000
0000
0010
0000
0100
0001
0100
0000
,
0010
1000
0001
0000
,
0010
0000
0100
0000
1000
0100
1000
0000
,
0001
0100
0010
0000
,
1000
0000
0100
0000
0010
0100
0010
0000
,
0001
1000
0001
0000
,
0010
0000
0100
0000
1000
0001
1000
0000
,
0010
0100
0001
0000
,
0010
0000
0100
0000
0010
0001
0010
0000
,
0001
0100
0010
0000
,
1000
0000
0010
0000
0100
0001
1000
0000
,
0010
1000
0100
0000
,
0010
0000
0001
0000
0010
0100
0010
0000
,
0001
1000
0100
0010
,
0001
0000
1000
0000
0001
0100
0001
0000
,
0010
0000
0100
0000
1000
0100
0010
0000
,
0001
0000
0010
0000
0100
1000
0001
0000
,
0100
0010
1000
0000
,
0001
0000
0100
0000
0001
0010
0001
0000
,
0010
0000
0100
0000
1000
0001
1000
0000
,
0010
0000
0100
0000
0001
0100
0010
2000
,
0000
0000
0000
0000
,
3001
0100
0001
0000
1000
0100
1000
0000
,
0010
0010
0100
0100
,
0001
0001
0010
0010
,
0100
0100
1000
0001
,
0100
0010
0100
0000
0001
1000
0001
0000
,
0010
0010
0100
0100
,
1000
1000
0100
0100
,
0020
0000
0031
0100
,
0010
1000
0010
0000
0100
0001
0100
0000
,
0001
0000
0010
0000
0100
1000
0100
0000
,
0010
0010
0001
0001
,
0100
0001
0100
0000
0010
0000
0010
0000
,
1000
0001
1000
0000
0100
0010
0100
0000
,
0010
0010
0001
0001
,
1000
1000
0010
0010
,
0100
0000
0001
0000
0010
0100
1000
0000
,
1001
0000
0000
0000
;

//---------------dance-single - ----------------
#NOTES:
     dance-single:
     :
     Hard:
     10:
     :
0000
0000
0000
0000
,
0000
0000
0000
0000
,
0000
0000
0000
0000
,
0000
0000
0000
0000
,
1000
0000
0001
0000
0100
0010
1000
0001
,
0010
0000
0100
1000
0001
0000
0100
0010
,
1000
0000
0001
0000
0010
0000
0100
1000
,
0001
0000
0100
0000
0010
0000
1000
0001
,
0020
0000
0100
0000
0031
0100
0010
2000
,
0100
0000
3001
0020
0100
0000
0031
0200
,
0010
0000
1000
0000
0001
0000
0310
2000
,
0001
0010
0100
3010
,
0200
0000
0001
0000
0310
1000
0001
0020
,
0100
0000
0031
2000
0010
0000
3001
0020
,
0001
0000
0100
0000
1000
0000
0031
0200
,
0001
0000
0010
0000
1000
0000
0310
1000
,
0200
0000
0010
0000
1300
0001
0100
0002
,
0010
0000
1003
0200
0010
0000
1300
0020
,
0100
0000
1000
0000
0001
0000
1030
0002
,
0010
0100
1000
0103
,
0020
0000
1000
0000
0130
0001
1000
0200
,
0010
0000
1300
0002
0100
0000
1003
0200
,
1000
0000
0010
0000
0001
0000
1300
0020
,
1000
0000
0100
0000
0001
0000
0130
0001
,
2000
0000
0010
0000
3100
0010
0100
2000
,
0001
0000
3010
0200
1000
0000
0301
0020
,
0100
0000
1000
0000
0100
0000
0031
0200
,
0010
0000
1000
0000
0010
0000
0301
0010
,
0200
0000
1000
0000
0301
0100
1000
0020
,
0100
0000
1030
0002
0010
0000
1003
0200
,
0001
0000
1000
0000
0010
0000
1300
0002
,
0000
0000
0000
0000
,
0013
0100
1000
0100
0010
0001
0100
0020
,
0000
1030
0010
2000
0000
3020
0000
0032
,
0000
0013
1000
0002
0000
0023
0000
0230
,
0000
1300
0010
0200
0000
0302
0003
0000
,
1000
0100
0010
0100
1000
0001
0100
0020
,
0000
1030
0010
0200
0000
0301
0100
0010
,
0000
0100
0010
1000
0000
0001
0010
0200
,
0000
0000
1300
0002
0000
0203
0000
0000
,
0310
1000
0001
0010
0100
1000
0010
0200
,
0000
0301
0010
0002
0000
0203
0000
2300
,
0000
3100
0001
0020
0000
0230
0000
2300
,
0000
3001
1000
0020
0000
0230
0000
0000
,
0301
1000
0100
0010
0001
0010
0100
2000
,
0000
3100
0010
0001
0000
0100
0010
1000
,
0000
0001
0010
0100
0000
1000
0001
0020
,
0000
0000
0130
2000
0000
3002
0000
0000
,
0103
0000
0000
0000
;

//---------------dance-single - ----------------
#NOTES:
     dance-single:
     :
     Challenge:
     14:
     :
0000
0000
0000
0000
,
0000
0000
0000
0000
,
0000
0000
0000
0000
,
0000
0000
0000
0000
,
1000
0000
0001
0000
0100
0000
0001
0010
0001
0010
0001
0000
1000
0000
0100
0000
,
0010
0000
0001
0000
0100
0000
0010
1000
0000
0010
1000
0000
0001
0000
0000
1000
,
0100
0000
0010
0000
0001
0000
0000
1000
0010
0000
0100
0000
0001
0000
0000
1000
,
0001
0000
0010
0000
0100
0000
1000
0010
1000
0010
1000
0000
0000
0001
0000
0100
,
0010
0000
1000
0000
0100
0000
1000
0001
1000
0001
1000
0000
0100
0000
0000
0010
,
0001
0000
0100
0000
0010
0000
0000
1000
0001
0000
1000
0000
0100
0000
0010
0000
,
0001
0000
0100
0000
0010
0000
1000
0001
1000
0001
1000
0000
0100
0000
0000
0010
,
0001
0000
0100
0000
0010
0000
0000
1000
0001
0000
0100
0000
0000
0010
0000
1000
,
0001
0000
0010
0000
0100
0000
1000
0010
1000
0010
1000
0000
0001
0000
0100
0000
,
0001
0000
1000
0000
0100
0000
0010
0001
0010
0000
0000
0100
0000
0000
1000
0000
,
0001
0000
0100
0000
0010
0000
0100
0001
0100
0001
0100
0000
0010
0000
1000
0000
,
0100
0000
0010
0000
0001
0000
1000
0010
1000
0010
1000
0000
0100
0000
0010
0000
,
0001
0000
1000
0000
0100
0000
0000
1000
0001
1000
0001
0000
0100
0000
0010
0000
,
1000
0000
0100
0000
0010
0000
0001
1000
0001
1000
0001
0000
0010
0000
0100
0000
,
1000
0000
0001
0000
0010
0000
0100
1000
0100
1000
0100
0000
0010
0000
0000
0001
,
1000
0000
0010
0000
0100
0000
0001
0010
0001
0010
0001
0000
1000
0001
0000
0100
,
0000
0000
0010
0000
1000
0000
0100
0010
0100
0010
0100
0000
1000
0000
0000
0001
,
1000
0000
0001
0000
0100
0000
0000
0010
1000
0000
0001
0000
0010
0000
0100
0000
,
1000
0000
0001
0000
0100
0000
0001
1000
0001
1000
0001
0000
0010
0000
0100
0000
,
1000
0000
0001
0000
0100
0000
0010
1000
0010
1000
0010
0000
0100
0000
0001
0000
,
2000
0000
0100
0000
3100
0000
0000
1000
0010
0100
0001
0000
1000
0000
0001
0000
,
0010
0000
0100
0000
1000
0000
0000
0001
0100
0001
0100
0000
0010
0000
1000
0000
,
1000
0000
0100
0000
1000
0000
0010
0000
0001
0000
0010
0000
1000
0000
0000
0001
,
0100
0000
0010
0000
1000
0000
0000
0100
0010
0100
1000
0000
0001
0000
0100
0000
,
0010
0000
1000
0000
0100
0000
0000
1000
0001
1000
0010
0000
0100
0000
0000
0001
,
2000
0000
0010
0000
3010
0000
0100
0001
0010
0100
1000
0000
0001
0000
0100
0000
,
0001
0000
0010
0000
0100
0000
1000
0010
0100
0010
1000
0000
0001
0000
2000
0000
,
0000
0002
0000
0000
0000
0000
3003
0000
,
1001
0010
0100
0010
0001
0010
1000
0100
,
0010
1000
0010
0001
0100
1000
0100
0001
,
0010
0100
0001
0100
0010
1000
0010
0001
,
0100
0010
0100
1000
0100
0001
0100
0000
,
0110
0001
0010
0100
0001
0100
1000
0010
,
0100
1000
0100
0001
0010
0100
0010
1000
,
0010
0001
0100
0010
0100
1000
0100
0001
,
0100
1000
0100
0010
0100
0001
1000
0000
,
1001
0000
0010
0000
1000
0000
0100
0010
0100
0010
0100
0000
1000
0000
0001
0000
,
0100
0000
1000
0000
0100
0000
0001
0010
0001
0010
0001
0000
1000
0000
0100
0000
,
0001
0000
0100
0000
0010
0000
0001
1000
0001
1000
0001
0000
0100
0000
0010
0000
,
0001
0000
0010
0000
1000
0000
0100
0010
0100
0010
0100
0000
1000
0000
0000
0001
,
0100
0000
0010
0000
0100
0000
1000
0100
0001
0100
0010
0000
1000
0000
0001
0000
,
0010
0000
1000
0000
0010
0000
0100
0010
0001
1000
0010
0000
0100
0000
0001
0000
,
0010
0000
1000
0000
0010
0000
0001
0100
0001
1000
0100
0000
0010
0000
0001
0000
,
0100
0000
0010
0000
1000
0000
0001
0010
1000
0010
0001
0000
0100
0000
0010
0000
,
0110
0000
0000
0000
;

//---------------dance-double - ----------------
#NOTES:
     dance-double:
     :
     Easy:
     2:
     :
00000000
00000000
00000000
00000000
,
00000000
00000000
00000000
00000000
,
00000000
00000000
00000000
00000000
,
00000000
00000000
00000000
00000000
,
00000001
00000000
00000000
00000000
,
00000010
00000000
00000000
00000000
,
00000100
00000000
00000000
00000000
,
00010000
00000000
00000000
00000000
,
00001000
00000000
01000000
00000000
,
00001000
00000000
00000000
00000000
,
00100000
00000000
00010000
00000000
,
00100000
00000000
00000000
00000000
,
01000000
00000000
10000000
00000000
,
01000000
00000000
00000000
00000000
,
00100000
00000000
00001000
00000000
,
00100000
00000000
00000000
00000000
,
00001000
00000000
00010000
00000000
,
00001000
00000000
00000000
00000000
,
00010000
00000000
00000100
00000000
,
00010000
00000000
00000000
00000000
,
00000100
00000000
00001000
00000000
,
00000100
00000000
00000000
00000000
,
00000010
00000000
00000001
00000000
,
00001000
00000000
00000000
00000000
,
00000010
00000000
00000010
00000000
,
00001000
00000000
00000000
00000000
,
00000100
00000000
00010000
00000000
,
00000100
00000000
00000000
00000000
,
00010000
00000000
00001000
00000000
,
00010000
00000000
00000000
00000000
,
00001000
00000000
01000000
00000000
,
00010000
00000000
00000000
00000000
,
00100000
00000000
00100000
00000000
,
01000000
00000000
00000000
00000000
,
01000000
00000000
10000000
00000000
,
10000000
00000000
00100000
00000000
,
01000000
00000000
01000000
00000000
,
00001000
00000000
00000000
00000000
,
00010000
00000000
00000100
00000000
,
00001000
00000000
00000000
00000000
,
00000010
00000000
00001000
00000000
,
00001000
00000000
00000001
00000000
,
00000010
00000000
00000100
00000000
,
00010000
00000000
00001000
00000000
,
01000000
00000000
01000000
00000000
,
00100000
00000000
10000000
00000000
,
01000000
00000000
00100000
00000000
,
00001000
00000000
00010000
00000000
,
00011000
00000000
00000000
00000000
;

//---------------dance-double - ----------------
#NOTES:
     dance-double:
     :
     Medium:
     7:
     :
00000000
00000000
00000000
00000000
,
00000000
00000000
00000000
00000000
,
00000000
00000000
00000000
00000000
,
00000000
00000000
00000000
00000000
,
10000000
01000000
00100000
00000000
,
00001000
00010000
00001000
00000000
,
00010000
00000100
00001000
00000010
,
00000100
00000000
00000001
00001000
,
00000001
00000000
00000010
00000000
00000100
00010000
00001000
00000000
,
00100000
00010000
01000000
00000000
,
00100000
00000000
10000000
00000000
01000000
00010000
01000000
00000000
,
00010000
00001000
00010000
00000000
,
00001000
00000000
00010000
00000000
00000010
00000100
00000010
00000000
,
00000100
00000001
00001000
00000000
,
00000100
00000000
00010000
00000000
00001000
01000000
00001000
00000000
,
00100000
00010000
01000000
00000000
,
10000000
00000000
01000000
00000000
00010000
10000000
00010000
00000000
,
00100000
00001000
00010000
00000000
,
00000100
00000000
00000010
00000000
00000001
00001000
00000001
00000000
,
00000100
00000010
00000100
00000000
,
00001000
00000000
00010000
00000000
00100000
10000000
00100000
00000000
,
01000000
00010000
01000000
00000000
,
00001000
00000000
00010000
00000000
00001000
00100000
00010000
00000000
,
00100000
01000000
00010000
00001000
,
00000010
00000000
00000001
00000000
00001000
00000010
00001000
00000000
,
00000100
00000000
00001000
00000000
00010000
00100000
00010000
00000000
,
00100000
00000000
10000000
00000000
01000000
10000000
00010000
00000000
,
01000000
00100000
10000000
00000000
,
01000000
00000000
00010000
00000000
00001000
00010000
00001000
00000000
,
00000100
00000000
00000010
00000000
00001000
00000001
00000010
00000000
,
00000100
00000000
00010000
00000000
00001000
00100000
00010000
02000000
,
00000000
00000000
00000000
00000000
,
03100000
10000000
01000000
00000000
10000000
01000000
00010000
00000000
,
00001000
00001000
00010000
00010000
,
00000010
00000000
00000010
00000000
00000100
00000001
00000010
00000000
,
00000100
00000100
00010000
00010000
,
00001000
00100000
00001000
00000000
00100000
00010000
00100000
00000000
,
01000000
01000000
10000000
10000000
,
00100000
00100000
00010000
00010000
,
00002000
00000000
00013000
00000100
,
00000010
00000001
00000010
00000000
00000100
00001000
00000100
00000000
,
00010000
00000000
00001000
00000000
01000000
00010000
01000000
00000000
,
00100000
00100000
10000000
10000000
,
01000000
00100000
01000000
00000000
00100000
00000000
00100000
00000000
,
00001000
00010000
00001000
00000000
00010000
00000100
00010000
00000000
,
00000100
00000100
00000010
00000010
,
00000001
00000001
00001000
00001000
,
00000010
00000000
00000010
00000000
00010000
00001000
00010000
00000000
,
00011000
00000000
00000000
00000000
;

//---------------dance-double - ----------------
#NOTES:
     dance-double:
     :
     Hard:
     11:
     :
00000000
00000000
00000000
00000000
,
00000000
00000000
00000000
00000000
,
00000000
00000000
00000000
00000000
,
00000000
00000000
00000000
00000000
,
00000001
00000000
00000100
00000000
00000010
00010000
00001000
00100000
,
00010000
00000000
01000000
00100000
00010000
00000000
00100000
10000000
,
00010000
00000000
00100000
00000000
01000000
00000000
00010000
00001000
,
00010000
00000000
00000100
00000000
00000010
00000000
00001000
00000010
,
00000002
00000000
00000100
00000000
00000013
00000100
00010000
00002000
,
00010000
00000000
00103000
00020000
01000000
00000000
10030000
00200000
,
01000000
00000000
00010000
00000000
10000000
00000000
01300000
00020000
,
00100000
10000000
01000000
00130000
,
00002000
00000000
00010000
00000000
00003100
00000010
00001000
00000200
,
00000010
00000000
00001300
00000002
00000100
00000000
00000013
00000200
,
00000010
00000000
00010000
00000000
00001000
00000000
00010300
00002000
,
00100000
00000000
00010000
00000000
01000000
00000000
00103000
00010000
,
02000000
00000000
00100000
00000000
13000000
01000000
00010000
00200000
,
01000000
00000000
00310000
02000000
00100000
00000000
03001000
00020000
,
00001000
00000000
00000100
00000000
00001000
00000000
00030010
00002000
,
00000100
00000010
00000100
00003001
,
00000200
00000000
00000010
00000000
00001300
00010000
00001000
00200000
,
00010000
00000000
01300000
20000000
00100000
00000000
30010000
00200000
,
01000000
00000000
10000000
00000000
01000000
00000000
00301000
00020000
,
00000100
00000000
00000010
00000000
00000100
00000000
00031000
00010000
,
00000200
00000000
00001000
00000000
00000310
00000001
00000100
00000020
,
00001000
00000000
00000130
00002000
00010000
00000000
00103000
00020000
,
01000000
00000000
00100000
00000000
10000000
00000000
01030000
00200000
,
10000000
00000000
00010000
00000000
01000000
00000000
10300000
01000000
,
00200000
00000000
00010000
00000000
10300000
00100000
00001000
00020000
,
00001000
00000000
00030100
00000020
00001000
00000000
00000130
00002000
,
00000001
00000000
00000100
00000000
00000010
00000000
00003100
00020000
,
00000000
00000000
00000000
00000000
,
01030000
10000000
00100000
01000000
00010000
00100000
00001000
00020000
,
00000000
00030100
00001000
00000002
00000000
00000023
00000000
00002030
,
00000000
00013000
00100000
20000000
00000000
32000000
00000000
03200000
,
00000000
00301000
00010000
00000200
00000000
00002300
00003000
00000000
,
00000001
00000100
00001000
00010000
00001000
00010000
00100000
20000000
,
00000000
31000000
00100000
02000000
00000000
13000000
00100000
00010000
,
00000000
00001000
00010000
00001000
00000000
00010000
00000100
00000020
,
00000000
00000000
00000031
00002000
00000000
00003200
00000000
00000000
,
00010300
00001000
00010000
01000000
00100000
00010000
10000000
00200000
,
00000000
01300000
00010000
00200000
00000000
00302000
00000000
00003020
,
00000000
00001030
00010000
00000020
00000000
00002030
00000000
00003002
,
00000000
00000013
00000100
00020000
00000000
00032000
00000000
00000000
,
01003000
00100000
10000000
00010000
01000000
10000000
01000000
00200000
,
00000000
10300000
01000000
00010000
00000000
00001000
00010000
00001000
,
00000000
00000010
00001000
00000010
00000000
00000001
00001000
00000020
,
00000000
00000000
00000130
00002000
00000000
00023000
00000000
00000000
,
00031000
00000000
00000000
00000000
;
