#TITLE:Agnus Dei;
#ARTIST:Asaki;
#BANNER:Agnus Dei-bn.png;
#BACKGROUND:Agnus Dei-bg.png;
#JACKET:Agnus Dei-jacket.png;
#MUSIC:Agnus Dei.ogg;
#SAMPLESTART:71.627;
#SAMPLELENGTH:20;
#DISPLAYBPM:70:168;
#BPMS:0=168,16=150,18=70,20=168,193=150,197=168,273=160;
#STOPS:272.5=1.429;
#BGCHANGES:;

//---------------dance-single - ----------------
#NOTES:
     dance-single:
     :
     Beginner:
     4:
     :
0000
0000
0000
0000
,
0000
0000
0000
0000
,
0000
0000
0000
0000
,
0000
0000
0000
0000
,
1001
0000
0000
0000
0000
0000
0000
0000
0000
0000
0000
0000
0000
0000
0000
0000
0000
0110
0000
0000
0000
0000
0000
0000
,
0010
0000
1000
0000
,
0001
0000
0100
0000
,
0001
0000
0010
0000
,
0100
0000
1000
0000
,
0001
0000
1000
0000
,
0000
0010
0000
0000
,
0100
0000
0001
0001
,
0001
0000
0000
0000
,
1000
0000
0010
0000
,
1000
0000
0001
0000
,
0100
0000
0010
0000
,
0100
0100
0100
0000
,
0000
0001
0000
0000
,
1000
1000
0000
0000
,
1001
0000
0000
0110
,
0000
0000
0000
0000
,
0010
0000
1000
0000
,
0001
0001
0000
1000
,
1000
0000
0010
0000
,
0000
0100
0000
0001
,
0000
0010
0000
1000
,
0000
0100
0000
0010
,
0000
0000
0001
0001
,
0000
1000
0000
0001
,
0000
0100
0100
0100
,
0000
0010
0010
0000
,
0000
1000
0000
0001
,
0000
1000
0000
0100
,
0000
0010
0010
0000
,
0000
1000
0000
0000
,
0001
0000
0000
0010
,
0000
0100
0100
0000
,
1000
1000
0000
0000
,
0001
0000
0000
0100
,
0000
0010
0010
0000
,
0000
1000
0000
0100
,
0000
0010
0000
0001
,
0000
0100
0100
0000
,
0001
0001
0000
1000
,
0000
0001
0001
0001
,
0000
0000
0010
0000
,
0000
0110
0000
1001
,
0000
1000
1000
0000
,
0000
0001
0000
0000
,
0000
0010
0000
0000
,
0001
0000
0000
0100
,
0000
0000
0010
0000
,
0000
1000
0000
0000
,
0001
0001
0001
0001
,
0000
0000
0100
0000
,
0000
0010
0010
0010
,
0010
0000
0000
1000
,
0000
0000
0001
0000
,
0000
1000
1000
1000
,
1000
0000
0000
0100
,
0000
0010
0010
0000
,
0000
0001
0001
0001
,
0001
0000
0000
0100
,
0000
0000
0001
0000
,
0000
0010
0000
0100
,
0100
0000
0000
1000
,
0000
0000
0010
0000
,
0000
1001
0000
0000
,
0000
1000
0000
0000
,
0000
0000
0000
0000
0000
0000
0000
0000
0000
0000
0000
0000
0000
0001
0000
0000
,
0000
0000
0000
0000
,
0000
0000
0000
0000
,
0000
0000
0000
0000
0000
0000
0000
0110
0000
0000
0000
0000
0000
0000
0000
0000
0000
0000
0000
0000
0000
0000
0000
0000
;

//---------------dance-single - ----------------
#NOTES:
     dance-single:
     :
     Easy:
     8:
     :
0000
0000
0000
0000
,
0000
0000
0000
0000
,
0000
0000
0000
0000
,
0000
0000
0000
0000
,
1001
0000
0000
0000
0000
0000
0000
0000
0000
0000
0000
0000
0000
0000
0000
0000
0000
0110
0000
0000
0000
0000
0000
0000
,
0020
0000
1030
0001
,
2000
3000
0202
0303
,
2000
0000
0000
3020
0000
0000
0230
0000
,
0302
0003
0022
0033
,
2200
0000
3300
0000
0020
0000
0000
2030
,
0000
0000
3002
0000
0000
0203
0000
0000
,
0320
0000
2030
3001
,
2020
0000
0000
3030
,
0001
0010
1000
0100
,
0010
0001
0100
0010
,
1000
0001
0010
0100
,
0010
0001
0100
0001
,
0010
1000
0100
0001
,
1000
0010
0001
0100
,
0020
0000
0000
0000
1030
0001
2000
0000
,
0000
3001
0010
1000
,
0100
0010
0100
1000
,
0110
1001
0010
0100
,
0001
0000
1000
0000
0100
0010
0001
1000
,
0001
0100
0020
0000
0000
0000
1030
0000
,
0010
1000
0100
0010
,
0001
0200
0000
0320
,
1000
0130
0101
1100
,
1000
0000
0002
0000
0003
0010
0100
1000
,
0001
0100
0010
0000
0010
0000
1000
0000
,
0001
0000
0100
0000
0010
0100
0000
0000
,
0001
1000
0100
0010
,
0001
0100
0001
1000
,
0010
0000
1001
0000
0100
0010
0000
0000
,
1000
0002
0010
1003
,
0200
1000
0310
0002
,
2003
3002
0203
0000
,
0310
2000
0001
3010
,
0002
0100
0013
2000
,
0001
3100
0022
0000
,
0033
1000
0010
0001
,
1000
0100
0010
0100
,
1000
0001
0010
1000
,
0010
1000
0100
0001
,
1000
0001
0010
1000
,
0100
0010
0100
1000
,
0001
0220
0330
2002
,
3003
1010
0202
0303
,
1000
0002
0000
0000
,
0003
0200
0010
0310
,
1010
0101
1100
0002
,
0010
0000
1003
0000
0001
0100
0010
0100
,
0001
1000
0020
0000
0001
0000
1030
0000
,
0110
1001
0110
2000
,
0001
0000
3010
0000
1000
0100
0010
0001
,
0010
0100
1000
0000
0001
0000
0100
0000
,
0010
1000
0001
0010
,
0100
1000
0001
1000
,
0100
0010
0011
1100
,
0001
1000
0001
0100
,
0010
0000
1000
0000
0001
0010
0001
0010
,
0001
1000
0001
1000
,
0010
1000
0100
0001
,
0010
0100
1000
0010
,
0100
0010
1001
0101
,
0010
1000
0001
0010
,
0100
1000
0100
0001
,
0010
0000
0110
0000
0001
0000
1000
0010
,
0100
0001
2002
0000
0000
0000
0000
0000
,
0000
0000
0000
0000
0000
0000
0000
0000
0000
3003
0000
0000
0000
2020
0000
0000
,
0000
0000
0000
0000
,
0000
0000
0000
0000
0000
0000
0000
0000
0000
0000
0000
0000
0000
3030
0000
0000
,
0000
0000
0000
0000
0000
0000
0000
0110
0000
0000
0000
0000
0000
0000
0000
0000
0000
0000
0000
0000
0000
0000
0000
0000
;

//---------------dance-single - ----------------
#NOTES:
     dance-single:
     :
     Medium:
     12:
     :
0000
0000
0000
0000
,
0000
0000
0000
0000
,
0000
0000
0000
0000
,
0000
0000
0000
0000
,
1001
0000
0000
0000
0000
0000
0000
0000
0000
0000
0000
0000
0000
0000
0000
0000
0000
0110
0000
0000
0000
0000
0000
0000
,
0020
0000
0000
0000
1030
0100
0001
0100
,
2000
3000
0202
0303
,
0002
0000
1003
0020
0000
1030
0100
0000
,
2020
3030
0022
0033
,
2002
0000
3003
0000
0020
0000
0030
2000
,
0000
3000
0002
0000
0003
0200
0000
0300
,
0220
0000
0330
0000
2000
0000
3001
0100
,
2020
0000
0030
0000
3001
1000
0001
0100
,
0001
0010
0100
1000
0001
0000
1100
0000
,
0010
1000
0010
0100
0010
1000
0010
0100
,
0001
0010
0100
1000
0001
0000
0100
0010
,
1000
0001
0010
0100
1000
0000
0001
0010
,
0001
0100
0010
0100
0010
1000
0001
0010
,
0200
0000
1300
0010
1000
0001
0010
0001
,
0220
0000
0330
0000
1000
0001
2200
0000
,
3300
0001
0100
0010
1000
0001
1000
0100
,
0010
0001
0010
0100
0010
0001
0010
0100
,
1001
1010
0101
0011
,
1000
0100
0001
0000
0010
0001
1000
0001
,
0100
0010
1000
0000
0100
0010
0001
1000
,
0001
0100
0010
0000
1000
0100
0010
0001
,
0100
0000
0001
1000
0100
1000
0100
0010
,
0001
1000
0001
0000
0020
0000
0032
0000
,
2003
0000
3200
0000
0310
0100
1000
0001
,
0100
0010
0101
0000
1100
0000
0001
1000
,
0001
0100
0020
0000
1030
0001
0000
0100
,
0010
0100
0002
0000
1003
0200
0000
0320
,
0000
0032
0000
0203
0000
0320
0000
1030
,
0001
1000
0200
0000
0310
1001
0000
0001
,
0100
0001
0200
0000
0310
1000
0001
0000
,
2000
0000
3001
0010
0100
0000
1100
0000
,
0110
0000
0011
0000
0101
0000
1000
0010
,
1000
0000
0001
0010
1000
0010
0001
0000
,
2000
0000
0100
0000
3001
0000
1010
1000
,
0100
0010
0002
0000
0103
0010
0100
0001
,
1000
0100
0010
0001
1000
0001
0100
0000
,
0010
1000
0001
1000
0100
0010
0001
0000
,
1000
0001
1000
0100
0001
0000
0000
0010
,
0100
0010
0001
0100
0001
0100
1000
0100
,
1000
0100
0001
0010
0110
0000
1001
0000
,
0010
1000
0010
0100
0001
1000
0100
0001
,
0100
1000
0002
0000
0013
0100
2000
0000
,
3001
1000
1010
0000
0101
0000
0010
1000
,
0010
0100
0002
0000
0000
0000
0003
2000
,
0000
0000
3020
0000
1030
0100
0001
0000
,
0011
0000
1010
0000
0011
0000
1010
0010
,
1000
0001
0100
0000
0010
1000
0010
1000
,
0100
0010
0002
0000
0103
0010
1000
0001
,
1000
0000
1100
0000
0101
0000
1100
0001
,
1000
0010
0100
0000
0110
0000
0010
1000
,
0100
0001
0100
1000
0100
1000
0100
0000
,
1000
0001
0100
0001
0010
0001
0010
1000
,
0010
0001
0100
0000
0010
1000
0001
1000
,
0100
0010
0100
0000
1001
0000
0110
0000
,
1000
0100
0001
0100
1000
0001
0100
1000
,
0100
0001
0010
0000
0100
1000
0100
0010
,
0001
1000
0001
0010
1000
0010
0001
0000
,
0100
0010
1000
0010
1000
0100
0010
0001
,
0010
0100
1000
0000
0001
0010
1000
0010
,
0001
0100
0010
1000
0101
0000
1010
0000
,
0001
1000
0001
0010
0100
1000
0010
0100
,
0010
1000
0001
0000
0010
0100
1000
0010
,
1000
0001
1000
0100
0010
0001
1000
0100
,
0010
0001
2002
0000
0000
0000
0000
0000
,
3000
0000
0000
0000
0100
0000
0000
0000
0000
0013
0000
0000
0000
2020
0000
0000
,
0000
0000
0000
0000
,
3000
0000
0000
0000
0000
0000
0000
0000
1030
0001
1000
0000
0000
0000
0000
0000
,
0000
0000
0000
0000
0000
0000
0000
0110
0000
0000
0000
0000
0000
0000
0000
0000
0000
0000
0000
0000
0000
0000
0000
0000
;

//---------------dance-single - ----------------
#NOTES:
     dance-single:
     :
     Hard:
     15:
     :
0000
0000
0000
0000
,
0000
0000
0000
0000
,
0000
0000
0000
0000
,
0000
0000
0000
0000
,
1001
0000
0000
0000
0000
0000
0000
0000
0000
0000
0000
0000
0000
0000
0000
0000
0000
0110
0000
0000
0000
0000
0000
0000
,
0020
0000
0000
0000
1030
0100
0001
0100
,
2000
0000
0000
0000
3000
0000
0000
0000
0101
0000
0000
0000
1000
0001
1000
0001
,
0200
0000
0000
0000
0310
0000
1000
0100
1000
0100
1000
0000
0001
0010
0001
0010
,
0002
0000
0100
0000
0103
0000
0000
0000
1010
0000
0001
1000
0010
0100
0000
0000
,
0110
0000
0001
1000
0001
0000
0000
0000
0022
0000
0000
0000
0033
0000
2200
0000
,
0000
3300
0202
0000
0303
2200
0000
3300
,
0101
0000
1000
0001
0100
0000
0000
0000
0010
0000
1000
0000
0100
0000
0001
0000
,
2200
0000
0000
0000
0300
0000
0000
0000
3001
0000
0000
0001
0000
1000
0100
0010
,
0001
0100
1000
0100
0001
0010
0100
1000
,
0010
0100
1000
0100
0001
0010
1000
0001
,
0100
1000
0100
0001
0100
1000
0100
0010
,
0100
1000
0100
0001
0010
1000
0010
0001
,
0100
0010
1000
0001
0100
0010
1000
0100
,
0011
0000
0001
0010
1000
0100
0010
0001
,
0100
0000
0010
1000
0010
0000
0100
0000
0001
0000
1000
0000
0020
0000
0000
0000
,
0130
0001
1000
0001
0010
1000
0010
0100
,
0010
1000
0010
0001
0100
1000
0100
0001
,
1001
0000
1010
0001
0011
0100
1000
0010
,
0001
0010
1000
0000
0001
0001
0100
0100
,
1000
0010
1000
0000
0100
0000
0010
0001
0100
0000
0010
1000
0100
0000
0010
0000
,
0001
0100
1000
0100
0001
0010
1000
0010
,
0001
0000
0100
0000
0010
0000
1000
0000
0100
0010
0100
1000
0001
0000
0100
0010
,
1000
0001
0010
0100
1000
0000
0000
0000
0001
0000
0100
0000
0010
0000
1000
0000
,
0001
0000
0010
0000
1000
0000
0100
0010
0100
0000
0000
1000
0001
0000
0100
0000
,
0010
0000
1000
0000
1001
0000
0000
0000
1010
0000
0000
0000
0100
0001
0100
0001
,
0010
0100
1000
0100
0010
0000
0001
1000
0001
0000
0100
0000
0000
0000
0010
1000
,
0001
0100
1000
0100
0001
1000
0010
1000
,
0100
0000
0001
0000
0010
0000
0100
0000
1000
0010
1000
0000
0001
0100
0001
0000
,
0100
0010
1000
0001
0010
0000
0000
0000
0110
0000
1001
0000
0000
0000
1000
0100
,
1000
0001
0100
0001
1000
0000
0010
0000
0100
0000
1000
0000
0100
0000
0001
0000
,
0010
0000
0100
0000
0001
0000
0100
0000
1000
0000
0001
0000
0010
0000
0001
0100
,
0001
0000
1000
0100
1000
0000
0001
0000
1100
0000
0000
0001
1000
0000
0010
0000
,
1000
0000
0100
0010
0001
0000
0100
0000
0010
0000
0100
0000
1000
0000
0100
0000
,
0001
0000
0010
0100
1000
0000
0001
0000
1000
0000
0100
0000
0010
0000
0001
0000
,
1000
0000
0010
0000
1000
0000
0001
0100
0010
0000
1000
0100
0000
0110
0000
0110
,
0000
0110
0000
0001
1000
0000
0010
0000
0100
0000
1000
0000
0100
0000
0001
0000
,
0010
0000
0100
0000
1000
0000
0001
0000
1000
0000
0010
0000
0101
0000
0000
1100
,
0000
0000
0101
0000
1000
0000
0001
0010
0001
0000
0100
0000
0010
1000
0010
1000
,
0001
0100
0010
0001
0010
1000
0010
0001
,
0010
0000
1000
0100
0010
0001
0100
0000
1010
0000
0000
0000
0001
0000
0000
1000
,
0001
0000
0010
0000
0100
0000
1000
0001
1000
0000
0010
0000
0100
0000
0001
0010
,
0001
0000
1000
0000
0100
0000
0001
0000
0100
0000
1000
0010
1000
0000
0001
0000
,
0100
0000
0000
0000
0000
0000
0010
0000
0000
1000
0000
0000
0002
0000
0000
0000
0000
0000
0000
0000
0000
0000
0000
0000
0023
0000
0000
0000
0000
0000
0000
0000
0000
0000
0000
0000
0130
0000
0000
0000
0000
0000
0000
0000
1000
0000
0001
0000
,
1000
0000
0000
0000
0100
0000
0000
0000
0010
0000
0000
0000
0002
0000
0000
0000
0000
0000
0000
0000
0000
0000
0000
0000
0000
0000
0000
0000
0000
0000
0000
0000
0000
0000
0000
0000
0003
0000
0000
0000
0000
0000
1000
0000
0000
0001
0000
0000
,
1000
0001
1000
0001
0100
0000
0010
0000
1000
0000
0001
0000
1000
0000
0100
0000
,
0011
0001
0101
0100
1010
0000
1001
0010
,
1000
0100
0001
1000
0001
0001
1000
1000
,
0100
0100
0110
0001
1000
0010
1000
0001
,
0110
0000
0100
0000
0001
0000
0010
0000
1000
0000
0001
0010
0100
0000
1000
0000
,
0010
0001
0010
1000
1100
0100
0110
0010
,
0011
0000
0001
0000
1001
0000
0010
0000
1000
0000
0001
0010
0100
0000
1000
0000
,
0001
0100
0001
0000
1000
0000
0010
0000
1000
0000
0001
0000
0100
0000
1000
0000
,
0100
0010
0100
0001
0010
1000
0010
0100
,
0010
0000
0001
0000
0010
0000
0100
1000
0001
0000
0100
0000
0010
0000
0000
0000
,
1000
0001
0010
1000
0100
0001
0010
0001
,
0100
0000
0001
0000
1000
0000
0001
0000
0100
0000
0010
0000
1000
0001
0100
0010
,
1000
0100
0010
0001
1000
0000
0100
0000
0001
0000
0100
1000
0001
0000
0010
0000
,
1001
0100
1010
0001
1100
0010
0001
0100
,
0010
1000
0001
0100
0010
0100
0001
1000
,
0001
0000
0100
0000
0011
0000
0100
0000
1000
0000
0010
0000
0100
0000
0001
1000
,
0001
0010
1000
0001
0100
1000
0001
0100
,
0010
0000
0100
0000
1000
0000
0100
0000
0001
0000
1000
0010
1000
0000
0001
0000
,
0010
1000
0100
0010
0100
1000
0010
0001
,
0010
0000
1000
0000
1001
0000
0000
0000
0000
1000
0100
1000
0000
0000
0001
0000
,
0000
0000
0000
0000
0100
0000
0000
0000
0000
0010
0000
0000
0000
1010
0000
0000
,
0000
0000
0000
0000
0000
0000
0001
0000
0000
0010
0000
0000
0001
0000
0000
0000
0000
0000
0000
0000
0000
0000
0100
0000
0000
0000
0000
0000
0000
0000
0000
0000
0010
0000
0000
0000
0000
0000
0000
0000
0000
1000
0000
0000
0100
0000
0000
0010
,
0000
0000
0001
0000
0000
0000
0000
0000
0000
0000
0000
0000
0000
0000
0000
0000
0000
0000
0000
0000
0000
0000
0000
0000
0100
0000
0000
0010
0000
0000
1000
0000
0000
0000
0000
0000
0000
0000
0000
0000
0000
0000
0000
0000
0000
0000
0000
0000
,
0000
0000
0000
0000
0000
0000
0000
0110
0000
0000
0000
0000
0000
0000
0000
0000
0000
0000
0000
0000
0000
0000
0000
0000
;
