#TITLE:Abracadabra;
#SUBTITLE:;
#ARTIST:Steve Miller Band;
#TITLETRANSLIT:;
#SUBTITLETRANSLIT:;
#ARTISTTRANSLIT:;
#GENRE:;
#CREDIT:;
#MUSIC:Abracadabra.ogg;
#BANNER:Abracadabra-bn.png;
#BACKGROUND:Abracadabra-bg.png;
#CDTITLE:;
#SAMPLESTART:45.329;
#SAMPLELENGTH:20.000;
#SELECTABLE:YES;
#OFFSET:1.408;
#BPMS:0.000=127.310
,3.000=124.310
,4.000=125.100
,6.000=130.100
,7.000=126.100
,8.000=126.500
,10.000=127.500
,11.000=124.500
,12.000=126.500
,13.000=130.500
,14.000=124.500
,16.000=129.500
,17.000=127.500
,18.000=129.500
,19.000=126.500
,20.000=127.500
,22.000=125.500
,23.000=127.500
,24.000=126.500
,26.000=125.500
,27.000=127.500
,28.000=125.500
,29.000=127.500
,30.000=125.500
,31.000=125.850
,33.000=127.850
,34.000=128.850
,35.000=126.850
,36.000=125.600
,38.000=126.600
,41.000=127.600
,43.000=124.500
,44.000=127.500
,46.000=125.500
,48.000=127.000
,49.000=128.000
,51.000=127.000
,54.000=128.000
,56.000=125.000
,58.000=130.000
,59.000=128.000
,60.000=125.750
,62.000=129.750
,63.000=126.750
,64.000=128.000
,65.000=129.000
,67.000=130.000
,68.000=125.000
,70.000=128.000
,72.000=126.000
,74.000=131.000
,75.000=128.000
,79.000=126.000
,80.000=128.145
,82.000=129.145
,83.000=126.145
,84.000=127.145
,86.000=125.145
,87.000=133.145
,88.000=120.145
,89.000=122.145
,90.000=133.145
,91.000=127.145
,94.000=129.971
,95.000=125.971
,96.000=127.971
,99.000=128.400
,100.000=127.400
,101.000=124.400
,102.000=128.400
,103.000=125.800
,104.000=128.800
,106.000=126.800
,108.000=127.800
,112.000=129.800
,113.000=127.800
,114.000=125.800
,115.000=130.127
,116.000=126.127
,118.000=129.127
,119.000=125.127
,120.000=130.127
,121.000=129.127
,122.000=128.127
,124.000=129.000
,126.000=127.000
,129.000=131.000
,130.000=128.000
,132.000=129.500
,133.000=128.500
,134.000=129.222
,135.000=125.222
,136.000=134.300
,137.000=127.300
,138.000=128.300
,142.000=130.300
,143.000=125.300
,144.000=130.750
,146.000=127.750
,148.000=128.750
,151.000=127.750
,152.000=127.995
,154.000=129.995
,155.000=134.995
,156.000=122.995
,157.000=125.995
,158.000=129.995
,159.000=127.995
,160.000=126.818
,162.000=125.818
,166.000=129.818
,167.000=123.859
,168.000=130.859
,169.000=125.859
,171.000=128.859
,172.000=126.859
,174.000=128.859
,175.000=126.859
,176.000=128.859
,178.000=127.859
,179.000=125.859
,181.000=127.859
,182.000=129.859
,183.000=126.859
,184.000=129.859
,186.000=125.859
,187.000=126.859
,188.000=126.892
,190.000=127.892
,196.000=130.015
,197.000=128.015
,199.000=126.015
,200.000=128.015
,201.000=130.015
,202.000=128.015
,203.000=133.015
,204.000=126.250
,206.000=130.250
,210.000=124.250
,211.000=127.250
,212.000=131.749
,214.000=133.749
,215.000=122.749
,218.000=138.749
,219.000=133.749
,220.000=122.749
,221.000=127.749
,222.000=128.749
,228.000=127.654
,232.000=125.654
,236.000=126.000
,243.000=134.000
,244.000=128.000
,245.000=126.000
,246.000=125.000
,248.000=129.000
,249.000=126.000
,250.000=132.000
,251.000=126.000
,252.000=128.000
;
#STOPS:;
#DISPLAYBPM:120.000:139.000;
#ORIGIN:;
#PREVIEWVID:;
#JACKET:Abracadabra-jacket.png;
#CDIMAGE:;
#DISCIMAGE:;
#BGCHANGES:;
#FGCHANGES:;

//--------------- dance-single - ----------------
#NOTES:
     dance-single:
     :
     Beginner:
     3:
     0.120538,0.176611,0.033089,0.016544,0,102,98,4,2,0,0,0,0,0,0.120538,0.176611,0.033089,0.016544,0,102,98,4,2,0,0,0,0,0:
0000
0000
0000
0000
,
0000
0000
0000
0000
,
0000
0000
0000
0000
,
0000
0000
0000
0000
,
0001
0001
0000
0000
,
0000
0100
0000
0000
,
0000
0010
0000
0000
,
0000
1000
0000
0000
,
0100
0100
0000
0000
,
0000
0010
0000
0000
,
0001
0000
0100
0000
,
0010
0000
1000
0000
,
0100
0000
0001
0000
,
0010
0000
0100
0000
,
1000
0000
0001
0000
,
0000
0000
1001
0000
,
0010
0010
0000
0000
,
1001
0000
0100
0000
,
0001
0000
1000
0000
,
0001
0000
0010
0000
,
0100
0000
1000
0000
,
0010
0000
0100
0000
,
0010
0000
1000
0000
,
0001
0000
1000
0000
,
0100
0000
0010
0000
,
0001
0001
0001
0000
,
0110
0000
0000
0000
,
0000
0000
1000
0000
,
0010
0000
0000
0000
,
0100
0100
0100
0000
,
0110
0000
0000
0000
,
0000
0000
0010
0000
,
1000
0000
0000
0000
,
0000
0000
0001
0000
,
1000
0000
0100
0000
,
0000
0010
0000
0000
,
0001
0000
1000
0000
,
0010
0000
0100
0000
,
0010
0000
1000
0000
,
0001
0000
0010
0000
,
0100
0000
1000
0000
,
0000
0000
0010
0000
,
1000
0000
0001
0000
,
0000
0100
0100
0000
,
0000
0000
0000
0000
,
0000
0010
0000
1000
,
0000
0001
0000
0100
,
0000
0010
0000
1000
,
0000
0100
0000
0000
,
1000
0000
0001
0000
,
0100
0100
0000
0000
,
0010
0000
0100
0000
,
0001
0001
0000
0000
,
1000
0000
0100
0000
,
1000
1000
0000
0000
,
0001
0000
1000
0000
,
0010
0010
0010
0000
,
2000
0000
3000
0000
,
0002
0000
0003
0000
,
1000
0000
0010
0000
,
0100
0000
0000
0000
,
0001
0000
0000
0000
;

//--------------- dance-single - ----------------
#NOTES:
     dance-single:
     :
     Easy:
     7:
     0.261165,0.316411,0.181988,0.115811,0,221,199,22,14,0,0,0,0,0,0.261165,0.316411,0.181988,0.115811,0,221,199,22,14,0,0,0,0,0:
0000
0000
0000
0000
,
0000
0000
0000
0000
,
0000
0000
0000
0000
,
0000
0000
0000
0000
,
0001
0100
0010
0110
,
1000
0100
1000
0010
,
0100
0001
0010
0100
,
1000
0010
1000
0001
,
0100
0010
1000
0110
,
1000
0010
1000
0000
,
0100
0100
0100
0000
,
0010
0001
0100
0000
,
0001
0010
1000
0000
,
0100
1000
0010
0100
,
0001
1000
0001
0000
,
0100
0010
0110
0000
,
0100
0001
1000
0000
,
1001
0100
0010
0000
,
0100
0001
1000
0000
,
0001
0010
1000
0000
,
0001
0001
0001
0200
,
0310
1000
0010
0000
,
1000
0100
0001
0000
,
0010
0001
0010
0100
,
1000
1000
0001
0100
,
0110
1001
0110
0100
,
0001
0010
0001
0100
,
0010
1000
0100
1000
,
0001
0010
0001
0100
,
1001
0110
1001
1000
,
0010
1000
0100
0010
,
0001
0100
0001
1000
,
0010
0100
0010
1000
,
0000
0001
0100
0000
,
0010
1000
0100
0000
,
0001
0010
0001
0100
,
0010
1000
1000
0000
,
0100
1000
0001
0000
,
0010
0001
0100
0000
,
0010
1000
0010
0100
,
0001
0010
0001
0100
,
0001
1000
0100
0010
,
0100
1000
0001
0100
,
0010
1000
0200
0000
,
0000
0001
0000
1300
,
0000
1100
0000
0101
,
0020
0100
0200
0330
,
1010
0001
0101
1000
,
0020
1000
2000
3030
,
1100
0001
0011
1000
,
0002
0100
0200
0303
,
0110
0001
1001
0100
,
0002
1000
2000
3003
,
1100
0010
0101
0010
,
2000
0100
0200
3300
,
1001
0010
1001
0100
,
0010
0010
0020
0030
,
1000
0010
1000
0100
,
0010
0001
0100
0001
,
1000
1000
0001
0001
,
0010
0001
0100
0000
,
0002
0000
0000
0000
,
0000
0000
0000
0000
,
0000
0000
0000
0003
;

//--------------- dance-single - ----------------
#NOTES:
     dance-single:
     :
     Medium:
     9:
     0.362795,0.395514,0.281254,0.215077,0.02068,307,273,34,26,0,0,0,0,0,0.362795,0.395514,0.281254,0.215077,0.02068,307,273,34,26,0,0,0,0,0:
0000
0000
0000
0000
,
0000
0000
0000
0000
,
0000
0000
0000
0000
,
0000
0000
0000
0000
0000
0000
0000
0001
,
1000
0100
1000
0001
0000
0000
0110
0000
,
0000
0010
1000
0001
0000
0000
0000
0000
,
0000
1000
0100
0010
0000
0000
0000
0000
,
0000
0001
0100
0001
0000
0000
0000
1000
,
0010
0100
0010
1000
0000
0000
0110
0000
,
0000
0001
1000
0010
0000
0000
0000
1000
,
0002
2003
3200
0300
,
0010
0001
0010
0100
1000
0001
0000
0000
,
2000
3020
0032
0203
,
1300
0010
1000
0010
0000
0100
0000
0001
,
1000
0000
0010
0200
0000
0000
0300
0000
,
0001
0000
1000
0001
0100
0000
0000
0000
,
0001
0010
0100
1000
0010
0000
0000
0000
,
1001
0000
1000
0100
1000
0000
0000
0001
,
1000
0010
0100
0001
1000
0000
1100
0000
,
0100
1000
0010
1000
0001
0000
0000
0100
,
0020
0000
2030
0000
3002
0000
0103
0010
,
0000
0100
0001
2000
0000
3100
0000
0000
,
0010
0001
1000
0001
0100
0000
0000
0000
,
0010
1000
0010
0100
0000
0001
1000
0001
,
0000
0010
0100
1000
,
1100
0000
0101
0000
1100
0000
0010
1000
,
0000
0001
0100
0010
0000
0000
0000
0000
,
0000
1000
0100
1000
0010
0100
0001
1000
,
0000
0100
0010
0001
0000
0000
1000
0000
,
1010
0000
0011
0000
1010
0000
0100
0001
,
0000
1000
0001
0010
0001
0000
0100
0000
,
0010
0000
1000
0000
0010
1000
0010
0100
,
0001
1000
0100
0010
0000
0000
0110
0000
,
0000
0000
0001
0000
0000
0001
0000
0000
0001
0000
0000
0000
0000
0000
1000
0000
,
0010
1000
0000
0100
0000
0010
0001
0000
,
0000
1000
0001
0010
0000
0100
1000
0001
,
0000
0200
0320
0030
,
1000
0010
1000
0001
0000
0100
0000
0000
,
0001
0010
0001
0100
0010
0000
1001
0000
,
0010
1000
1000
0000
0001
0001
0000
0010
,
0010
0000
0001
0100
0010
0000
1010
0000
,
0100
0001
0001
0000
1000
1000
0000
0100
,
0100
0000
0010
0001
1000
0000
1001
0000
,
0010
0000
1000
0001
0200
0000
0000
0000
,
0300
0010
0100
0001
0000
0000
1000
0000
,
0100
1000
0001
1000
0000
0000
0101
0000
,
0010
1000
0010
0200
0000
0000
0301
0000
,
0011
0011
1100
1100
,
0001
1000
0001
0200
0000
0000
0300
0000
,
1010
1010
0101
0101
,
1000
0001
1000
0020
0000
0000
0030
0000
,
0110
0110
1001
1001
,
1000
0100
0010
0002
0000
0000
0003
0000
,
0011
0011
1010
1010
,
0100
0010
0100
0002
0000
0000
0003
0000
,
1001
0000
0110
0000
1000
0001
0100
0000
,
0001
1000
0001
1000
0200
0000
0300
0000
,
1000
0010
1000
0000
0100
0010
0001
0000
,
0100
0001
1000
0000
0001
0010
0100
0000
,
2000
3020
0230
0302
,
1003
0100
1000
0100
1000
0100
0000
0000
0000
0110
0000
0000
,
0000
0001
1000
0002
0000
0000
0000
0000
,
0000
0000
0000
0000
,
0000
0000
0000
0003
;

//--------------- dance-single - ----------------
#NOTES:
     dance-single:
     :
     Hard:
     12:
     0.505785,0.606455,0.165444,0.297799,0.165444,428,408,20,36,0,0,0,0,0,0.505785,0.606455,0.165444,0.297799,0.165444,428,408,20,36,0,0,0,0,0:
0000
0000
0000
0000
,
0000
0000
0000
0000
,
0000
0000
0000
0000
,
0000
0000
0000
0000
0000
0000
0000
0001
,
1000
0100
1000
0001
0100
0000
0110
0000
,
0010
1000
0100
1000
0001
0100
0010
0000
,
0100
0001
0010
0001
1000
0100
0010
0000
,
0100
1000
0001
1000
0000
0010
0100
0001
,
1000
0100
1000
0010
0100
0000
0110
0000
,
0001
0100
1000
0010
0000
0100
0001
1000
,
0020
0000
2030
0000
3100
0010
0001
0000
,
1000
0010
0100
0010
1000
0001
0100
0000
,
0002
0000
0023
0000
1030
0100
0001
0000
,
0010
0100
1000
0001
0000
1000
0010
0100
,
0001
0010
0001
1000
0100
0010
0001
0000
,
0100
0000
0001
1000
1010
0000
0100
0000
,
0001
0010
0001
0100
0010
1000
0001
0000
,
1001
0100
0001
1000
0100
0000
0010
0001
,
0100
0001
1000
0010
0100
0010
1000
0000
,
0100
0010
0100
1000
0001
0000
0100
0010
,
2000
0000
0000
0000
3002
0000
0000
0000
1003
0000
0100
0000
0010
0001
0010
0001
,
0010
0100
1000
0020
0000
0130
0001
0000
,
1000
1000
0001
0010
0001
0100
1000
0000
,
0010
1000
0100
0010
0000
0001
1000
0001
,
0200
0000
0320
0000
1030
0001
0100
0000
,
0101
0000
1100
0000
0101
0000
0010
1000
,
0100
0010
0100
1000
0010
0100
0001
1000
,
0001
0100
0100
0010
1000
0100
0001
0100
,
1000
0010
0100
0010
1000
0100
0001
0000
,
0011
0000
1010
0000
0011
0000
0100
0001
,
0010
0100
1000
0010
1000
0100
1000
0001
,
0100
0010
0100
0100
0001
0010
0001
0100
,
1000
0010
1000
0001
1000
0100
0110
0000
,
0001
0000
2000
0000
0000
3020
0000
0000
1030
0000
0100
0000
0000
0000
0001
0000
,
0010
0100
0010
0001
1000
0100
0001
0000
,
0100
0001
1000
0010
0000
1000
0100
0010
,
0002
0000
2003
0000
3001
0010
0100
0000
,
1000
0010
1000
0002
0000
0013
0100
0000
,
1000
0010
1000
0100
0010
0001
0100
0000
,
1001
0100
0100
0010
1000
1000
0001
0100
,
0001
0010
0001
0100
1000
0010
0101
0000
,
0010
1000
1000
0001
0010
0010
0100
1000
,
0010
0100
0010
1000
0001
0100
0110
0000
,
1000
0000
0000
0000
0001
0100
0001
0100
0002
0000
0000
0000
0010
0000
0000
0000
,
1003
0100
1000
0010
0100
0001
1000
0001
,
0010
0100
1100
0000
0001
0100
0101
0000
,
0010
0000
0010
0000
0010
0000
0010
0000
1000
0000
0100
0000
1000
0001
0000
0000
,
0002
0103
0000
0000
0002
0103
0000
0000
2000
3010
0000
0000
2000
3010
0000
0000
,
0100
0100
0100
0100
0001
1000
0001
0000
,
0020
0031
0000
0000
0020
0031
0000
0000
2000
3010
0000
0000
2000
3010
0000
0000
,
0100
0100
0100
0100
0001
0010
0110
0000
,
2000
3100
0000
0000
2000
3100
0000
0000
0020
0031
0000
0000
0020
0031
0000
0000
,
1000
1000
1000
2000
0001
0000
3100
0000
,
0002
1003
0000
0000
0002
1003
0000
0000
0020
0130
0000
0000
0020
0130
0000
0000
,
0001
0001
0001
0001
0010
0100
0110
0000
,
2000
3100
0000
0000
0020
0031
0000
0000
0100
0000
0100
0000
0100
0000
0000
0000
,
0001
1000
0001
1000
0001
1000
0001
1000
0001
0000
0100
0000
0100
0000
0000
0000
,
1001
0010
1000
0100
1000
0010
0100
0001
,
0010
0100
1000
0010
1000
0001
1000
0100
,
0010
0001
1000
0001
0010
0100
1000
0010
1000
0100
0010
0001
,
0100
0000
0010
0000
1000
0000
0001
0000
1000
0000
0200
0000
0000
0000
0000
0310
0000
0000
0011
0000
0000
0000
0000
0000
,
1000
0100
1000
0002
0000
0000
0000
0000
,
0000
0000
0000
0000
,
0000
0000
0000
0003
;
