#TITLE:ARACHNE;
#ARTIST:MAX MAXIMIZER;
#BANNER:ARACHNE-bn.png;
#BACKGROUND:ARACHNE-bg.png;
#JACKET:ARACHNE-jacket.png;
#MUSIC:ARACHNE.ogg;
#OFFSET:1.006;
#SAMPLESTART:70.391;
#SAMPLELENGTH:20;
#DISPLAYBPM:179;
#BPMS:0=179;
#STOPS:19=0.335,36=5.028,189=1.006;
#BGCHANGES:;

//---------------dance-single - ----------------
#NOTES:
     dance-single:
     :
     Beginner:
     4:
     :
0000
0000
0000
0000
,
0000
0000
0000
0000
,
0000
0000
0000
0000
,
0000
0000
0000
0000
,
0000
0000
0000
0000
,
0001
0000
0000
0000
,
1000
0000
0000
0000
,
0010
0000
0010
0000
,
1000
0000
0001
0000
,
0110
0001
0000
0001
,
0000
0001
0000
0001
,
0000
0001
0000
0001
,
0000
0001
0000
0001
,
0000
1001
0000
0000
,
1000
1000
0000
0000
,
0001
0001
0000
0000
,
0100
0100
0000
0010
,
0000
1000
0000
0000
,
0100
0100
0000
0000
,
1000
1000
0000
0001
,
0000
0010
0000
0000
,
0001
0001
0000
0000
,
0100
0100
0000
0000
,
0010
0010
0000
1000
,
0000
0001
0000
0000
,
1000
1000
0000
0000
,
0001
0001
0000
0000
,
1000
1000
0000
0010
,
0000
0100
0000
0001
,
0000
1000
0000
0000
,
0000
0000
0000
0000
,
0000
0001
0000
0000
,
0000
0000
0000
0000
,
0000
0100
0000
0000
,
0000
0000
0000
0000
,
0000
0010
0000
0000
,
0000
0000
0000
0000
,
0000
1001
0000
0010
,
0010
0010
0000
1000
,
0000
1001
0000
0010
,
0010
0010
0000
0100
,
0000
0110
0000
0001
,
0001
0001
0000
1000
,
0000
0110
0000
0001
,
0001
0001
0000
0100
,
0000
0110
0000
0000
,
0000
0000
0000
0000
,
0000
1001
1000
1000
,
1000
0000
0001
0000
,
0000
0010
0010
0000
,
0000
0001
0001
0000
,
0000
0100
0100
0000
,
0010
0010
0010
0000
,
0000
1000
1000
0000
,
0000
0100
0100
0000
,
1000
0000
0001
0000
,
0000
0100
0100
0000
,
0010
0000
1000
0000
,
0001
0000
0010
0000
,
0001
0000
0100
0000
,
0010
0000
1000
0000
,
0001
0000
1000
0000
,
0010
0000
0100
0000
,
0010
0000
0100
0000
,
0001
0000
1000
0000
,
1000
0000
1000
0000
,
1000
0000
1000
0000
,
1000
0000
1000
0000
,
1000
0000
0010
0000
,
0000
0000
0100
0000
,
0000
0000
0010
0000
,
0000
0000
0100
0000
,
0001
0000
0001
0000
,
1000
0000
1000
0000
,
0001
0000
1000
0000
,
0001
0000
0100
0000
,
0010
0000
0000
0000
;

//---------------dance-single - ----------------
#NOTES:
     dance-single:
     :
     Easy:
     7:
     :
0000
0000
0000
0000
,
0000
0000
0000
0000
,
0000
0000
0000
0000
,
0000
0000
0000
0000
,
0000
0000
0000
0000
,
0001
0000
1000
0001
,
0010
0000
0100
1000
,
1001
0000
0110
0000
,
1000
0001
0100
0010
,
0110
0001
0001
0001
,
0001
0001
0001
0001
,
0001
0001
0001
0001
,
0001
0001
0001
0001
,
0001
1001
0000
0100
,
0010
1000
0001
0001
,
0010
0100
0000
1000
,
0010
0100
0000
0001
,
1000
0010
1000
1000
,
0100
0010
0000
0001
,
1000
1010
0000
0101
,
0000
1010
0000
0001
,
1000
0101
0010
1000
,
0100
0010
0001
0001
,
1000
0001
0000
0010
,
0000
0001
0100
1000
,
0010
1000
1000
1000
,
0100
0001
0001
0001
,
0100
0110
0000
1001
,
0000
1000
0010
0001
,
0100
0020
0000
0000
,
0000
0000
0000
0000
,
0030
2000
0000
0000
,
0000
0000
0000
0000
,
3000
0002
0000
0000
,
0000
0000
0000
0000
,
0003
0200
0000
0000
,
0000
0000
0000
0000
,
0300
1001
0000
0010
,
0010
0010
0000
1010
,
0000
1001
0000
0010
,
0010
0010
0000
1010
,
0000
0110
0000
0001
,
0001
0001
0000
0101
,
0000
0110
0000
0001
,
0001
0001
1000
1000
,
0001
0202
0000
0000
,
0000
0000
0000
0000
,
0303
1001
1000
0001
,
1000
0001
1001
0010
,
0010
0100
0001
0010
,
0001
1000
1000
0100
,
0001
0010
0001
0001
,
1000
0001
0100
0010
,
1000
0000
0001
1000
,
0100
0000
0110
0000
,
1001
0000
0010
0010
,
1000
0001
0100
0001
,
0010
0001
0010
0100
,
1000
0001
1010
0000
,
0101
0000
1010
0000
,
0100
0010
0001
0100
,
1000
0010
1000
0001
,
1000
0100
0110
0000
,
1001
0000
0110
0001
,
0010
0100
1000
1000
,
1000
1000
1000
1000
,
1000
1000
1000
1000
,
1000
1000
1000
1000
,
1000
1000
0010
0100
,
0100
0010
1000
0001
,
0001
1000
0001
0010
,
0001
0010
1000
1000
,
1000
0001
0010
0100
,
0110
0000
0001
1000
,
1001
0000
1010
0000
,
0101
0000
1000
0100
,
0001
0100
0010
0000
;

//---------------dance-single - ----------------
#NOTES:
     dance-single:
     :
     Medium:
     10:
     :
0000
0000
0000
0000
,
0000
0000
0000
0000
,
0000
0000
0000
0000
,
0000
0000
0000
0000
,
0000
0000
0000
0000
,
0001
0000
0010
0000
0000
0001
1000
0010
,
0100
0000
0001
0000
1000
0100
1000
0000
,
1001
0010
1001
0100
,
1010
0101
1010
0101
,
0110
0000
0001
0000
0000
0000
0001
0001
,
0001
0001
0001
0000
0000
0000
0001
0001
,
0001
0001
0001
0000
0000
0000
0001
0001
,
0001
0001
0001
0000
0000
0001
0001
0001
,
0001
0000
0000
0000
1001
0000
0000
0010
0000
0000
1000
0000
0000
0000
0001
0000
,
0100
0000
0000
0000
0001
0000
0000
0100
0000
0000
0010
0000
0000
0000
1000
0000
,
0100
0000
0000
0000
0010
0000
0000
0001
0000
0000
1000
0000
0000
0000
0000
0000
,
0001
1000
0010
0000
0010
0000
1000
0001
,
1000
0000
0000
0000
0010
0000
0000
1000
0000
0000
0100
0000
0000
0000
0010
0000
,
0001
0000
0000
0000
1000
0000
0000
0001
0000
0000
0100
0000
0000
0000
0001
0000
,
0010
0000
0000
0000
0001
0000
0000
0001
0000
0000
0000
0000
1000
0000
0000
1000
,
0000
0000
0000
0000
0010
0000
0000
1000
0000
0000
0001
0000
0000
0000
0100
0000
,
0010
0000
0100
0000
0010
0000
0000
1000
0000
0000
1000
0000
0000
0000
0100
0000
,
0010
0000
0000
0000
0001
0000
0000
0001
0000
0000
0001
0000
0000
0000
0000
0000
,
1000
0000
0100
0000
0010
0000
0000
0010
0000
0000
0000
0000
0001
0000
0000
0001
,
0000
0000
0000
0000
1000
0000
0000
0001
0000
0000
0100
0000
0000
0000
0010
0000
,
1000
0000
0010
0000
1000
0000
0000
0100
0000
0000
0010
0000
0000
0000
0000
0000
,
0001
0000
1000
0000
0100
0000
0000
1000
0000
0000
0010
0000
0000
0000
0000
0000
,
0100
0001
0020
0000
0130
0000
2000
0000
,
3001
0000
0000
0000
0100
0000
0000
0001
0000
0000
1000
0000
0000
0000
0010
0000
,
0100
0010
2000
0000
0000
0000
0000
0000
,
0000
0000
0000
0000
,
3000
0002
0000
0000
,
0000
0000
0000
0000
,
0003
0200
0000
0000
,
0000
0000
0000
0000
,
0300
0020
0000
0000
,
0000
0000
0000
0000
,
0030
0000
2002
0000
3003
0000
0010
0100
,
0010
0100
0010
0000
0000
0000
1000
0001
,
0000
0000
1001
0000
0000
0000
0010
0100
,
0010
0100
0010
0000
0000
0100
0001
1000
,
0000
0000
0110
0000
0000
0000
0001
1000
,
0001
1000
0001
0000
0000
0000
0010
0100
,
0000
0000
0110
0000
0000
0000
0001
1000
,
0001
1000
0000
0010
0100
0000
0101
0000
,
1100
0022
0000
0000
,
0000
0000
0000
0000
,
0033
0000
1001
0000
1000
0001
1000
0001
,
1000
0000
0001
0000
1000
0000
0000
0000
0010
0000
0000
1000
0000
0000
0100
0000
,
0000
0000
1000
0000
0001
0000
0000
0000
0010
0000
0000
0001
0000
0000
1000
0000
,
0000
0000
0100
0000
0010
0000
0001
0000
0100
0000
0000
0001
0000
0000
1000
0000
,
0000
0001
0100
0000
0010
0000
0010
0000
,
1000
0000
0001
0000
1000
0000
0001
0000
0010
0000
0000
0001
0000
0000
1000
0000
,
0000
0000
0100
0000
0010
0000
0100
0000
0010
0000
0000
0001
0000
0000
0100
0000
,
0000
0001
1000
0100
0020
0000
0031
0000
,
2000
0000
0000
0000
3001
0000
0000
0000
0100
0000
0000
0010
0000
0000
1000
0000
,
0000
0000
0001
0000
0100
0000
0001
0000
1000
0000
0000
1000
0000
0000
1000
0000
,
0000
0000
0010
0000
0100
0000
0010
0000
1000
0000
0000
1000
0000
0000
1000
0000
,
0000
0000
0001
0000
0010
0000
0001
0000
0100
0000
0000
0010
0000
0000
0000
0000
,
0100
0000
0000
0010
0000
0000
0000
0000
1000
0000
0000
0001
0000
0000
0100
0000
,
0000
0000
0010
0000
0010
0000
0000
0000
1000
0000
0000
0100
0000
0000
0010
0000
,
0000
0000
0001
0000
0001
0000
0000
0000
0100
0000
0000
0001
0000
0000
0010
0000
,
0000
0000
0001
0000
1000
0000
0010
0000
1000
0000
0000
0100
0000
0000
0000
0000
,
0010
0000
0000
0001
0000
0000
0000
0000
0100
0000
0000
0010
0000
0000
0100
0000
,
0000
0001
0010
0100
1000
0000
0000
0000
,
1000
1000
1000
1000
1000
0000
0000
0000
,
1000
1000
1000
1000
1000
0000
0000
0000
,
1000
1000
1000
1000
1000
0000
0000
1000
,
1000
0000
1000
0000
1000
0000
0000
0000
1010
0000
0000
0001
0000
0000
0100
0000
,
0000
0000
0010
0000
1000
0000
0000
0000
0101
0000
0000
1000
0000
0000
0100
0000
,
0000
0000
0010
0000
0001
0000
0000
0000
0100
0000
0000
0100
0000
0000
0000
0000
,
0010
0000
0000
0010
0000
0000
0000
0000
1000
0000
0000
0100
0000
0000
0001
0000
,
0000
0010
0001
1000
0001
0000
1000
0000
,
1100
0101
0010
0100
,
1010
0011
1001
0100
,
1001
0000
0000
0000
0100
0000
0000
0000
0001
0000
0000
0010
0000
0000
0001
0000
,
1000
1000
1000
0001
0010
0000
0000
0000
;

//---------------dance-single - ----------------
#NOTES:
     dance-single:
     :
     Hard:
     13:
     :
0000
0000
0000
0000
,
0000
0000
0000
0000
,
0000
0000
0000
0000
,
0000
0000
0000
0000
,
0000
0000
0000
0000
,
0001
0000
0000
1000
0000
0000
1000
0000
0000
0000
0010
0100
0010
0000
1000
0000
,
0100
0000
0000
0010
0000
0000
0001
0100
0001
0000
1000
0000
1000
0000
1000
0000
,
0010
0000
0000
1000
0000
0000
0100
0000
0010
0000
0000
0001
0000
0000
0100
0000
,
0101
1100
0101
1100
,
0110
0000
0000
0000
0001
0000
0000
0001
0000
0000
0001
0000
0001
0000
0001
0000
,
0001
0000
0001
0000
0001
0000
0000
0001
0000
0000
0001
0000
0001
0000
0001
0000
,
0001
0000
0001
0000
0001
0000
0000
0001
0000
0000
0001
0000
0001
0000
0001
0000
,
0001
0000
0001
0000
0001
0000
0000
0001
0000
0000
0001
0000
0001
0000
0001
1000
,
0001
0000
0000
0000
1001
0000
0000
0100
0000
0000
0010
0000
0000
0000
1000
0100
,
1000
0000
0001
0000
0010
0000
0000
0100
0000
0000
1000
0000
0000
0000
0010
0000
,
0010
0000
0010
0000
1000
0000
0000
0001
0000
0000
1000
0000
0000
0000
0010
0100
,
0010
0000
1000
0000
0100
0000
0000
0010
0000
0000
0001
0000
1000
0000
1000
0000
,
0001
0000
0001
0000
0100
0000
0000
0010
0000
0000
1000
0000
0000
0000
0001
0010
,
0001
0000
0100
0000
0001
0000
0000
0010
0000
0000
0100
0000
0000
0000
1000
0000
,
1000
0000
0010
0000
1000
0000
0000
0100
0000
0000
0001
0000
0010
0000
0000
0001
,
0000
0000
0100
0000
0010
0000
0000
1000
0000
0000
0001
0000
0100
0000
0010
1000
,
0010
0000
0100
0000
0001
0000
0000
0010
0000
0000
0100
0000
1000
0000
0001
0100
,
0001
0000
0010
0000
0100
0000
0000
1000
0000
0000
0001
0000
0100
0000
0010
0000
,
0010
0000
1000
0000
0001
0000
0000
0010
0000
0000
0001
0000
1000
0000
0000
0010
,
0000
0000
0100
0000
0001
0000
0000
0010
0000
0000
0100
0000
0000
0000
1000
0001
,
1000
0001
1000
0000
0010
0000
0000
0100
0000
0000
0001
0000
0000
0000
1000
0000
,
1000
0000
1000
0000
0100
0000
0000
0010
0000
0000
0001
0000
0000
0000
0100
0000
,
0100
0000
0100
0000
0010
0000
0000
1000
0000
0000
0001
0000
0010
0000
0000
0001
,
0000
0000
0100
0000
1000
0000
0000
0001
0000
0000
1000
0000
0010
0000
0100
0000
,
0100
0001
0022
0000
0000
0000
0000
0000
,
0000
0000
0000
0000
,
0033
2200
0000
0000
,
0000
0000
0000
0000
,
3300
0202
0000
0000
,
0000
0000
0000
0000
,
0303
2020
0000
0000
,
0000
0000
0000
0000
,
3030
0000
2002
0000
3003
0000
0010
0010
,
0010
0010
0100
0000
0000
0000
0001
1000
,
0000
1000
2002
0000
3003
0000
0010
0010
,
0010
0000
0010
0000
0100
0000
0000
0000
0000
0000
0001
0010
0001
0000
1000
0000
,
0000
0100
0220
0000
0330
0000
0001
0001
,
0001
0001
1000
0000
0000
0010
1000
0100
,
0000
0100
0110
0000
1001
0000
0010
0010
,
0010
0010
0000
1000
0001
0010
0001
0100
,
1000
0202
0000
0000
,
0000
0000
0000
0000
,
0303
0000
1001
0000
1000
0001
1000
0001
,
1000
0001
1000
0001
1000
0001
0000
0000
0011
0000
0000
0001
0000
0000
0100
0000
,
0000
0000
0010
1000
0010
1000
0010
0000
0100
0000
0000
0001
0000
0000
1000
0000
,
0000
0000
0100
0010
0100
0010
0100
0000
1000
0000
0000
0001
0000
0000
1000
0000
,
0000
0000
0010
0100
0010
0100
0010
0000
1000
0000
0000
0100
0000
0000
0001
0000
,
0010
0000
0010
0000
0100
0000
0100
0000
0010
0000
0000
0001
0000
0000
1000
0000
,
0000
0000
0001
0100
0001
0100
0001
0000
0010
0000
0000
0100
0000
0000
1000
0000
,
0000
0000
1000
0001
1000
0001
1000
0000
0010
0000
0000
0100
0000
0000
0001
0000
,
0010
0000
0000
0100
0000
0000
1000
0000
0001
0000
0000
0100
0000
0000
0010
0000
,
1000
0000
0100
0010
0100
0000
1000
0000
0001
0000
0000
0001
0000
0000
0100
0000
,
0000
0000
0010
1000
0010
1000
0010
0000
1000
0000
0000
0100
0000
0000
0100
0000
,
0000
0000
0010
0001
0010
0001
0010
0000
0001
0000
0000
0100
0000
0000
0010
0000
,
1000
0000
0000
0100
0000
0000
0001
0000
1000
0000
0000
0010
0000
0000
0100
0000
,
0000
0000
0001
1000
0001
1000
0001
0000
0010
0000
0000
0100
0000
0000
1000
0000
,
0000
0000
0001
0100
0001
0100
0001
0000
0010
0000
0000
0001
0000
0000
1000
0000
,
0000
0000
0010
0100
0010
0100
0010
0000
1000
0000
0000
0100
0000
0000
0010
0000
,
0001
0000
0000
1000
0000
0000
0001
0000
0100
0000
0000
0010
0000
0000
1000
0000
,
0000
0000
0001
0000
1000
0010
1000
0010
1000
0000
0000
1000
0000
0000
1000
0000
,
1000
0000
1000
0000
1000
0000
1000
0000
1000
0000
0000
1000
0000
0000
1000
0000
,
1000
0000
1000
0000
1000
0000
1000
0000
1000
0000
0000
1000
0000
0000
1000
0000
,
1000
0000
1000
0000
1000
0000
1000
0000
1000
0000
0000
1000
0000
0000
1000
0000
,
1000
0000
1000
0000
1000
0001
1000
0001
1000
0000
0000
0010
0000
0000
0100
0000
,
0000
0000
0001
0000
0001
0000
0001
0000
0010
0000
0000
0001
0000
0000
1000
0000
,
0000
0000
0001
0100
0001
0000
0010
0000
0100
0000
0000
1000
0000
0000
0001
0000
,
0100
0000
0000
0010
0000
0000
0100
0000
0001
0000
0000
0010
0000
0000
1000
0000
,
0000
0000
0100
0000
0100
0000
0100
0000
1000
0000
0000
0001
0000
0000
0100
0000
,
1010
0000
0000
0000
0101
0000
0000
0000
0010
0000
0000
0001
0000
0000
1000
0000
,
1100
0000
0000
0000
0011
0000
0000
0000
1000
0000
0000
0010
0000
0100
0000
0000
,
0001
0000
0000
0010
0001
0000
1000
0000
0010
0000
0000
0100
0001
0000
1000
0000
,
0100
0100
0100
0100
0010
0000
0000
0000
;

//---------------dance-single - ----------------
#NOTES:
     dance-single:
     :
     Challenge:
     17:
     :
0000
0000
0000
0000
,
0000
0000
0000
0000
,
0000
0000
0000
0000
,
0000
0000
0000
0000
,
0000
0000
0000
0000
,
0001
0010
0100
1000
0010
0100
1000
0100
,
0001
0000
1000
0000
0100
0000
0001
0100
1000
0000
0010
0000
0100
0000
0001
0000
,
1000
0010
1000
0010
0100
0001
0100
0001
0010
0100
0010
0100
1000
0001
1000
0001
,
0010
0000
0001
0100
0001
0000
1000
0100
1000
0000
0001
0010
0001
0000
1000
0010
,
1000
0000
0000
0000
0001
0000
0000
0001
0000
0000
0001
0000
0001
0000
0001
0000
,
0001
0000
0001
0000
0001
0000
0000
0001
0000
0000
0001
0000
0001
0000
0001
0000
,
0001
0000
0001
0000
0001
0000
0000
0001
0000
0000
0001
0000
0001
1000
0001
1000
,
0001
0000
0000
1000
0000
0000
0001
0000
0000
1000
0000
0000
0001
0000
0000
1000
0000
0000
0001
0000
0000
1000
0000
0000
0001
0000
0000
1000
0000
0000
0001
0000
0000
1000
0000
0000
0001
0000
0000
0000
0000
0000
0001
0000
1000
0000
0001
0000
,
1000
0000
0000
0000
1001
0000
0000
1010
0000
0000
0101
0000
0000
0000
0010
0001
,
0100
0000
0010
0000
1010
0000
0000
1100
0000
0000
0011
0000
0001
0000
1000
0100
,
0010
0000
0001
0000
0101
0000
0000
0110
0000
0000
1001
0000
0010
0000
1000
0100
,
1000
0000
0001
0000
0011
0000
0000
0110
0000
0000
1100
0000
0001
0000
0001
0000
,
0001
0000
0001
0000
0011
0000
0000
0101
0000
0000
1010
0000
0100
0000
1000
0001
,
1000
0000
0010
0000
0101
0000
0000
1100
0000
0000
0011
0000
0100
0000
1000
0010
,
1000
0010
0100
0001
0010
0000
0001
0100
0000
0100
0010
0000
0010
0000
1000
0100
,
0000
0100
0010
0000
0010
0000
0001
1000
0000
1000
0010
0000
0000
0000
0100
0001
,
1000
0000
0100
0010
0001
0000
1000
0010
0000
0010
0100
0000
0001
0000
0010
0001
,
1000
0000
0010
0000
0100
0000
0001
0010
0000
0010
0100
0000
0000
0000
1000
0100
,
0010
0000
0001
0000
0101
0000
0100
0010
0000
0010
1000
0000
1100
0000
0100
0010
,
0000
0010
0001
0000
1001
0000
0000
1010
0000
0000
0101
0000
0010
0000
1000
0001
,
1000
0010
0100
0001
0010
0000
0001
0100
0001
0000
1000
0000
0010
0000
1000
0100
,
1000
0000
0001
0000
0010
0000
0100
0010
0001
0000
1000
0000
0010
0000
1000
0001
,
1000
0100
0010
0001
0100
0000
0010
1000
0000
1000
0001
0000
0010
0000
0001
0100
,
0000
0100
0010
0000
1010
0000
0000
1100
0000
0000
0101
0000
0010
0001
0010
0100
,
1000
0010
0100
0001
2000
0000
0000
0000
0001
0000
0000
0000
0001
0000
0000
0000
,
0001
0001
0001
0001
,
3001
0020
0100
0100
,
0100
0100
0100
0100
,
0130
0002
1000
1000
,
1000
1000
1000
1000
,
1003
0200
0010
0010
,
0010
0010
0010
0010
,
0310
0000
1001
0000
0100
0000
0010
0010
,
0010
0010
0010
0000
0100
0000
1010
0101
,
0000
0000
0011
0000
1001
0000
0000
0000
0100
0000
0001
1000
0001
0000
0001
0000
,
0001
0000
0001
0000
0001
0000
0000
0000
0010
0000
0001
0100
1000
0000
0110
0000
,
0000
1010
1001
0000
0010
0000
1000
1000
,
1000
1000
1000
0000
0100
0000
0011
1100
,
0000
0101
1001
0000
0010
0000
0100
0100
,
0100
0100
0100
0010
1010
1000
1001
1000
,
1100
0000
0101
0000
0001
0010
1000
0100
,
1000
0010
0100
1000
0100
0001
0010
0100
,
1000
0000
0001
0000
1001
0000
0000
0000
1000
0001
1000
0001
1000
0001
1000
0001
,
1000
0001
1000
0001
1000
0001
0000
0000
0011
0000
0000
0110
0000
0000
1001
0000
,
0010
0000
1000
0100
0010
0001
0100
0000
0010
0000
1000
0100
0000
0100
0010
0000
,
0001
0000
1000
0010
1000
0001
0100
0000
0010
0000
1000
0001
0000
0001
0100
0000
,
0001
0000
0010
0100
0010
0001
1000
0000
0010
0000
1000
0100
0000
0010
0001
0000
,
0100
0001
0100
0010
1000
0100
0001
0000
0010
0001
0000
0001
0100
0000
0010
0000
,
1000
0000
0100
1000
0001
0010
0100
0000
0010
0001
0000
0001
1000
0000
0010
0000
,
0100
0000
1000
0100
0001
1000
0010
0000
0100
0001
0100
0001
0000
0010
0100
0000
,
1000
0010
1000
0010
0000
0100
0001
0000
0010
0001
0010
0100
0000
1000
0001
0000
,
0100
0000
0010
1000
0010
0100
0001
0000
0010
0000
0001
1000
0000
0010
0100
0000
,
0001
0000
0010
0001
0010
0100
1000
0000
0010
0000
0100
0010
0000
1000
0001
0000
,
0100
0000
0001
0010
1000
0010
0001
0000
0110
0000
1000
0100
0000
0010
0001
0000
,
1010
0000
1000
0001
0000
0010
0100
0000
1100
0000
0010
0100
0000
0001
1000
0000
,
0010
0000
1000
0100
0010
0001
0100
0000
0110
0000
0010
1000
0000
1000
0001
0000
,
0010
0001
0010
0100
1000
0010
0100
0000
0001
0000
1000
0010
0000
0100
0001
0000
,
1000
0100
0010
0100
0010
0001
1000
0000
1010
0000
1000
0001
0000
0010
0100
0000
,
1100
0000
0010
0100
0000
0001
1000
0000
0011
0000
0100
1000
0001
0000
0100
0010
,
1000
0000
0001
0010
0001
1000
0010
0100
1000
0000
0000
1000
0000
0000
1000
0000
,
1000
0000
1000
0000
1000
0000
1000
0000
1000
0000
0000
1000
0000
0000
1000
0000
,
1000
0000
1000
0000
1000
0000
1000
0000
1000
0000
0000
1000
0000
0000
1000
0000
,
1000
0000
1000
0000
1000
0000
1000
0000
1000
0000
0000
1000
0000
0000
1000
0000
,
1000
0000
0000
0000
0000
0000
1000
0000
0000
0000
0000
0000
1000
0000
0001
0000
1000
0000
0001
0000
1000
0000
0001
0000
1000
0000
0000
0000
0000
0000
0000
0000
0000
0010
0000
0000
0000
0000
0000
0000
0000
0000
0100
0000
0000
0000
0000
0000
,
0001
0010
0001
0010
0001
0010
0001
0000
0110
0000
0000
1100
0000
0000
0101
0000
,
0010
1000
0010
1000
0010
1000
0010
0000
1001
0000
0000
0010
0000
0000
0100
0000
,
0101
0000
0000
1000
0000
0000
0001
0000
0011
0000
0000
1100
0000
0000
0101
0000
,
1000
0010
0100
0001
0010
0100
1000
0000
1001
0000
1000
0010
0000
0100
0001
0000
,
0011
0000
0000
0000
0101
0000
0000
0000
0010
1000
0010
0100
0001
0010
0100
1000
,
0001
0000
0000
0000
0001
0000
0000
0000
1000
0100
1000
0100
0010
0100
1000
0000
,
0001
0100
0001
0100
0010
0100
0001
0000
0100
0010
1000
0001
0100
0010
1000
0001
,
0100
0010
1000
0001
0100
0010
1000
0001
0100
0000
0000
0000
0000
0000
0000
0000
;
