#TITLE:ANTI ANTHEM;
#SUBTITLE:(25th Anniversary Special);
#ARTIST:BEMANI Sound Team "ZAQUVA";
#BANNER:ANTI ANTHEM (25th Anniversary Special)-bn.png;
#BACKGROUND:ANTI ANTHEM (25th Anniversary Special)-bg.png;
#JACKET:ANTI ANTHEM (25th Anniversary Special)-jacket.png;
#MUSIC:ANTI ANTHEM (25th Anniversary Special).ogg;
#OFFSET:0.7;
#SAMPLESTART:25.357;
#SAMPLELENGTH:20;
#DISPLAYBPM:128:175;
#BPMS:0=175,188=128;
#BGCHANGES:;

//---------------dance-single - ----------------
#NOTES:
     dance-single:
     :
     Challenge:
     17:
     :
0000
0000
0000
0000
,
0010
0000
0000
0001
0000
0001
0000
0001
1000
0000
0001
0000
0100
0000
0010
0200
,
0000
0000
0000
0000
0301
0100
1000
0000
,
0010
0000
0000
1000
0000
1000
0000
1000
0100
0000
0010
0000
0001
0000
1000
0002
,
0000
0000
0000
0000
0013
0001
0100
0000
,
0010
0000
0000
1000
0000
1000
0000
1000
0001
0000
0010
0000
0001
0000
1000
0200
,
0000
0001
1000
0001
,
0310
0000
0000
0001
0000
0001
0000
0001
0100
0000
0010
0000
1000
0000
0001
0200
,
0000
0000
0000
0000
0000
0000
0000
0000
0301
0010
0001
0010
0100
1000
0100
1000
,
0010
0000
0000
1000
0000
0100
0000
0010
0001
0000
0100
0000
0010
0000
1000
0002
,
0000
0000
0013
0100
1000
0001
0000
0010
0001
1000
0010
0000
1000
0001
0100
0000
,
0010
0000
0000
0100
0000
0001
0000
1000
0001
0000
0010
0000
0100
0000
1000
0020
,
0000
0000
0130
0010
0100
0001
0000
1000
0100
1000
0001
0000
0010
0001
0010
0100
,
1000
0000
0000
0010
0000
0100
0000
0001
1000
0000
0000
0010
0000
0100
0000
0001
,
1000
0000
0000
0100
0000
0010
0000
0001
1000
0000
0000
0100
0000
0010
0000
0001
,
1000
0001
1000
0001
0100
0010
0100
0010
1000
0001
1000
0001
0100
0010
0100
0010
,
0000
0000
1000
0100
0000
0100
0000
0100
0010
0001
1000
0000
0001
0000
0100
0000
,
0010
0000
1000
0100
1000
0000
0001
0100
0001
0000
1000
0010
1000
0000
0001
0010
,
0001
0000
0011
0000
0101
0000
0100
0010
,
1000
0000
0100
0000
0010
0000
0001
0100
0000
0100
0010
0000
1000
0000
0001
0000
,
1000
0000
0001
0000
0010
0000
0100
1000
0000
0010
0100
0000
0001
1000
0000
0001
,
0100
0000
0010
0000
1000
0000
0100
0010
0000
0010
0001
0000
1000
0000
0001
0100
,
0001
0000
0000
0000
0010
0000
0000
0000
1000
0000
0000
0000
0001
0000
0000
0000
0100
0000
0000
0000
1000
0000
0000
0000
0001
0000
0000
0000
0010
0000
0000
0000
1000
0000
0000
0000
0001
0000
0000
1000
0000
0000
0010
0000
0000
0100
0000
0000
,
0001
0000
0010
0000
0100
0000
1000
0001
0000
0001
0010
0000
0001
0000
0100
0000
,
1000
0000
0010
0000
0100
0000
0010
1000
0000
1000
0001
0000
0010
0001
0000
0100
,
0010
0000
0000
0000
0000
0000
1000
0000
0000
0000
0000
0000
0001
0000
0000
0000
0100
0000
0000
0000
1000
0000
0000
0000
0010
0000
0000
0000
0000
0000
0100
0000
0000
0000
0000
0000
0001
0000
0000
0010
0000
0000
0100
0000
0000
1000
0000
0000
,
0001
0000
0100
0010
0000
0010
0000
0010
1000
0100
1000
0000
0101
0000
0000
0000
,
1001
0000
0010
0000
1000
0000
0100
0010
0000
0001
0100
0000
1000
0000
0010
0000
,
0100
0000
1000
0000
0100
0000
0001
0010
0000
0010
0100
0000
0100
1000
0000
1000
,
0001
0000
0000
0000
0000
0000
0010
0000
0000
0000
0000
0000
1000
0000
0000
0000
0100
0000
0000
0000
0001
0000
0000
0000
0010
0000
0000
0100
0000
0000
0010
0000
0000
0100
0000
0000
1000
0000
0000
0001
0000
0000
1000
0000
0000
0001
0000
0000
,
0100
0000
0000
0000
0110
0000
0000
0000
0001
0100
1000
0100
0001
0000
0000
0000
,
1001
0000
0000
0000
0010
0000
0010
0000
0010
0000
0010
0000
0010
0000
0010
0010
,
0010
0000
0010
0000
0010
0000
0010
0000
0010
0000
0010
0000
0010
0010
0010
0010
,
0010
0000
0000
0000
0100
0000
0100
0000
0100
0000
0100
0000
0100
0000
0100
0100
,
0100
0000
0100
0000
0100
0000
0100
0000
0100
0100
0100
0100
0100
0000
0000
0000
,
0010
0000
0010
0000
0010
0010
0000
0010
0000
0010
0000
0010
0010
0000
0010
0000
,
0010
0000
0010
0000
0010
0010
0000
0010
0000
0010
0000
0010
0010
0000
0000
0000
,
0100
0000
0100
0100
0000
0100
0100
0000
0100
0100
0100
0100
,
0100
0000
0000
0000
0110
0000
0000
0000
0001
0100
1000
0100
0001
0000
0000
0000
,
0011
0000
0001
1000
0000
0100
0000
1000
0001
0100
0000
0100
1000
0000
1010
0000
,
0001
0100
0000
0100
1000
0000
1010
0000
0001
0100
0000
0100
1000
0000
1010
0000
,
0200
0000
0000
1300
0000
0001
0000
0100
0001
0010
0000
0010
1000
0000
0101
0000
,
0001
0010
0000
0010
1000
0000
0101
0000
0001
0010
0000
0010
1000
0000
0101
0000
,
1000
0000
0000
0000
0000
0000
0010
0000
0000
0100
0000
0000
0000
0000
0000
0001
0000
0000
0000
0000
0000
0100
0000
0000
0010
0000
0000
0000
0000
0000
0000
0000
1010
0000
0000
0000
0000
0000
0000
0000
1010
0000
0000
0000
0000
0000
0000
0000
,
0101
0000
0101
0000
0101
0000
1001
0000
0010
1000
0001
0100
,
0010
0000
1000
0100
0000
0010
0000
0001
1000
0010
0000
0010
0001
0000
0100
0010
,
1000
0000
1000
0000
1000
0100
1000
0100
1000
0200
2000
0000
0000
0300
0000
0000
,
3001
0000
0010
0100
0000
1000
0000
0010
1000
0001
0000
0101
0000
0101
0000
0000
,
0010
1000
0000
1100
0000
1100
0000
0000
0001
0100
0000
0110
0000
0110
0000
0000
,
0001
0000
0010
0100
0000
1000
0000
0010
1000
0001
0000
0011
0000
0110
0000
2200
,
0000
0000
0000
0000
0000
0000
0000
0000
0000
0000
0000
0000
0300
0000
0000
0000
0000
0000
0001
0000
0000
3001
0000
0000
0000
0000
0000
1000
0000
0000
0000
0000
0000
0010
0000
0000
1000
0000
0100
0000
0010
0000
0001
0000
0010
0000
0100
0000
,
1000
0000
0001
0010
0000
0001
0000
0100
1000
0010
0100
0000
0001
1000
0000
1000
,
0100
0010
0001
0000
0100
0010
0000
0010
1000
0100
0000
1001
0000
0101
0000
0011
,
1000
0010
0001
0100
0100
0010
0010
0100
1000
0100
1000
1000
0010
0001
0001
0001
,
0100
0010
0001
0010
1000
0100
1000
0001
0100
0001
0010
1000
1000
0010
0100
0001
,
0010
0000
1000
0100
1000
0100
0000
0010
0001
0000
0001
0000
0101
0000
0000
0000
,
1001
0000
0110
0000
0010
1000
0000
0010
1000
0001
0000
0011
0000
1100
0000
0000
,
0010
1000
0000
1010
0000
0101
0000
0000
0001
0100
0000
0101
0000
1010
0000
0000
,
1100
0000
0101
0000
0010
0001
0000
0001
1000
0100
0000
1100
0000
0110
0000
0012
,
0100
0100
0000
0100
0000
0000
1000
1003
0000
0110
0000
1001
0000
0001
0100
0000
,
1010
0000
0101
0000
0001
0010
0100
1000
1001
0000
0011
0000
0010
0100
1000
0001
,
1100
0000
0110
0000
0010
0001
0100
1000
0100
0001
0000
1001
0000
0010
1000
0000
,
0011
0000
0101
0000
0010
1000
0001
0100
1010
0000
1100
0000
0001
0010
1000
0100
,
1001
0000
0000
0000
0000
0000
0110
0000
0000
0000
0000
0000
0010
0000
0000
1000
0000
0000
0000
0000
0000
1000
0000
0000
0001
0000
0000
0000
0001
0000
0000
0000
0001
0000
0000
0000
0001
0000
0000
0000
0001
0000
0000
0000
0001
0000
0000
0000
,
1001
0000
0010
1000
0000
0100
0000
1000
0001
0000
0001
0000
0001
0000
0100
0010
,
1010
0000
0001
0100
0101
0000
1000
0100
1100
0000
1001
0000
0101
0000
0000
0000
,
0110
0000
0000
0000
0000
0000
1001
0000
0000
0000
0000
0000
0010
0000
0000
0000
0010
0000
0000
0000
1000
0000
0000
0000
0001
0000
0000
0000
0001
0000
0000
0000
0100
0000
0000
0000
0001
0000
0000
0010
0000
0000
0100
0000
0000
1000
0000
0000
,
0010
0000
0110
0000
0100
0001
0010
0001
0010
0100
1000
0000
0001
1000
0010
0100
,
0101
0000
1100
0000
0010
1000
0001
0100
0110
0000
1010
0000
1000
0100
0010
0001
,
1001
0000
0011
0000
0100
0010
1000
0001
0010
0011
0000
1100
0000
0001
0001
0001
,
0011
0000
1100
0000
0010
0100
0001
1000
1100
0100
0110
0000
0001
0010
1000
0100
,
1100
0000
0000
1000
0000
0000
1001
0000
0000
0000
0000
0000
0010
0000
0000
0100
0000
0000
0001
0000
0000
1000
0000
0000
0110
0000
0000
0000
0110
0000
0000
0000
0110
0000
0000
0000
0110
0000
0000
0000
0110
0000
0000
0000
0110
0000
0000
0000
,
1001
0000
0010
0001
0000
0011
0000
0110
0000
1100
0000
0010
1000
0100
2000
0002
,
0000
0000
0000
0000
,
3003
0000
0000
0000
;
