#VERSION:0.83;
#TITLE:ANGELUS-アンジェラス-;
#SUBTITLE:;
#ARTIST:島谷ひとみ;
#TITLETRANSLIT:ANGELUS;
#SUBTITLETRANSLIT:;
#ARTISTTRANSLIT:Hitomi Shimatani;
#GENRE:;
#ORIGIN:;
#CREDIT:;
#BANNER:ANGELUS.png;
#BACKGROUND:ANGELUS-bg.png;
#PREVIEWVID:;
#JACKET:ANGELUS-jacket.png;
#CDIMAGE:;
#DISCIMAGE:;
#LYRICSPATH:;
#CDTITLE:;
#MUSIC:ANGELUS.ogg;
#OFFSET:0.000000;
#SAMPLESTART:47.849998;
#SAMPLELENGTH:20.000000;
#SELECTABLE:YES;
#DISPLAYBPM:120.000000:131.000000;
#BPMS:0.000=131.387,
4.000=130.909,
32.000=124.567,
36.000=131.004,
96.000=122.727,
96.750=130.435,
97.750=127.358,
98.500=121.622,
99.000=130.435,
100.000=122.727,
100.750=130.435,
101.750=127.358,
102.500=121.622,
103.000=130.435,
104.000=130.981,
184.000=130.435,
186.000=131.028,
202.000=131.004,
212.000=131.387,
214.000=120.000;
#STOPS:;
#DELAYS:;
#WARPS:;
#TIMESIGNATURES:0.000=4=4;
#TICKCOUNTS:0.000=4;
#COMBOS:0.000=1;
#SPEEDS:0.000=1.000=0.000=0;
#SCROLLS:0.000=1.000;
#FAKES:;
#LABELS:0.000=Song Start;
#BGCHANGES:;
#KEYSOUNDS:;
#ATTACKS:
;

//---------------dance-single - ----------------
#NOTEDATA:;
#CHARTNAME:;
#STEPSTYPE:dance-single;
#DESCRIPTION:;
#CHARTSTYLE:;
#DIFFICULTY:Beginner;
#METER:3;
#RADARVALUES:0.111800,0.132064,0.019565,0.019565,0.000000,80.000000,78.000000,2.000000,2.000000,0.000000,0.000000,0.000000,0.000000,0.000000,0.111800,0.132064,0.019565,0.019565,0.000000,80.000000,78.000000,2.000000,2.000000,0.000000,0.000000,0.000000,0.000000,0.000000;
#CREDIT:;
#DISPLAYBPM:120.000000:131.000000;
#NOTES:
0000
0000
0000
0000
,
0000
0000
0000
0000
,
1000
0000
0000
0000
,
0001
0000
0000
0000
,
1000
0000
0001
0000
,
0100
0000
0000
0000
,
0010
0000
0000
0000
,
0100
0000
0000
0000
,
0010
0000
1000
0000
,
0001
0000
0000
0000
,
0010
0000
0000
0000
,
0100
0000
0100
0000
,
0010
0000
0010
0000
,
1000
0000
0000
0000
,
0001
0000
0000
0000
,
0100
0000
0100
0000
,
0010
0000
0010
0000
,
1000
0000
1000
0000
,
0001
0000
0001
0000
,
0100
0000
0100
0000
,
0010
0000
0000
0000
,
1000
0000
0100
0000
,
0001
0000
0100
0000
,
2000
0000
0000
3000
,
1000
0000
0000
0000
,
1001
0000
0000
0000
,
1000
1000
0000
0000
,
0001
0001
0000
0000
,
0010
0000
0100
0000
,
0010
0000
0100
0000
,
1000
0000
1000
0000
,
0001
0000
0001
0000
,
0100
0000
0000
0000
,
0010
0000
0000
0000
,
1000
1000
0000
0000
,
0001
0001
0000
0000
,
0100
0000
0010
0000
,
0100
0000
0010
0000
,
1000
0000
1000
0000
,
0001
0000
0001
0000
,
0010
0000
0000
0000
,
0100
0000
0000
0000
,
1001
0000
0000
0000
,
0000
0000
0000
0000
,
0100
0000
0000
0000
,
0200
0000
0000
0300
,
0000
0000
1000
0000
,
0000
0000
0001
0000
,
0000
0000
1000
0000
,
0000
0000
0001
0000
,
0000
0000
0010
0000
,
0001
0000
1000
0000
,
0100
0000
1000
0000
,
0010
0000
0100
0000
,
0001
0000
0000
0000
,
0000
0000
0000
0000
;

//---------------dance-single - ----------------
#NOTEDATA:;
#CHARTNAME:;
#STEPSTYPE:dance-single;
#DESCRIPTION:;
#CHARTSTYLE:;
#DIFFICULTY:Easy;
#METER:4;
#RADARVALUES:0.190061,0.240467,0.176086,0.176086,0.000000,136.000000,118.000000,18.000000,18.000000,0.000000,0.000000,0.000000,0.000000,0.000000,0.190061,0.240467,0.176086,0.176086,0.000000,136.000000,118.000000,18.000000,18.000000,0.000000,0.000000,0.000000,0.000000,0.000000;
#CREDIT:;
#DISPLAYBPM:120.000000:131.000000;
#NOTES:
0000
0000
0000
0000
,
0000
0000
0000
0000
,
1001
0000
0000
0000
,
1001
0000
0000
0000
,
1000
0000
0001
0000
,
0110
0000
0000
0000
,
0110
0000
0000
0000
,
0110
0000
0000
0000
,
0001
1000
0200
0300
,
0010
0000
0001
0000
,
1000
0001
1000
0001
,
0100
0000
0010
0000
,
0100
0010
0100
0010
,
1000
0000
0100
0000
,
1000
0100
1000
0100
,
0010
0000
0001
0000
,
1000
0001
1000
0001
,
0200
0300
0100
0000
,
0020
0030
0010
0000
,
2000
3000
1000
1000
,
0100
0000
0010
0000
,
0002
0003
0001
0001
,
2000
3000
1000
1000
,
0020
0000
0030
0010
,
0110
0000
0000
0001
,
1001
0000
0000
1000
,
1001
0001
0001
0000
,
1000
1000
1000
0000
,
0010
0000
0001
0000
,
0100
0000
1000
0000
,
0002
0003
2000
3000
,
0001
0001
1000
1000
,
0200
0000
0300
0000
,
0020
0000
0030
0001
,
1000
0100
1000
0000
,
0001
0100
0001
0000
,
0010
0000
0100
0000
,
1000
0000
0001
0000
,
0200
0300
0020
0030
,
0100
0100
0010
0010
,
2000
0000
3000
0000
,
0002
0000
0003
0000
,
1001
0000
0000
0000
0000
0110
0000
0110
,
0000
0000
0000
0000
,
1000
0100
0010
0001
,
1000
0000
0000
2002
,
0000
3003
1001
0000
,
0000
0000
0110
0000
,
0000
0000
1001
0000
,
0000
0000
0110
0200
,
0000
0300
0001
0000
,
1000
0000
0100
0000
,
0010
0100
1000
0000
,
0001
0000
0110
0110
,
0010
0000
1000
0000
0000
0001
0000
0000
,
0000
0000
0000
0000
;

//---------------dance-single - ----------------
#NOTEDATA:;
#CHARTNAME:;
#STEPSTYPE:dance-single;
#DESCRIPTION:;
#CHARTSTYLE:;
#DIFFICULTY:Medium;
#METER:7;
#RADARVALUES:0.266923,0.320623,0.166303,0.215216,0.009783,191.000000,174.000000,17.000000,22.000000,0.000000,0.000000,0.000000,0.000000,0.000000,0.266923,0.320623,0.166303,0.215216,0.009783,191.000000,174.000000,17.000000,22.000000,0.000000,0.000000,0.000000,0.000000,0.000000;
#CREDIT:;
#DISPLAYBPM:120.000000:131.000000;
#NOTES:
0000
0000
0000
0000
,
0000
0000
0000
0000
,
0000
0000
0000
0000
,
0000
0000
0000
0000
,
2000
3200
0320
0031
,
1001
0000
0000
0000
0000
0000
0000
0100
,
0100
0000
0000
0000
0000
0000
0000
0010
,
0010
0000
0000
0000
,
0001
1000
0200
0300
,
1001
0000
1000
0100
0010
0000
0001
0000
,
1000
0000
0010
0000
0100
0010
1000
0000
,
0001
0100
0001
1000
,
0100
0010
0100
1000
,
1001
0000
0001
0010
0100
0000
1000
0000
,
0001
0000
0100
0000
0010
0100
0001
0000
,
1000
0010
1000
0001
,
0010
0000
0010
0000
0100
1000
0001
0000
,
0200
0000
0010
0310
,
2000
0000
0100
3100
,
0020
0000
0001
0031
,
0100
0001
0020
0030
,
0100
1000
0001
0000
1000
0000
0001
0100
,
0000
0001
1000
0000
0010
0000
0100
0000
,
0002
0000
0000
0003
,
0011
0000
0000
0011
0000
0000
0000
0000
0000
0000
0000
0000
0000
0000
0000
0000
,
1100
0000
0000
1100
0000
0000
0000
0000
0000
0000
0000
0000
0000
0000
0000
0000
,
1000
0001
1000
0000
0100
0000
0010
0001
,
0000
0001
1000
0000
0010
0000
1000
0000
,
0020
0130
0200
0310
,
1000
0100
0001
0010
,
1000
0000
0010
0100
0000
0001
0000
0010
,
0000
0100
0000
1000
0000
0001
0000
0200
,
0000
0000
0000
0000
0300
1000
0100
0002
,
0000
0000
0000
1003
,
0001
1000
0001
0000
0010
0000
0100
1000
,
0000
0001
0100
0001
,
0200
0310
0020
0130
,
0001
0010
1000
0100
,
0001
0000
0100
0010
0000
1000
0000
0010
,
0000
0001
0000
0100
0000
1000
0000
0020
,
0000
0000
0000
0000
0030
0001
0010
1000
,
0002
0000
0000
0003
,
1010
0000
0000
0000
0000
0110
0000
0101
,
0000
0000
0000
0000
0000
1001
0000
0000
,
1000
0000
0100
0000
0010
0000
0001
1000
,
0100
0100
0100
0200
,
0000
0300
0011
0000
,
0000
0000
0000
0100
0100
0000
0000
0000
,
0000
0000
1010
0000
,
0000
0000
0000
0100
0100
0000
0220
0000
,
0000
0330
0100
0001
,
0010
0001
0100
0010
,
1000
0100
1000
0001
,
0100
0010
1010
0101
,
0002
0000
2003
0000
3000
1001
0000
0000
,
0000
0000
0000
0000
;

//---------------dance-single - ----------------
#NOTEDATA:;
#CHARTNAME:;
#STEPSTYPE:dance-single;
#DESCRIPTION:;
#CHARTSTYLE:;
#DIFFICULTY:Hard;
#METER:12;
#RADARVALUES:0.507294,0.587808,0.224998,0.136955,0.401084,363.000000,340.000000,23.000000,14.000000,0.000000,0.000000,0.000000,0.000000,0.000000,0.507294,0.587808,0.224998,0.136955,0.401084,363.000000,340.000000,23.000000,14.000000,0.000000,0.000000,0.000000,0.000000,0.000000;
#CREDIT:;
#DISPLAYBPM:120.000000:131.000000;
#NOTES:
0000
0000
0000
0000
,
0000
0000
0000
0000
,
0000
0000
0000
0000
,
0000
0000
0000
0000
,
1000
0000
0000
0000
0100
0000
0000
0000
0010
0000
0000
0000
0001
0000
0000
0000
1000
0000
0000
0000
0100
0000
0000
0000
0010
0000
0000
0001
0000
0000
0000
0000
0000
0000
0000
0000
1000
0000
0000
0000
0000
0000
0001
0000
0000
0000
0000
0000
,
1001
0000
0000
0000
0000
0000
0000
0100
,
1000
0000
0000
0000
0000
0000
0000
0100
,
0001
0000
0000
0000
,
1000
0010
0100
0001
0010
0100
1000
0000
1000
0000
1000
0000
,
1001
0000
0000
0000
0010
0000
0000
0000
0100
0000
0000
1000
0001
0000
0100
0000
,
0001
0000
0000
0000
0010
0000
0000
0000
0100
0000
1000
0001
1000
0001
1000
0000
,
0010
0000
0000
0000
0100
0000
0000
0001
1000
0000
0001
0000
0100
0000
0010
0000
,
1000
0000
0000
0000
0010
0000
0000
0000
0100
0000
0001
1000
0001
1000
0001
0000
,
0010
0000
0000
0100
1000
0000
0000
0000
0001
0000
0000
0000
0010
0000
0001
0000
,
1000
0000
0000
0000
0100
0000
0000
0000
0010
0000
0001
1000
0001
1000
0001
0000
,
0100
0000
0010
0000
1000
0100
1000
0010
,
0100
0000
0001
1000
0000
0010
0000
1000
0001
0000
0100
0000
1001
0000
0000
0000
,
0010
0000
0000
0100
1000
0000
0000
0000
0001
0000
0000
0000
0010
0000
0100
0000
,
0100
0000
0000
1000
0001
0000
0000
0000
0010
0000
0100
0000
1000
0000
0001
0000
,
0001
0000
0000
0100
0010
0000
0000
0000
1000
0000
0000
0000
0001
0000
0100
0000
,
0100
0000
0000
0010
1000
0000
0000
0000
0001
0000
0100
0000
0010
0000
0100
0000
,
0001
0010
0100
0000
1000
0000
0100
0010
,
0001
0010
0100
0000
1000
0010
0100
0001
,
0010
0000
0100
0000
1000
0100
0000
1000
0100
0000
0000
0010
0001
0000
1000
0000
,
1001
0000
0000
1001
0000
0000
0000
0101
0000
0000
0110
0000
1010
0000
0000
0000
,
1001
0000
0000
1001
0000
0000
0000
1100
0000
0000
0110
0000
0011
0000
0000
0000
,
1000
0001
0200
0000
0310
0000
1000
0010
,
0100
0001
2000
0000
3100
0000
1000
0001
,
0010
0100
1000
0000
0010
0100
0001
0000
,
0010
0001
0100
1000
0100
0001
0010
0100
,
2000
0000
3010
0100
0002
0000
0013
0001
,
0100
0001
1000
0100
0010
0001
0100
0010
,
1000
0010
0100
0000
0001
0000
0100
0010
,
1000
1000
0001
0001
1000
1000
0100
0000
,
0001
0100
2000
0000
3010
1000
0010
0100
,
0001
0000
1001
0000
0100
1000
0001
0100
,
0010
0100
0001
0000
0010
0100
1000
0000
,
0001
0010
0100
1000
0001
1000
0100
0010
,
0002
0000
0103
0010
2000
0000
3100
1000
,
0010
1000
0001
0010
0100
1000
0010
0100
,
0001
0100
0010
0000
1000
0000
0010
0100
,
0001
0001
1000
1000
0001
0001
0010
0000
,
0220
0000
0000
0330
0000
1100
0000
0202
,
0000
0000
0000
0303
0000
2002
0000
3003
,
0001
0000
0000
0000
0100
0000
0000
0000
0001
0000
0000
0000
1000
0000
0000
0000
0100
0000
0000
0000
1000
0000
0000
0000
0010
0000
0000
0000
0000
0000
0100
0000
0000
0000
0000
0000
0001
0000
0000
1000
0000
0000
0000
0000
0000
1000
0000
0000
,
0001
0100
1000
0100
1000
0100
1000
0100
1000
0200
0000
0000
,
0000
0000
0000
0000
0000
0000
0000
0000
0301
0000
1000
0001
0000
0010
0000
1000
,
0000
0010
0000
0001
1000
0000
0100
0000
1000
0000
0010
0100
0000
0001
0000
1000
,
0000
1001
0000
0000
0100
0000
0001
0000
0010
0000
0100
1000
0000
0010
0000
0001
,
0000
0010
0000
0000
1000
0000
1001
0000
1001
0000
0000
0000
0110
0000
0000
0000
,
0100
0000
0000
0000
0010
0000
0000
0000
0100
0000
0000
0000
0010
0000
0000
0000
0100
0000
0000
0000
0010
0000
0000
0000
1000
0000
0000
0000
0000
0000
0001
0000
0000
1000
0000
0000
0000
0000
0000
0100
0000
0000
0000
0000
0000
0010
0000
0000
,
0000
0100
0000
1000
0001
0000
0100
0000
0010
0000
1000
0001
0000
0100
0000
1000
,
0000
0100
0000
0000
0001
0000
0010
0000
1000
0000
0010
0001
0000
1000
0000
0001
,
0000
0000
0000
0010
0000
0000
0000
0000
0000
0000
0000
0000
0100
0000
0000
0000
0000
0000
1000
0000
0000
0000
0000
0000
0001
0000
0000
0000
0000
0000
0000
0000
1000
0000
0000
0000
0001
0000
0000
0000
0000
0000
0000
0000
1000
0000
0000
0000
,
0001
0000
0100
0000
0010
0000
1000
0000
0001
0000
0010
0000
0000
0000
0000
0110
0000
0000
0000
0000
0000
0000
0000
0000
,
0000
0000
0000
0000
;

//---------------dance-single - ----------------
#NOTEDATA:;
#CHARTNAME:;
#STEPSTYPE:dance-single;
#DESCRIPTION:;
#CHARTSTYLE:;
#DIFFICULTY:Challenge;
#METER:15;
#RADARVALUES:0.793783,0.801556,0.469562,0.078260,1.002710,568.000000,520.000000,48.000000,8.000000,0.000000,0.000000,0.000000,0.000000,0.000000,0.793783,0.801556,0.469562,0.078260,1.002710,568.000000,520.000000,48.000000,8.000000,0.000000,0.000000,0.000000,0.000000,0.000000;
#CREDIT:;
#DISPLAYBPM:120.000000:131.000000;
#NOTES:
// measure 0
0000
0000
0000
0000
,  // measure 1
0000
0000
0000
0000
,  // measure 2
0000
0000
0000
0000
,  // measure 3
0000
0000
0000
0000
,  // measure 4
1000
0000
0000
0000
0100
0000
0000
0000
0001
0000
0000
0000
1000
0000
0000
0000
0010
0000
0000
0000
0001
0000
0000
0000
0100
0000
0000
0020
0000
0000
0000
0000
0000
0000
0000
0000
0130
0000
0000
0000
0000
0000
0001
0000
0000
0000
0000
0000
,  // measure 5
1001
0000
0010
0000
0010
1000
0000
1000
0001
0000
0010
0000
0100
0000
1100
0000
,  // measure 6
0102
0000
0000
0000
1003
0000
0000
0001
0100
0000
0010
0000
1000
0000
1010
0000
,  // measure 7
0011
0000
1000
0000
1000
0100
0000
0100
0010
0000
0001
0000
0100
0000
0010
0000
,  // measure 8
1000
0100
0001
1000
0010
0001
0100
0000
0100
0000
0100
0000
,  // measure 9
0110
0000
1000
0010
0100
0001
0010
0100
,  // measure 10
1000
0000
0001
0000
0100
0000
0010
1000
0100
0000
0010
0001
1000
0001
0100
0000
,  // measure 11
0010
0000
1000
0000
0001
0010
0000
0010
0100
0000
1000
0001
1000
0000
0010
0000
,  // measure 12
0100
0000
0001
0010
0000
1000
0000
2000
0000
0000
3010
0100
0010
1000
0001
0000
,  // measure 13
0011
0000
0100
0000
0100
0010
0001
1000
0010
0100
0010
0000
1000
0000
0001
0000
,  // measure 14
0100
0000
1000
0000
0010
0000
0100
0001
0010
0001
1000
0001
0010
0100
1000
0000
,  // measure 15
0001
0000
0010
0000
1000
0100
0010
0100
1000
0001
0100
0010
1000
0000
0001
0000
,  // measure 16
0010
0000
0100
1000
0000
1000
0001
0100
0001
0000
0010
0000
0001
1000
0100
1000
,  // measure 17
0100
0000
0010
0001
0000
0101
0000
0101
0000
0010
0000
1000
0001
0000
0100
0000
,  // measure 18
0010
0000
1000
0100
0000
1100
0000
1100
0000
0010
0001
1000
0001
0000
0100
0000
,  // measure 19
0010
0000
1000
0001
0000
1010
0000
1010
0000
0100
0001
0100
0010
0000
1000
0000
,  // measure 20
0100
0000
0010
0001
0000
0001
1000
0000
0001
0100
0010
1000
0100
0010
0001
0000
,  // measure 21
1001
0000
0010
1000
0100
0010
0001
1000
0001
0100
0010
1000
0001
0000
0100
0000
,  // measure 22
0010
0000
1000
0100
1000
0001
0100
0010
1000
0100
0010
0001
0010
0100
1000
0000
,  // measure 23
0110
0000
0001
0100
0000
0010
0000
1000
0002
0010
0000
0013
0100
0000
1000
0001
,  // measure 24
0100
0000
0000
0110
0000
0000
0000
1010
0000
0000
0101
0000
1100
0000
0000
0000
,  // measure 25
0011
0000
0000
1100
0000
0000
0000
1001
0000
0000
1010
0000
0101
0000
0000
0000
,  // measure 26
1001
0000
0110
0000
1000
0010
0100
0010
1000
0000
0100
0010
0001
0000
1000
0000
,  // measure 27
0001
0000
0100
0000
0010
1000
0001
1000
0100
0000
0010
0001
1000
0000
0010
0000
,  // measure 28
0100
0000
0001
0000
1000
0001
0010
0100
1000
0000
0010
0000
0100
0000
0001
0000
,  // measure 29
1000
0000
0010
0100
0001
0000
0010
0100
1000
0001
0100
0010
0000
1000
0001
0000
,  // measure 30
0010
0001
0010
0100
1000
0000
0010
1000
0100
0010
0001
0000
0100
0001
1000
0000
,  // measure 31
0010
0000
1100
0000
0010
0000
0101
0000
0010
0000
1000
0001
0010
0100
1000
0000
,  // measure 32
0001
0000
0100
0010
0000
1000
0000
0001
1000
0000
0100
0000
0010
0000
0001
0000
,  // measure 33
1000
0100
1000
0001
0000
0010
0001
0100
0000
0010
1000
0001
0000
1000
0100
0000
,  // measure 34
0110
0000
0011
0000
1000
0001
0100
0010
1000
0000
0100
1000
0001
0000
0010
0100
,  // measure 35
1000
0000
0001
0000
0010
0001
0010
0100
1000
0000
0001
1000
0100
0000
0010
0000
,  // measure 36
0001
0000
1000
0000
0001
0100
0010
1000
0100
0000
0010
0000
0001
0000
1000
0000
,  // measure 37
0010
0000
1000
0100
0010
0000
0001
1000
0001
0100
0010
1000
0100
0010
0001
0000
,  // measure 38
1000
0001
0100
0001
1000
0000
0010
0100
0001
0100
0010
0000
1000
0001
1000
0000
,  // measure 39
0100
0000
0011
0000
0100
0000
1010
0000
0100
0000
0001
0010
0001
1000
0100
0000
,  // measure 40
0110
0000
0001
0100
0000
0010
1000
0001
0000
1000
0100
0000
0010
0001
0000
0100
,  // measure 41
0010
0000
1000
0100
0010
0001
0100
0010
0000
1000
0010
1000
0100
0010
0001
0000
,  // measure 42
1001
0010
0100
0001
1000
1100
0001
0011
,  // measure 43
0100
0010
1000
0001
0010
1001
0100
0010
,  // measure 44
1000
0000
0000
0000
0100
0000
0000
0000
0001
0000
0000
0000
1000
0000
0000
0000
0010
0000
0000
0000
0001
0000
0000
0000
0100
0000
0000
0000
0000
0000
1010
0000
0000
0000
0000
0000
0001
0000
0000
0100
0000
0000
0000
0000
0000
0010
0000
0000
,  // measure 45
1000
0000
0000
0000
1000
0000
0000
0000
1000
0000
0000
0000
0001
0000
0000
0000
0001
0000
0000
0000
0001
0000
0000
0000
0010
0000
0000
0000
0010
0000
0000
0000
0010
0000
0000
0000
0100
0000
0000
1000
0000
0000
0010
0000
0000
1000
0000
0000
,  // measure 46
0010
0100
0001
1000
0100
0010
0001
0100
0010
0000
1000
0001
0000
0010
0000
0001
,  // measure 47
0000
0100
0000
0010
1000
0000
1100
0000
0011
0000
1000
0001
0000
0100
0000
0010
,  // measure 48
0000
1010
0000
0000
1100
0000
0101
0000
1100
0000
0010
0001
0000
0100
0000
0002
,  // measure 49
0000
2000
0003
0000
3010
0000
0110
0000
2010
0000
0000
0000
3002
0000
0000
0000
,  // measure 50
0010
0000
0000
0000
0010
0000
0000
0000
0010
0000
0000
0000
0010
0000
0000
0000
0010
0000
0000
0000
0010
0000
0000
0000
0013
0000
0000
0000
0000
0000
0001
0000
0000
0100
0000
0000
0000
0000
0000
0010
0000
0000
0000
0000
0000
1000
0000
0000
,  // measure 51
0000
0100
0000
1000
0001
0000
0100
0000
0010
0000
1000
0001
0000
1000
0000
0100
,  // measure 52
0000
0010
0000
0001
0100
0000
0010
0000
1000
0000
0001
1000
0000
0100
0000
0010
,  // measure 53
0000
0000
0000
0001
0000
0000
0000
0000
0000
0100
0000
0000
0010
0000
0000
0000
0000
0000
1000
0000
0001
0000
1000
0000
0001
0000
0000
0000
0000
0000
0000
0000
0100
0000
0000
0000
0110
0000
0000
0000
0000
0000
0000
0000
0010
0000
0000
0000
,  // measure 54
1000
0000
0100
0000
0001
0000
1000
0000
0010
0000
0001
0000
0000
0000
0000
1001
0000
0000
0000
0000
0000
0000
0000
0000
;

//---------------dance-double - ----------------
#NOTEDATA:;
#CHARTNAME:;
#STEPSTYPE:dance-double;
#DESCRIPTION:;
#CHARTSTYLE:;
#DIFFICULTY:Easy;
#METER:4;
#RADARVALUES:0.191458,0.239917,0.195651,0.136955,0.000000,137.000000,117.000000,20.000000,14.000000,0.000000,0.000000,0.000000,0.000000,0.000000,0.191458,0.239917,0.195651,0.136955,0.000000,137.000000,117.000000,20.000000,14.000000,0.000000,0.000000,0.000000,0.000000,0.000000;
#CREDIT:;
#DISPLAYBPM:120.000000:131.000000;
#NOTES:
00000000
00000000
00000000
00000000
,
00000000
00000000
00000000
00000000
,
10010000
00000000
00000000
00000000
,
01100000
00000000
00000000
00000000
,
00010000
00000000
00001000
00000000
,
00011000
00000000
00000000
00000000
,
00000110
00000000
00000000
00000000
,
00001001
00000000
00000000
00000000
,
00001000
00000010
00000200
00000300
,
00000001
00000100
00000001
00000100
,
00001000
00000000
00010000
00000000
,
00001000
00010000
00001000
00010000
,
01000000
00000000
10000000
00000000
,
00100000
10000000
00100000
10000000
,
01000000
00000000
00100000
00000000
,
00010000
01000000
00010000
01000000
,
00020000
00030000
20000000
30000000
,
01000000
01000000
10000000
00000000
,
00100000
00100000
00010000
00000000
,
00001000
00001000
00000100
00000000
,
00000002
00000003
00002000
00003000
,
00001000
00000000
00000100
00000000
,
00000001
00000000
00000010
00000000
,
00001000
00000000
00010000
00000000
,
00011000
00000000
00000000
00000000
,
01100000
00000000
00000000
00000000
,
10010000
00000000
01000000
00000000
,
10000000
00100000
10000000
00100000
,
00010000
00000000
00001000
00000000
,
00010000
00001000
00010000
00001000
,
00000200
00000300
00000002
00000003
,
00000010
00000000
00001000
00000000
,
00011000
00000000
00000000
00000000
,
02200000
00000000
03300000
00000000
,
10000000
00000000
00100000
00000000
,
01000000
00010000
01000000
00010000
,
00100000
00000000
00001000
00000000
,
00100000
00001000
00100000
00001000
,
00020000
00030000
00002000
00003000
,
00000010
00000000
00000001
00000000
,
00002000
00000000
00003000
00000001
,
00000100
00000000
00000100
00000000
,
00000110
00000000
00000000
00000000
00000000
00011000
00000000
00011000
,
00000000
00000000
00000000
00000000
,
00010000
00100000
01000000
10000000
,
00200000
00000000
00300000
01100000
,
00000000
00000000
10010000
00000000
,
00000000
00000000
01100000
00000000
,
00000000
00000000
00011000
00000000
,
00000000
00000000
00000110
00000020
,
00000000
00000030
00001000
00000000
,
00000100
00000000
00000001
00000000
,
00000100
00001000
00000010
00000000
,
00010000
00000000
00011000
00011000
,
00001000
00010000
00001000
00000000
,
00000000
00000000
00000000
00000000
;

//---------------dance-double - ----------------
#NOTEDATA:;
#CHARTNAME:;
#STEPSTYPE:dance-double;
#DESCRIPTION:;
#CHARTSTYLE:;
#DIFFICULTY:Medium;
#METER:7;
#RADARVALUES:0.276706,0.347341,0.234781,0.244563,0.009783,198.000000,174.000000,24.000000,25.000000,0.000000,0.000000,0.000000,0.000000,0.000000,0.276706,0.347341,0.234781,0.244563,0.009783,198.000000,174.000000,24.000000,25.000000,0.000000,0.000000,0.000000,0.000000,0.000000;
#CREDIT:;
#DISPLAYBPM:120.000000:131.000000;
#NOTES:
00000000
00000000
00000000
00000000
,
00000000
00000000
00000000
00000000
,
00000000
00000000
00000000
00000000
,
00000000
00000000
00000000
00000000
,
00020000
00032000
00003200
00000310
,
00000110
00000000
00000000
00000000
00000000
00000000
00000000
00000001
,
00000001
00000000
00000000
00000000
00000000
00000000
00000000
00000010
,
00000010
00000000
00000000
00000000
,
00000101
00001100
00022000
00033000
,
00011000
00000000
00001000
00010000
00100000
00000000
01000000
00000000
,
00100000
00000000
10000000
00000000
01000000
00100000
00010000
00000000
,
10000000
00010000
01000000
00100000
,
00010000
00001000
00000100
00001000
,
00011000
00000000
00010000
00001000
00000100
00000000
00000010
00000000
,
00000100
00000000
00000001
00000000
00001000
00000100
00000010
00000000
,
00000001
00001000
00000001
00000100
,
00001000
00000000
00010000
00000000
00001000
00010000
00011000
00000000
,
00020000
00000000
00100000
00130000
,
20000000
00000000
01000000
31000000
,
00200000
00000000
10000000
10300000
,
00100000
00000000
00010000
00000000
01000000
00000000
00010000
00100000
,
00002000
00010000
00010000
00013000
,
00000200
00001000
00001000
00001300
,
00000022
00000000
00000000
00000033
,
00001001
00000000
00000000
00000000
00000000
00000000
00000000
00000001
00000000
00000000
00000100
00000000
00001000
00000000
00000000
00000000
,
00011000
00000000
00000000
00000000
00000000
00000000
00000000
00010000
00000000
00000000
01000000
00000000
10000000
00000000
00000000
00000000
,
00010000
11000000
10000000
00100000
,
01000000
01010000
10000000
01000000
,
00010000
00001000
00000100
00000001
,
00000200
00000000
00000010
00000310
,
00001000
00000000
00000001
00000010
00000000
00001000
00000000
00010000
,
00000000
00001000
00000000
00000100
00000000
00001000
00000000
00020000
,
00000000
00000000
00000000
00000000
00030000
00001000
00010000
02000000
,
00000000
00000000
03000000
10000000
,
00010000
10100000
10000000
01000000
,
00100000
00110000
01000000
00001000
,
00010000
00000100
00001000
00000001
,
00000020
00000000
00000100
00000130
,
00001000
00000000
00000001
00000100
00000000
00001000
00000000
00010000
,
00000000
00001000
00000000
00000010
00000000
00001000
00000000
00020000
,
00000000
00000000
00000000
00000000
00030000
00001000
00010000
00200000
,
00000000
00000000
00000000
00000000
00000000
00300000
10000000
00000000
,
10010000
00000000
00000000
00000000
00000000
11000000
00000000
01010000
,
00000000
00000000
00000000
00000000
00000000
00011000
00000000
00000000
,
00020000
00000000
00032000
00000000
00003100
00000010
00000100
00000001
,
00001000
00001000
00001000
00002000
,
00000000
00003000
00000011
00000000
,
00000000
00000000
00000000
00000100
00000100
00000000
00000000
00000000
,
00000000
00000000
00011000
00000000
,
00000000
00000000
00000000
01000000
01000000
00000000
20020000
00000000
,
00000000
30030000
00100000
10000000
,
01000000
00010000
00001000
00000100
,
00000010
00001000
00000100
00001000
,
00000001
00000100
00001100
00011000
,
00002000
00000000
00023000
00000000
00030000
00011000
00000000
00000000
,
00000000
00000000
00000000
00000000
;

//---------------dance-double - ----------------
#NOTEDATA:;
#CHARTNAME:;
#STEPSTYPE:dance-double;
#DESCRIPTION:;
#CHARTSTYLE:;
#DIFFICULTY:Hard;
#METER:12;
#RADARVALUES:0.525462,0.587808,0.264128,0.039130,0.425540,376.000000,349.000000,27.000000,4.000000,0.000000,0.000000,0.000000,0.000000,0.000000,0.525462,0.587808,0.264128,0.039130,0.425540,376.000000,349.000000,27.000000,4.000000,0.000000,0.000000,0.000000,0.000000,0.000000;
#CREDIT:;
#DISPLAYBPM:120.000000:131.000000;
#NOTES:
00000000
00000000
00000000
00000000
,
00000000
00000000
00000000
00000000
,
00000000
00000000
00000000
00000000
,
00000000
00000000
00000000
00000000
,
00100000
00000000
00000000
00000000
00010000
00000000
00000000
00000000
00100000
00000000
00000000
00000000
00010000
00000000
00000000
00000000
10000000
00000000
00000000
00000000
01000000
00000000
00000000
00000000
10000000
00000000
00000000
00100000
00000000
00000000
00000000
00000000
00000000
00000000
00000000
00000000
01000000
00000000
00000000
00000000
00000000
00000000
00010000
00000000
00000000
00000000
00000000
00000000
,
10000000
00000000
00000000
00000000
00000000
00000000
00000000
00010000
,
01001000
00000000
00000000
00000000
00000000
00000000
00000000
00001000
,
00010100
00000000
00000000
00000000
,
00000010
00001000
00000010
00001000
00000001
00000100
00000010
00000000
00000010
00000000
00000010
00000000
,
00001000
00000000
00000000
00000000
00000001
00000000
00000000
00000000
00000100
00000000
00000000
00001000
00010000
00000000
00001000
00000000
,
00100000
00000000
00000000
00000000
00010000
00000000
00000000
10000000
01000000
00000000
00100000
00000000
00010000
00000000
01000000
00000000
,
10000000
00000000
00000000
00000000
01000000
00000000
00000000
00010000
10000000
00000000
01000000
00000000
00010000
00000000
00001000
00000000
,
00010000
00000000
00000000
00000000
00000100
00000000
00000000
00010000
00001000
00000000
00000100
00000000
00000010
00000000
00001000
00000000
,
00001010
00000000
00000000
00000000
00000101
00000000
00000000
00001000
00000100
00000000
00000010
00000000
00000001
00000000
00000100
00000000
,
00001000
00000000
00000000
00000000
00010000
00000000
00000000
00001000
00010000
00000000
01000000
00000000
00100000
00000000
00010000
00000000
,
01000000
00000000
00000000
00000000
00100000
00000000
00000000
01000000
00010000
00000000
10000000
00000000
01000000
00000000
00100000
00000000
,
01000000
00000000
10000000
00100000
00000000
01000000
00000000
00010000
01000000
00000000
00001000
00000000
00010000
00000000
00001000
00000000
,
00011000
00000000
00000000
00010000
00001000
00000000
00000000
00000000
00010000
00000000
00001000
00000000
00010000
00000000
00000010
00000000
,
00001000
00000000
00000000
00000010
00000100
00000000
00000000
00000000
00000010
00000000
00001000
00000000
00000001
00000000
00001000
00000000
,
00000001
00000000
00000000
00000010
00001000
00000000
00000000
00000000
00010000
00000000
00000000
00001000
00010000
00000000
01000000
00000000
,
00100000
00000000
00000000
00010000
00100000
00000000
01000000
00000000
10000000
00000000
00100000
00000000
10000000
00000000
00100000
00000000
,
10100000
00000000
01010000
00000000
10000000
01000000
00010000
00001000
,
00011000
00000000
00010010
00000000
00001000
00000010
00000001
00000100
,
00001000
00000000
00010000
00000000
00001000
00010000
00000000
01000000
10000000
00000000
00000000
00010000
00000000
00000000
00100000
00010000
,
00100000
00000000
00000000
01100000
00000000
00000000
00000000
01000000
00000000
00000000
00010000
00000000
00011000
00000000
00000000
00000000
,
00100000
00000000
00000000
00011000
00000000
00000000
00000000
00000100
00000000
00000000
00000010
00000000
00001010
00000000
00000000
00000000
,
00000001
00000100
00001000
00000000
00010000
00001000
00000010
00000001
,
00000000
00000010
00001000
00000000
00010000
01000000
20000000
30000000
,
00100000
10000000
10100000
00000000
00110000
00000000
11000000
10000000
,
01000000
00010000
00001000
00000000
00010000
00000010
00001000
00000100
,
00001100
00000000
00000001
00000011
00000000
00001001
00000000
00000001
,
00000100
00001000
00010000
01000000
00100000
00001000
00010000
00100000
,
01000000
00010000
10000000
00000000
01000000
00010000
00001000
00000000
,
00010000
00000000
00000010
00001000
00000000
00000100
00000000
00001000
00000010
00000000
00000100
00000000
00000001
00000000
00000010
00000000
,
00000001
00000100
00001000
00000000
00010000
01000000
10000000
00010000
,
10000000
00000000
01100000
00000000
00100000
10000000
00010000
01000000
,
00100000
10000000
01000000
00000000
00010000
00001000
00000100
00000001
,
00001000
00000000
00001010
00000000
00010000
00001000
00010000
00001000
,
00100000
00000000
00010000
00100000
01000000
10000000
01000000
00010000
,
00001000
00000100
00000010
00001000
00000001
00000100
00001000
00010000
,
00100000
00000000
00010000
00000000
00001000
00010000
01000000
00000000
,
00100000
00000000
00010000
00000000
10000000
00000000
00010000
00000000
01000000
00100000
10000000
00000000
01000000
00100000
00010000
00000000
,
01000000
00000000
00001000
00000100
00000000
00000110
00000000
00001010
,
00000000
00000101
00000000
00001000
00000000
00010000
00000000
01000000
,
10000000
00000000
00000000
00000000
01000000
00000000
00000000
00000000
10000000
00000000
00000000
00000000
01000000
00000000
00000000
00000000
00010000
00000000
00000000
00000000
00001000
00000000
00000000
00000000
00010000
00000000
00000000
00000000
00000000
00000000
00010000
00000000
00000000
00000000
00000000
00000000
00001000
00000000
00000000
00000100
00000000
00000000
00000000
00000000
00000000
00000010
00000000
00000000
,
00001000
00000001
00001000
00000001
00001000
00000001
00001000
00000001
00001000
00000200
00000000
00000000
,
00000000
00000000
00000000
00000000
00000000
00000000
00000300
00000000
00010000
00000000
00001000
00100000
00000000
00010000
00000000
01000000
,
00000000
00001000
00000000
00010000
00001000
00000000
00000100
00000000
00000010
00000000
00001000
00000100
00000000
00010000
00000000
00001000
,
00000000
00200000
00000000
00000000
01000000
00000000
01300000
00000000
01100000
00000000
00010000
10000000
00000000
00100000
00000000
00010000
,
00000000
00001000
00000000
00000000
00010000
00000000
01000000
00000000
00100000
00000000
00000000
00000000
02100000
00000000
03000000
00000000
,
10000000
00000000
00000000
00000000
01000000
00000000
00000000
00000000
10000000
00000000
00000000
00000000
01000000
00000000
00000000
00000000
00100000
00000000
00000000
00000000
01000000
00000000
00000000
00000000
00100000
00000000
00000000
00000000
00000000
00000000
01000000
00000000
00000000
10000000
00000000
00000000
00000000
00000000
00000000
00010000
00000000
00000000
00000000
00000000
00000000
01000000
00000000
00000000
,
00000000
00001000
00000000
00010000
00001000
00000000
00000010
00000000
00000100
00000000
00001000
00000100
00000000
00000010
00000000
00000001
,
00000000
00000100
00000000
00000000
00001000
00000000
00000100
00000000
00000001
00000000
00001000
00000100
00000000
00010000
00000000
00001000
,
00000000
00000000
00000000
00100000
00000000
00000000
00000000
00000000
00000000
00000000
00000000
00000000
00010000
00000000
00000000
00000000
00000000
00000000
00010000
00000000
00000000
00000000
00000000
00000000
10000000
00000000
00000000
00000000
00000000
00000000
00000000
00000000
01000000
00000000
00000000
00000000
00010000
00000000
00000000
00000000
00000000
00000000
00000000
00000000
00010000
00000000
00000000
00000000
,
00001000
00000000
00000100
00000000
00000010
00000000
00001000
00000000
00000001
00000000
00000100
00000000
00000000
00000000
00000000
00011000
00000000
00000000
00000000
00000000
00000000
00000000
00000000
00000000
,
00000000
00000000
00000000
00000000
;
