#VERSION:0.83;
#TITLE:ALTONA;
#SUBTITLE:;
#ARTIST:SOUND HOLIC Vs. SWING HOLIC;
#TITLETRANSLIT:;
#SUBTITLETRANSLIT:;
#ARTISTTRANSLIT:;
#GENRE:;
#ORIGIN:;
#CREDIT:;
#BANNER:ALTONA-bn.png;
#BACKGROUND:ALTONA-bg.png;
#PREVIEWVID:;
#JACKET:ALTONA-jacket.png;
#CDIMAGE:;
#DISCIMAGE:;
#LYRICSPATH:;
#CDTITLE:;
#MUSIC:ALTONA.ogg;
#OFFSET:0.500000;
#SAMPLESTART:51.904999;
#SAMPLELENGTH:20.000000;
#SELECTABLE:YES;
#DISPLAYBPM:158.000000;
#BPMS:0.000=158.000;
#STOPS:;
#DELAYS:;
#WARPS:;
#TIMESIGNATURES:0.000=4=4;
#TICKCOUNTS:0.000=4;
#COMBOS:0.000=1;
#SPEEDS:0.000=1.000=0.000=0;
#SCROLLS:0.000=1.000;
#FAKES:;
#LABELS:0.000=Song Start;
#BGCHANGES:;
#KEYSOUNDS:;
#ATTACKS:
;

//---------------dance-single - ----------------
#NOTEDATA:;
#CHARTNAME:;
#STEPSTYPE:dance-single;
#DESCRIPTION:;
#CHARTSTYLE:;
#DIFFICULTY:Hard;
#METER:16;
#RADARVALUES:0.831702,0.918128,0.596473,0.176422,1.138340,693.000000,622.000000,71.000000,21.000000,0.000000,0.000000,0.000000,0.000000,0.000000,0.831702,0.918128,0.596473,0.176422,1.138340,693.000000,622.000000,71.000000,21.000000,0.000000,0.000000,0.000000,0.000000,0.000000;
#CREDIT:;
#DISPLAYBPM:158.000000;
#NOTES:
0000
0000
0000
0000
,
0000
0000
0000
0000
,
0000
0000
0000
0000
,
1001
0000
0110
0000
0000
0000
0000
0000
0000
0000
0000
0000
0000
0000
1000
0010
,
0100
0000
0000
0001
0000
0000
0010
0000
0000
0100
0000
0000
1000
0000
0001
0000
,
1010
0101
0000
0000
0000
0000
0000
0000
,
0000
0110
0000
0000
0000
0000
0000
0000
0000
0000
0000
0000
0000
1001
0000
0000
,
0011
1100
0000
0001
0000
0000
0000
0000
,
0100
0000
0010
0100
0000
0000
0001
1000
0000
0001
0010
0100
1000
0000
0001
0100
,
0001
0000
0010
0001
0100
0010
1000
0000
0100
0000
0000
0000
1000
0001
1000
0010
,
1000
0000
0100
0000
0010
0001
0000
0010
0100
0000
1000
0001
0000
1000
0010
0000
,
0100
0000
0001
0000
0010
0100
0000
0010
0001
0000
1000
0100
0000
1000
0001
0000
,
1010
0000
0000
0101
0000
0000
0011
0000
0000
1000
0100
0010
0100
0010
0001
0000
,
0100
0000
0010
0000
1000
0001
1000
0010
1000
0100
0010
0001
0100
0000
0010
0000
,
1000
0000
0001
0000
1000
0100
0000
0100
0010
0000
0001
0100
0000
0001
1000
0000
,
0010
0000
1000
0000
0100
0010
0000
0001
0100
0000
0001
1000
0000
1000
0010
0000
,
0110
0000
0000
0101
0000
0000
0011
0000
0000
1100
0000
0000
0001
0010
0100
1000
,
0001
0000
0100
0000
0010
1000
0010
0000
0000
0100
0001
0000
1000
0001
0010
0200
,
0000
0000
1000
0000
0000
0001
0000
0000
1000
0000
0000
0310
0000
0000
0100
1000
,
0001
0000
0100
0000
0010
0000
1000
0000
0000
0001
0010
0000
1000
0000
0100
0020
,
0000
0000
0001
0000
0000
1000
0000
0000
0000
0031
0100
0000
0010
1000
0001
0010
,
0100
0000
0000
1000
0000
0000
0001
0000
0000
0100
0001
0000
1000
0000
0010
0200
,
0000
0000
0001
0000
0000
0010
0000
0000
1000
0000
0000
0310
0000
0000
0001
1000
,
0002
0000
0000
0000
0103
0010
0000
0010
0000
0010
1000
0000
0001
1000
0100
0000
,
1000
0001
0100
0010
0000
0010
0100
0000
0001
0000
0010
0001
0000
1000
0010
0100
,
0001
0000
0000
0101
0000
0000
0101
0000
0000
0010
0001
0010
0100
0000
1000
0000
,
1100
0000
0000
1100
0000
0000
1100
0000
0000
1000
0010
1000
0001
0010
0001
0000
,
1001
0000
0000
1001
0000
0000
1001
0000
0000
0100
0010
0100
0001
0000
1000
0000
,
1100
0000
0000
0000
0000
0000
0000
0000
0000
0110
0000
0000
0000
0000
0000
0000
0000
0000
0011
0000
0000
0000
0000
0000
1000
0000
0000
0000
0100
0000
0000
0000
0010
0000
0000
0000
0001
0000
0000
0000
0100
0000
0000
0000
0010
0000
0000
0000
,
1000
0000
0001
1000
0000
0001
1000
0000
0000
0010
0100
0010
1000
0000
0001
0000
,
0010
0000
0001
0010
0000
0001
0010
0000
0000
0001
1000
0010
1000
0100
0010
0000
,
0001
0000
1000
0001
0000
1000
0001
0000
0000
0100
0010
1000
0001
0000
0100
0000
,
0110
0000
0000
0000
0000
0000
0000
0000
0000
1001
0000
0000
0000
0000
0000
0000
0000
0000
0110
0000
0000
0000
0000
0000
1000
0000
0000
0000
0010
0000
0000
0000
0100
0000
0000
0000
0001
0000
0000
0000
0010
0000
0000
0000
0100
0000
0000
0000
,
1000
0001
0100
0010
1000
0001
0100
0010
0100
0001
0010
0100
,
1000
0000
0000
0000
0001
0000
0100
0000
0101
0000
0000
0000
1000
0010
0000
0010
,
0100
0000
0100
0001
0000
0001
1000
0000
0010
0000
1000
0000
0100
0010
0100
0010
,
0000
0000
0001
1000
0000
0001
0000
0000
1010
0000
0000
0000
0100
0001
0010
0001
,
0000
0000
1000
0100
0000
0010
0000
0000
0001
0000
0010
0100
0000
0100
1000
0000
,
0000
0001
1000
0000
0010
1000
0000
0000
0110
0000
0000
0000
1000
0001
1000
0100
,
0000
0000
0010
0001
0000
0100
0000
0000
0010
0000
1000
0000
0100
0010
0001
0100
,
0000
0000
0010
1000
0000
1000
0100
0000
1000
0000
0001
0000
0010
0001
0010
0100
,
0000
0000
1000
0000
0001
0100
0000
0000
0101
0000
0000
1100
0000
0000
0101
0000
,
0000
1000
0010
1000
0100
0010
0001
0000
0100
0000
0010
0000
0100
0001
1000
0100
,
0000
0010
0001
0100
0000
0010
0000
0000
1000
0000
0001
0000
1000
0010
0100
0001
,
0000
0010
0001
0100
0000
0010
0000
0000
1001
0000
0100
0000
0001
0010
0100
1000
,
0000
0010
1000
0000
0100
0010
0000
0010
0001
0000
0000
0100
0000
0000
1000
0000
,
0000
0010
0100
0001
1000
0100
0000
0000
0011
0000
0000
0000
1000
0001
0010
0001
,
0000
0000
0100
0010
0000
0010
1000
0000
0100
0000
0000
0000
1000
0001
1000
0010
,
0000
0000
0100
0001
0000
0010
0000
0000
1100
0000
0000
0000
1000
0001
1000
0100
,
0000
0000
0010
0001
0000
1000
0000
0000
0101
0000
0000
0011
0000
0000
0110
0000
,
0000
1000
0100
0010
0001
0100
0010
2000
0000
0000
0000
0000
0000
0000
0000
0000
,
3000
0000
1100
0000
0000
0110
0000
0000
0011
0000
0000
0000
0000
0000
0000
0000
,
0000
0000
0101
0000
0000
1010
0000
0000
1001
0000
0000
1010
0000
0000
0101
0000
,
0000
0011
0000
0000
0100
0000
0100
0000
0100
0000
0000
1001
0000
0000
0110
0000
,
1000
0000
0000
0000
0100
0000
0000
0000
0010
0000
0000
0000
0002
0000
0000
0000
0000
0000
0000
0000
0000
0000
0000
0000
1003
0000
0000
0000
0000
0000
0010
0000
0000
0000
0000
0000
0100
0000
0000
0001
0000
0000
0000
0000
0000
0010
0000
0000
,
0100
0000
1000
0001
0000
0000
1000
0100
0010
0001
0010
0001
0010
0100
0010
0100
,
1000
0010
1000
0010
1000
0001
0100
0010
1000
0000
0001
0000
1000
0100
0000
0100
,
0010
0001
0000
0100
0000
0010
1000
0001
0100
0000
0000
0110
0000
0000
0101
0000
,
0000
1100
0000
0000
0101
0000
0000
0000
1001
0000
0000
0000
1000
0100
0010
0001
,
0000
0000
0100
0010
0000
0010
0000
0000
1000
0000
0000
0000
0001
0010
0001
0100
,
0000
0000
0010
1000
0000
1000
0000
0000
0010
0000
0000
0000
1000
0001
0010
0100
,
0000
0000
2000
0000
0000
3002
0000
0000
2003
0000
0000
3020
0000
0000
0230
0000
,
0000
0000
0300
0000
0000
0000
0001
1000
0001
0000
0000
0000
0010
0001
0010
0100
,
0000
0000
1000
0001
0000
1000
0000
0000
0100
0000
0000
0000
0010
0001
0010
0100
,
0000
0000
1000
0010
0000
0100
0000
0000
0101
0000
0000
0000
0010
0001
1000
0100
,
0000
0000
2000
0000
0000
3001
0000
0000
1010
0000
0000
0101
0000
0000
0011
0000
,
0000
0000
2100
0000
0000
0000
3001
1000
0200
0000
0000
0000
0310
0000
0001
0000
,
0100
0000
0010
1000
0001
1000
0100
0010
0002
0000
0000
0103
0000
0000
1000
0000
,
0010
1000
0100
0010
0001
0100
0001
1000
0100
0000
0000
0000
0010
0001
0010
0100
,
1000
0000
0001
0100
0000
0001
0100
0000
0020
0000
0000
2030
0000
0000
3002
0000
,
0000
1003
0100
0000
0010
0001
0100
0001
1000
0000
0000
0000
0010
0000
0100
0000
,
0001
0000
0010
0001
0000
0100
0010
0000
1000
0000
0000
0000
0100
1000
0001
1000
,
0100
0000
0010
0001
0000
0001
0100
0000
1001
0000
0000
0000
1000
0010
1000
0100
,
0010
0000
0002
0000
0000
1003
0000
0000
1010
0000
0000
0101
0000
0000
1100
0000
,
0000
0001
0010
0100
1000
0010
0100
0002
1000
0000
1000
0000
0000
0000
0000
0000
,
0013
0001
0100
0000
0000
0000
0000
0000
0000
0110
0000
0000
0000
0000
0000
0000
,
0000
0000
0000
0000
0000
1000
0010
0100
0002
0000
1000
0000
0000
0000
0000
0000
,
0000
0000
0000
0000
0000
0013
0001
0100
0000
0110
0000
0000
1010
0000
0000
0101
,
0000
1100
0000
0000
0000
0000
0000
0000
0000
0000
0000
0000
0000
0000
0000
0000
;

//---------------dance-single - ----------------
#NOTEDATA:;
#CHARTNAME:;
#STEPSTYPE:dance-single;
#DESCRIPTION:;
#CHARTSTYLE:;
#DIFFICULTY:Medium;
#METER:12;
#RADARVALUES:0.505262,0.623015,0.470458,0.176422,0.319239,421.000000,365.000000,56.000000,21.000000,0.000000,0.000000,0.000000,0.000000,0.000000,0.505262,0.623015,0.470458,0.176422,0.319239,421.000000,365.000000,56.000000,21.000000,0.000000,0.000000,0.000000,0.000000,0.000000;
#CREDIT:;
#DISPLAYBPM:158.000000;
#NOTES:
0000
0000
0000
0000
,
0000
0000
0000
0000
,
0000
0000
0000
0000
,
1001
1001
0000
0000
0000
0000
0000
0000
,
0100
0000
0000
0001
0000
0000
0100
0000
0000
0010
0000
0000
1000
0000
0001
0000
,
1000
1000
0000
0000
0000
0000
0000
0000
,
0000
0100
0000
0000
0000
0000
0000
0000
0000
0000
0000
0000
0000
1000
0000
0000
,
0001
0001
0000
0100
0000
0000
0000
0000
,
0000
1010
0000
0011
0000
1000
0001
0100
,
0001
0010
0100
1000
0001
0000
0100
0010
,
1000
0000
0100
0000
0000
0100
0000
0000
0010
0000
0000
0010
0000
0000
0001
0000
,
1000
0001
1000
0010
1000
0100
0001
0000
,
0010
0000
0000
0010
0000
0000
0010
0000
0000
0000
0001
0000
1000
0000
0001
0000
,
0100
0010
1000
0001
1000
0100
0010
0000
,
0001
0100
0001
0000
1000
0100
1000
0000
,
0010
0000
0100
0000
0000
0001
0000
0000
1000
0000
0000
0100
0000
0000
1000
0000
,
0001
0000
0000
0001
0000
0000
1000
0000
0000
1000
0000
0000
0002
0000
0000
0000
,
0013
0000
0000
0001
0000
0000
0100
0000
0000
0000
0010
0000
1000
0000
0100
2000
,
0000
0000
0000
0000
3000
0000
0000
0001
,
1000
0000
0000
0100
0000
0000
0010
0000
0000
0000
0001
0000
1000
0000
0001
0200
,
0000
0000
0000
0000
0000
0000
0000
0300
0000
0000
0010
0000
1000
0000
0001
0000
,
1000
0000
0000
0100
0000
0000
0010
0000
0000
0000
0001
0000
0000
0000
1000
0002
,
0000
0000
0000
0000
0000
0000
0000
0000
0003
0000
0000
0000
0000
0000
0100
0010
,
0200
0000
0000
0000
0000
0000
0000
0000
0000
0000
0000
0300
0000
0001
0100
0000
,
0000
0000
0010
0000
1000
0000
0001
0000
1000
0000
0000
0001
0000
0000
0010
0000
,
0110
0000
0000
0110
0000
0000
0110
0000
0000
0000
0000
0000
0000
0000
0000
0000
,
1001
0000
0000
1001
0000
0000
1001
0000
0000
0000
1000
0000
0001
0000
0000
0000
,
0011
0000
0000
0011
0000
0000
0011
0000
0000
0000
0000
0000
0000
0000
0000
0000
,
1100
0000
0000
1100
0000
0000
1100
0000
1000
0000
0100
0000
0001
0000
0000
0000
,
1001
0000
0000
1001
0000
0000
1001
0000
0000
0000
0001
0000
0010
0000
0000
0000
,
0110
0000
0000
0110
0000
0000
0110
0000
0000
0000
1000
0000
0001
0000
0100
0000
,
0101
0000
0000
0101
0000
0000
0101
0000
0000
0000
0000
0000
0000
0000
0000
0000
,
1010
0000
0000
1010
0000
0000
1010
0000
2000
0000
0000
0000
3002
0000
0000
0000
,
0023
0000
0230
0000
1300
0100
0001
0100
,
1000
0000
0010
0100
0110
0000
1000
0010
,
1000
0000
0100
0000
0000
0001
0000
0000
0010
0000
0000
0000
0001
0000
1000
0000
,
0001
0000
0010
0000
0000
1000
0000
0000
1100
0000
0000
0000
1000
0000
0001
0000
,
1000
0000
0010
0000
0000
0001
0000
0000
0100
0000
0000
0100
0000
0000
0100
0000
,
0000
0000
0010
0000
0000
0100
0000
0000
0010
0000
0000
0000
1000
0000
0100
0000
,
0010
0000
0001
0000
0000
0100
0000
0000
0010
0000
0000
0000
1000
0000
0100
0000
,
1000
0000
0000
0001
0000
0000
0100
0000
0010
0000
0000
0000
1000
0000
0100
0000
,
1000
0000
0001
0000
0000
0010
0000
0000
1001
0000
0000
1001
0000
0000
1001
0000
,
0000
0010
1000
0001
0011
0000
0100
0010
,
0001
0000
0100
0000
0000
0010
0000
0000
1000
0000
0000
0000
0100
0000
1000
0000
,
0001
0000
0100
0000
0000
0010
0000
0000
1010
0000
0000
0000
0001
0000
1000
0000
,
0001
0000
0100
0000
0000
0010
0000
0000
1000
0000
0000
1000
0000
0000
1000
0000
,
0000
0000
0001
0000
0000
1000
0000
0000
0010
0000
0000
0000
1000
0000
0100
0000
,
0010
0000
0001
0000
0000
0100
0000
0000
0001
0000
0000
0000
0010
0000
0001
0000
,
1000
0000
0010
0000
0000
0100
0000
0000
0001
0000
0000
0000
1000
0000
0001
0000
,
1000
0000
0100
0000
0000
0010
0000
0000
0011
0000
0000
0110
0000
0000
1100
0000
,
0000
0000
0002
0000
0000
0000
0000
2003
0000
0000
0000
0000
0000
0000
0000
0000
,
3000
0000
1100
0000
0000
0101
0000
0000
1100
0000
0000
0000
0000
0000
0000
0000
,
0000
0000
1001
0000
0000
0110
0000
0000
1000
0000
0000
0010
0000
0000
1000
0000
,
0000
0001
0000
0000
0010
0000
0100
0000
0010
0000
0000
0001
0000
0000
1000
0000
,
0000
1020
0230
0001
,
1000
0000
0301
0100
0010
1000
0100
1000
,
0001
0010
0001
0100
0020
0000
1000
0000
,
0100
0000
0000
0000
1030
0000
0001
0000
0100
0000
0000
0100
0000
0000
0100
0000
,
0000
0100
0000
0000
0010
0000
0000
0000
1001
0000
0000
0000
0000
0000
0000
0000
,
0000
0000
1000
0000
0000
0001
0000
0000
1000
0000
0000
0000
0000
0000
0000
0000
,
0000
0000
0100
0000
0000
0010
0000
0000
0001
0000
0000
0000
0000
0000
0000
0000
,
0000
0000
0100
0000
0000
0010
0000
0000
0100
0000
0000
0100
0000
0000
0100
0000
,
0000
0000
0000
0001
1001
0000
0010
0000
,
1000
0000
0100
0000
0000
0010
0000
0000
0001
0000
0000
0000
1000
0000
0000
0000
,
0001
0000
0100
0000
0000
0010
0000
0000
1000
0000
0000
0000
0100
0000
0000
0000
,
0010
0000
0001
0000
0000
1000
0000
0000
1100
0000
0000
0101
0000
0000
1100
0000
,
0000
0002
0000
0000
0203
0000
0000
0000
,
0300
0000
0001
0000
1000
0000
0001
0000
0100
0000
0000
0010
0000
0000
1000
0000
,
0000
0001
1000
0100
0010
0000
0001
0100
,
0001
0000
1000
0000
0000
1000
0000
0000
0010
0000
0000
1000
0000
0000
0002
0000
,
0000
0000
0000
0000
0003
0000
0100
0010
0200
0000
0000
0000
0001
0000
0000
0000
,
0310
0000
1000
0000
0000
0100
0000
0000
0010
0000
0001
0000
0000
0000
1000
0000
,
0000
0000
0001
0000
0000
0100
0000
0000
0110
0000
0000
0000
1000
0000
0001
0000
,
1000
0000
0100
0000
0000
0010
0000
0000
0011
0000
0000
0101
0000
0000
1001
0000
,
0000
0000
0020
0000
0000
0000
0000
0230
0000
0000
0000
0000
0000
0000
0000
0000
,
0000
0000
0310
0000
0000
0000
0000
0000
0000
0110
0000
0000
0000
0000
0000
0000
,
0000
0000
0000
0000
0000
0000
1000
0001
2000
0000
0000
0000
0000
0000
0000
0000
,
0000
0000
0000
0000
3010
0000
0000
0000
0000
0110
0000
0000
1001
0000
0000
1000
,
0000
0001
0000
0000
0000
0000
0000
0000
0000
0000
0000
0000
0000
0000
0000
0000
;

//---------------dance-single - ----------------
#NOTEDATA:;
#CHARTNAME:;
#STEPSTYPE:dance-single;
#DESCRIPTION:;
#CHARTSTYLE:;
#DIFFICULTY:Easy;
#METER:8;
#RADARVALUES:0.370846,0.459431,0.336041,0.134417,0.000000,309.000000,269.000000,40.000000,16.000000,0.000000,0.000000,0.000000,0.000000,0.000000,0.370846,0.459431,0.336041,0.134417,0.000000,309.000000,269.000000,40.000000,16.000000,0.000000,0.000000,0.000000,0.000000,0.000000;
#CREDIT:;
#DISPLAYBPM:158.000000;
#NOTES:
0000
0000
0000
0000
,
0000
0000
0000
0000
,
0000
0000
0000
0000
,
1001
0000
0000
0000
,
1000
0010
0100
0001
,
0110
0000
0000
0000
,
1000
0000
0000
0000
,
0001
0000
0000
0100
0000
0000
0000
0000
,
0000
0010
0000
1000
0000
0001
0100
0000
,
0001
0010
0001
0100
,
0010
1000
0100
0010
,
0001
1000
0010
0100
,
0101
0000
1100
0000
0000
0001
1000
0000
,
0010
1000
0100
1000
,
0001
1000
0100
0010
,
0001
0100
0010
1000
,
0100
0000
0000
0110
0000
1001
0000
0000
,
0001
0000
1000
0000
0000
0010
1000
0000
,
0200
0000
0000
0300
,
0010
0000
0001
0000
0000
0100
0001
0000
,
2000
0000
0000
0000
0000
0010
3000
1000
,
0100
0000
0010
0000
0000
0001
0000
1000
,
0020
0000
0000
0000
0000
0000
0030
0100
,
0002
0000
0000
0003
,
1000
0010
0001
0000
0100
0000
0100
0000
,
0110
0000
0000
1001
0000
0000
0000
0000
,
1100
0000
0000
0011
0000
1000
0001
0000
,
0101
0000
0000
1010
0000
0000
0000
0000
,
0110
1001
0100
0010
,
1010
0000
0000
0011
0000
0000
0000
0000
,
1100
0000
0000
0101
0000
1000
0001
0000
,
0110
0000
0000
1001
0000
0000
0000
0000
,
1100
0011
0100
0010
,
1000
0001
1000
0100
,
0010
0000
1001
0100
,
1000
0001
1000
0000
0100
0000
0010
0000
,
0001
0100
0001
0000
0010
0000
0001
0000
,
1000
0010
1000
0000
1100
0000
0101
0000
,
1000
0100
0001
0000
1001
0000
0100
0000
,
0010
1000
0010
0000
0100
0000
0001
0000
,
0010
0100
0010
0000
0001
0000
1000
0000
,
0010
1000
0100
0000
1001
0000
0110
0000
,
0000
1000
0100
0000
0010
0000
0001
0000
,
0100
0001
1000
0000
0001
0000
0010
0000
,
0100
0010
0001
0000
1000
0000
0010
0000
,
1000
0100
0001
0000
0011
0000
1100
0000
,
1000
0010
1000
0000
0010
0000
0100
0000
,
0001
0010
0001
0000
1000
0000
0100
0000
,
1000
0001
0100
0000
0010
0000
1000
0000
,
0100
0010
0001
0000
0001
0000
1000
0010
,
0000
0100
0000
0002
0000
0000
0000
0000
,
0000
1000
0000
0000
0103
0000
0000
0000
,
0000
0001
0000
0000
0011
0000
1100
0000
,
0001
0100
0010
1000
0100
0000
0010
0000
,
0001
1000
0001
0000
2000
0000
0000
0000
,
0000
0000
3000
0000
0010
1000
0100
0000
,
1000
0001
0200
0000
,
0000
0300
0110
0101
,
1010
0101
1001
0000
,
0000
2000
0000
0000
3010
0000
0000
0000
,
0000
0200
0000
0000
0301
0000
0000
0000
,
0000
0020
0000
0000
0032
0000
0000
2003
,
0000
0000
3000
0010
0100
0000
0001
0000
,
0100
0000
0001
0100
0010
0000
1000
0000
,
0010
0000
1000
0100
0010
0000
0000
0000
,
0000
0001
0000
0000
1000
0000
0001
1000
,
0000
0200
0000
0000
0320
0000
0000
0000
,
0030
0001
0100
0001
1000
0000
0010
0000
,
0000
1000
0100
0000
0110
0000
0001
0000
,
0000
1000
0000
0010
0100
0000
0000
0001
,
0000
0000
0000
1000
0001
0000
0010
0000
,
0001
0000
0100
0010
1000
0000
0100
0000
,
0010
0000
0001
1000
0001
0000
0100
0000
,
0010
1000
0100
0000
0110
0000
1001
0000
,
0000
0100
0000
0010
2000
0000
0000
0000
,
3001
0000
0000
0000
0000
0100
0000
0000
,
0000
0000
0000
0010
0200
0000
0000
0000
,
0000
0000
0301
0000
0000
0010
0000
1000
,
0000
0001
0000
0000
0000
0000
0000
0000
;

//---------------dance-single - ----------------
#NOTEDATA:;
#CHARTNAME:;
#STEPSTYPE:dance-single;
#DESCRIPTION:;
#CHARTSTYLE:;
#DIFFICULTY:Beginner;
#METER:4;
#RADARVALUES:0.166820,0.229348,0.100812,0.084010,0.000000,139.000000,127.000000,12.000000,10.000000,0.000000,0.000000,0.000000,0.000000,0.000000,0.166820,0.229348,0.100812,0.084010,0.000000,139.000000,127.000000,12.000000,10.000000,0.000000,0.000000,0.000000,0.000000,0.000000;
#CREDIT:;
#DISPLAYBPM:158.000000;
#NOTES:
// measure 0
0000
0000
0000
0000
,  // measure 1
0000
0000
0000
0000
,  // measure 2
0000
0000
0000
0000
,  // measure 3
1001
0000
0000
0000
,  // measure 4
1000
0000
0001
0000
,  // measure 5
1001
0000
0000
0000
,  // measure 6
0100
0000
0000
0000
,  // measure 7
0110
0000
0000
0000
,  // measure 8
1000
0000
0001
0000
,  // measure 9
0010
0000
0001
0000
,  // measure 10
0100
0000
0010
0000
,  // measure 11
1000
0000
0100
0000
,  // measure 12
1000
1000
1000
0000
,  // measure 13
0001
0000
1000
0000
,  // measure 14
0001
0000
0100
0000
,  // measure 15
0010
0000
1000
0000
,  // measure 16
0100
0100
0100
0000
,  // measure 17
0010
0000
0010
0000
,  // measure 18
0002
0000
0003
0000
,  // measure 19
1000
0000
1000
0000
,  // measure 20
0020
0000
0030
0000
,  // measure 21
0100
0000
0010
0000
,  // measure 22
2000
0000
3000
0000
,  // measure 23
0200
0000
0000
0300
,  // measure 24
0000
0000
0000
0000
,  // measure 25
0110
0000
0000
0000
,  // measure 26
1001
0000
0000
0000
,  // measure 27
0110
0000
0000
0000
,  // measure 28
1000
0000
0001
0000
,  // measure 29
1001
0000
0000
0000
,  // measure 30
0110
0000
0000
0000
,  // measure 31
1001
0000
0000
0000
,  // measure 32
0110
0000
1000
0000
,  // measure 33
0001
0000
0100
0100
,  // measure 34
0100
0000
0010
0000
,  // measure 35
0000
1000
1000
0000
,  // measure 36
0000
0001
0001
0000
,  // measure 37
0000
0010
0010
0000
,  // measure 38
0100
0000
1000
0000
,  // measure 39
0000
0100
0100
0000
,  // measure 40
0000
0010
0010
0000
,  // measure 41
0000
0001
0001
0000
,  // measure 42
0100
0000
0001
0000
,  // measure 43
0000
1000
1000
0000
,  // measure 44
0000
0001
0001
0000
,  // measure 45
0000
0010
0010
0000
,  // measure 46
0100
0000
1000
0000
,  // measure 47
0000
0010
0010
0000
,  // measure 48
0000
0100
0100
0000
,  // measure 49
0000
0010
0010
0000
,  // measure 50
1000
0000
0001
0000
,  // measure 51
0000
0100
0100
0000
,  // measure 52
0000
0001
0001
0000
,  // measure 53
1000
0000
0001
0001
,  // measure 54
0001
0000
0200
0000
,  // measure 55
0300
0000
0010
0010
,  // measure 56
0010
0000
2000
0000
,  // measure 57
3000
0000
0002
0000
,  // measure 58
0003
0000
1001
0000
,  // measure 59
0000
0000
0100
0000
,  // measure 60
0000
0000
0010
0000
,  // measure 61
0000
0000
1000
0000
,  // measure 62
0100
0000
0110
0000
,  // measure 63
0000
0000
0001
0000
,  // measure 64
0000
0000
0100
0000
,  // measure 65
0000
0000
0010
0010
,  // measure 66
0010
0000
2000
0000
,  // measure 67
3000
0000
0001
0000
,  // measure 68
0000
0100
0100
0000
,  // measure 69
0000
0010
0010
0000
,  // measure 70
0100
0000
0001
0000
,  // measure 71
0000
0010
0010
0000
,  // measure 72
0000
0001
0001
0000
,  // measure 73
0000
1000
1000
0000
,  // measure 74
0010
0000
0200
0000
,  // measure 75
0300
0000
0000
0000
,  // measure 76
0000
0000
0002
0000
,  // measure 77
0000
0003
0000
1000
,  // measure 78
1000
0000
0000
0000
;
