#TITLE:AGAINST ALL ODDS (Definitive MIX);
#ARTIST:DEJA VU featuring TASMIN;
#BANNER:AGAINST ALL ODDS (Definitive MIX)-bn.png;
#BACKGROUND:AGAINST ALL ODDS (Definitive MIX)-bg.png;
#JACKET:AGAINST ALL ODDS (Definitive MIX)-jacket.png;
#DISCIMAGE:;
#MUSIC:AGAINST ALL ODDS (Definitive MIX).ogg;
#SAMPLESTART:27.629;
#SAMPLELENGTH:20;
#DISPLAYBPM:139;
#BPMS:0=138.674,4=139.015;
#BGCHANGES:0=AGAINST ALL ODDS (Definitive MIX).mp4=1=0=0=0,
;

//---------------dance-single - ----------------
#NOTES:
     dance-single:
     :
     Beginner:
     2:
     :
0000
0000
0000
0000
,
0000
0000
0000
0000
,
0000
0000
0000
0000
,
0000
0000
0000
0000
,
0000
0000
0000
0000
,
0010
0000
0000
0000
,
1000
0000
0000
0000
,
0010
0010
0010
0000
,
1000
0000
0000
0000
,
0010
0000
0000
0000
,
0001
0000
0000
0000
,
0010
0010
0010
0000
,
0001
0000
0000
0000
,
0100
0100
0000
0000
,
1000
0000
0001
0000
,
1000
0000
0000
0000
,
0100
0000
0000
0000
,
1001
0000
0000
0000
,
1000
0000
0001
0000
,
0100
0000
0000
0000
,
0001
0000
1000
0000
,
0010
0000
0010
0000
,
0100
0000
0000
0000
,
0010
0000
0000
0000
,
0220
0000
0000
0330
,
0000
0000
0000
0000
,
1000
0000
1000
0000
,
0010
0000
0000
0000
,
1000
1000
1000
0000
,
0010
0000
0000
0000
,
0001
0000
0001
0000
,
0010
0000
0000
0000
,
0001
0001
0001
0000
,
0010
0000
0000
0000
,
0100
0100
0000
0000
,
1000
0000
0001
0000
,
1000
0000
1000
0000
,
1001
0000
0000
0000
,
1001
0000
0000
0000
,
0001
0000
1000
0000
,
0100
0000
0000
0000
,
1000
0000
0001
0000
,
0010
0000
0010
0000
,
0100
0000
0000
0000
,
0010
0000
0100
0000
,
0110
0000
0000
0000
,
1001
0000
0000
0000
,
1000
0000
0001
0000
,
0100
0000
0000
0000
,
0001
0000
1000
0000
,
0010
0010
0000
0000
,
0100
0100
0000
0000
,
0001
0000
1000
0000
,
1001
0000
0000
0000
,
0110
0000
0000
0000
,
1001
0000
0000
0000
;

//---------------dance-single - ----------------
#NOTES:
     dance-single:
     :
     Easy:
     4:
     :
0000
0000
0000
0000
,
0000
0000
0000
0000
,
0000
0000
0000
0000
,
0000
0000
0000
0000
,
0000
0000
0000
0000
,
0010
0000
0000
0000
,
1000
0000
0000
0000
,
0010
1000
0010
1000
,
0001
0000
0000
0000
,
0010
0000
0000
0000
,
0001
0000
0000
0000
,
0010
0001
0010
0001
,
1000
0000
0000
0000
,
0010
0010
0000
0000
,
1000
0000
0001
0000
,
0100
0000
0000
0000
,
0010
0010
1000
0000
,
0001
0000
0000
0000
,
1000
0100
0010
0001
,
1000
0000
0000
0000
,
0001
0010
0100
1000
,
0001
0000
0001
0000
,
1000
0000
1000
0000
,
0010
1000
0010
0100
,
0001
0000
0000
0000
,
0000
0000
0000
0000
,
1000
0100
1000
0100
,
0010
0000
0001
0000
,
1000
0010
1000
0010
,
0100
0000
0001
0000
,
1000
1000
0001
0001
,
0100
0100
0001
0000
,
1000
0000
0010
0100
,
0001
0000
0000
0000
,
0010
0010
0000
0000
,
0100
0010
0100
1000
,
0001
0000
0000
0000
,
1000
0000
0000
0000
,
0001
0010
0100
1000
,
0001
0000
0000
0000
,
1000
0100
0010
0001
,
1000
0000
1000
0000
,
0001
0000
0001
0000
,
0100
0001
0100
0010
,
1000
0000
0001
0000
,
0100
0000
0001
0001
,
1001
0000
1001
0000
,
1000
0100
0010
0001
,
1000
0010
0100
0001
,
1000
0000
1000
0000
,
0010
1000
0010
1000
,
0001
0000
1000
0000
,
0001
0010
0100
1000
,
0001
0000
0000
0000
,
1000
0000
0000
0000
,
1001
0000
0000
0000
;

//---------------dance-single - ----------------
#NOTES:
     dance-single:
     :
     Medium:
     7:
     :
0000
0000
0000
0000
,
0000
0000
0000
0000
,
0000
0000
0000
0000
,
1000
0010
0100
0001
,
1000
0000
0000
0000
,
0001
0001
1000
0100
,
0010
0001
0010
0000
0100
0000
1000
0000
,
0001
0100
0010
1000
,
0001
0000
0100
0000
,
0010
1000
0100
0000
,
0010
0001
0100
0000
,
0001
0001
0001
0001
,
1000
0000
0000
0000
,
0010
1000
0001
0000
1000
0000
1000
0000
,
0010
0000
1000
0000
,
0001
0001
1000
1000
,
1001
0000
0000
0000
,
0010
1000
0001
1000
0010
1000
0001
0000
,
1000
0000
0100
0000
,
0010
0001
1000
0001
0010
0001
1000
0000
,
0001
0000
0100
0000
,
0010
0100
1000
0100
0010
0100
0001
0000
,
0100
0000
0010
0000
,
1000
0010
0100
0001
,
1000
1000
0001
0001
,
0010
0010
0100
0100
,
1000
1000
0001
0010
,
0100
1000
0001
0000
0100
0000
0010
0000
,
1000
0100
0010
0001
,
1000
0000
0010
0000
,
0100
0001
0010
0000
,
0100
1000
0010
0000
,
1000
1000
1000
1000
,
0001
0000
0000
0000
,
0100
0001
1000
0000
0100
0000
0100
0000
,
0010
0000
0001
0000
,
1000
1000
0001
0001
,
1001
0000
0000
0000
,
0100
1000
0100
0010
0100
0001
0100
0000
,
1000
0010
1000
1000
,
0100
0001
0100
0010
0100
1000
0100
0000
,
1000
0001
0100
0100
,
0010
0100
0001
0010
0100
1000
0010
0000
,
0100
1000
0100
0100
,
0001
0100
0010
1000
,
0100
0000
1000
1000
,
0001
0010
0001
1000
0100
0010
0100
0000
,
1000
0001
0100
0010
,
1000
0010
1000
0001
0100
0010
0100
0000
,
0001
1000
0100
0010
,
0001
0100
0010
1000
,
0001
1000
0100
0000
0010
0000
0001
0000
,
1000
1000
0001
0001
,
0100
0000
0100
0000
,
0100
0000
0100
0000
,
0100
0000
0000
0000
,
0000
0000
0000
0000
;

//---------------dance-single - ----------------
#NOTES:
     dance-single:
     :
     Hard:
     10:
     :
0000
0000
0000
0000
,
0000
0000
0000
0000
,
0000
0000
0000
0000
,
0010
1000
0010
0100
0000
0000
0001
0000
,
1000
0000
0000
0000
,
0100
1000
0001
0000
0100
0000
0100
0000
,
0010
1000
0001
0000
0100
0000
0100
0000
,
0010
1000
0001
1000
0010
0000
0100
0000
,
0001
0000
0001
0000
0010
0100
1000
0000
,
0001
0001
1000
1000
,
0001
0100
0010
0100
1000
0000
0100
0000
,
0001
0000
0001
0000
0010
0010
0010
0000
,
0001
0010
0100
0000
1000
0000
0001
0000
,
1000
1000
0010
0000
0100
0000
0001
0000
,
1000
0010
1000
0001
,
0100
0000
0100
0000
1000
0100
0001
0000
,
1000
0000
0010
1000
,
0001
0000
0000
0000
1000
0000
0000
0000
0100
0010
0000
0001
1000
0000
0100
0000
,
1000
0000
0000
0000
0001
0000
0000
0000
0100
0010
0000
1000
0001
0000
0100
0000
,
0010
0000
0000
0000
1000
0000
0000
0000
0001
0010
0000
0100
1000
0000
0100
0000
,
0010
0000
0000
0000
0001
0000
0000
0000
1000
0010
0000
0100
0001
0000
0010
0000
,
0100
0000
0000
0000
1000
0000
0000
0000
0001
0100
0000
0010
1000
0000
0100
0000
,
0010
0000
0000
0000
0001
0000
0000
0000
1000
0010
0000
0100
0001
0000
1000
0000
,
0010
0000
0000
0000
1000
0000
0000
0000
0001
0010
0000
0100
1000
0000
0010
0000
,
0100
0000
0000
0000
0001
0000
0000
0000
1000
0100
0000
0010
0001
0000
0010
0000
,
0001
1000
0000
0010
0100
0000
0001
0000
1000
0100
0000
0010
0001
0000
0000
0000
,
0100
0001
1000
0000
0100
0000
0100
0000
,
0010
0001
1000
0000
0010
0000
0010
0000
,
0100
0001
1000
0001
0100
0000
0010
0000
,
1000
0000
1000
0000
0100
0010
0001
0000
,
1000
1000
0001
0001
,
1000
0100
0010
0100
0001
0000
0100
0000
,
1000
0000
1000
0000
0010
0010
0010
0000
,
1000
0010
0100
0000
0001
0000
1000
0000
,
0001
0001
0010
0000
0100
0000
1000
0000
,
0001
0010
0001
1000
,
0100
0000
0100
0000
0001
0100
1000
0000
,
0001
0000
0010
0001
,
1000
0000
0000
0000
0001
0000
0000
0000
0100
0010
0000
1000
0001
0000
0100
0000
,
0001
0000
0000
0000
1000
0000
0000
0000
0100
0010
0000
0001
1000
0000
0100
0000
,
0010
0000
0000
0000
0001
0000
0000
0000
1000
0010
0000
0100
0001
0000
0100
0000
,
0010
0000
0000
0000
1000
0000
0000
0000
0001
0010
0000
0100
1000
0000
0010
0000
,
0100
0000
0000
0000
0001
0000
0000
0000
1000
0100
0000
0010
0001
0000
0100
0000
,
0010
0000
0000
0000
1000
0000
0000
0000
0001
0010
0000
0100
1000
0000
0001
0000
,
0010
0000
0000
0000
0001
0000
0000
0000
1000
0010
0000
0100
0001
0000
0010
0000
,
0100
0000
0000
0000
1000
0000
0000
0000
0001
0100
0000
0010
1000
0000
0001
0000
,
1000
0000
0100
1000
0000
0100
1000
0000
0001
0000
0000
0000
0100
0000
0000
0000
,
0010
0000
0100
0010
0000
0100
0010
0000
1000
0000
0000
0000
0100
0000
0000
0000
,
0001
0000
0100
0001
0000
0100
0001
0000
0100
0000
0000
0000
0010
0000
0000
0000
,
0001
0000
1000
0001
0000
1000
0001
0000
0100
0000
0000
0000
0010
0000
0000
0000
,
1000
0000
0010
1000
0000
0001
1000
0000
0010
0000
0000
0000
0100
0000
0000
0000
,
0001
0000
0010
0001
0000
1000
0001
0000
0100
0000
0000
0000
0010
0000
0000
0000
,
1000
0000
0001
0010
0000
0100
1000
0000
0001
0000
0000
0000
0100
0000
0000
0000
,
0010
0000
1000
0001
0000
0010
0100
0000
1000
0000
0000
0000
0001
0000
0000
0000
,
1000
0001
0000
0010
0100
0000
1000
0000
0001
0100
0000
0010
1000
0000
0100
0000
,
0010
0000
0000
0000
;

//---------------dance-single - ----------------
#NOTES:
     dance-single:
     :
     Challenge:
     15:
     :
0000
0000
0000
0000
,
0000
0000
0000
0000
,
0000
0000
0000
0000
,
0001
0100
0010
1000
0000
0000
1100
0000
,
0202
0000
0000
0300
,
0013
0000
0001
0000
0100
0000
0010
0000
1000
0100
1000
0100
1000
0000
0001
0000
,
0100
0000
0010
0000
1000
0000
0001
0010
0001
0000
0010
0100
1000
0000
0001
0000
,
0010
0000
0001
0000
0100
0000
0010
0000
1000
0001
1000
0001
1000
0000
0100
0000
,
0010
0000
0001
0100
0001
0000
1000
0100
0010
0000
0001
1000
0001
0000
0100
0000
,
0010
1000
0100
0010
0001
0100
0001
1000
,
0100
0010
0001
0010
0100
0000
1000
0001
1000
0000
0010
0100
0010
0000
1000
0000
,
0001
0010
1000
0100
1000
0001
0100
0010
,
1000
0001
0100
0010
1000
0000
0100
0010
0001
0000
0100
0010
1000
0000
0001
0000
,
0100
0000
0100
0000
0100
0000
0010
1000
0001
0000
0010
0001
1000
0000
0001
0000
,
0010
0000
0100
0000
1000
0000
0010
0000
0100
0000
1000
0000
0100
0001
0010
0000
,
0100
1000
0100
0000
1000
0010
1000
0000
0001
0010
0001
0000
0100
0010
0100
0000
,
0001
0000
0010
0000
0001
0000
0100
0000
0010
0000
1000
0000
0100
0010
0001
1000
,
0001
0000
0100
0000
0010
1000
0001
0000
1000
0100
0000
0010
0001
0000
0100
0000
,
0010
0000
1000
0001
0000
0001
0010
0000
0100
0010
0000
0010
0001
0000
1000
0000
,
0010
1000
0100
0000
0010
0001
0100
0000
0001
1000
0000
1000
0100
0000
0010
0000
,
0001
0000
0100
0010
0000
0010
1000
0000
0100
0010
0001
0100
0010
0000
1000
0000
,
0001
0000
0010
0000
1000
0000
0010
0001
0100
0010
1000
0000
0001
0000
0100
0000
,
0010
1000
0100
0010
0000
0010
0001
0000
0100
0001
0000
0010
0001
1000
0100
0000
,
0010
0001
0000
0001
0100
0000
0010
1000
0000
0100
1000
0000
0100
1000
0001
0000
,
0010
0000
0001
0100
0000
0100
0010
0000
1000
0100
0000
1000
0100
0010
0001
0000
,
0100
0010
0000
0100
0010
0000
0100
0010
0000
0100
0010
0000
0100
0000
0001
0000
,
1000
0000
0010
0000
0001
0000
0100
0000
0010
0100
1000
0010
0100
0000
0001
0000
,
0010
0000
1000
0000
0001
1000
0100
0000
0010
0001
0000
0100
0010
1000
0001
0000
,
0100
0000
0010
0000
1000
0000
0001
0000
0010
0100
0010
0001
1000
0000
0100
0000
,
0001
0010
0000
0100
1000
0000
0010
0000
1000
0000
0100
0010
0001
0000
1000
0000
,
0010
1000
0010
1000
0010
0000
0100
0000
0001
0010
1000
0010
0001
0000
0100
0000
,
0001
0010
0100
1000
0010
0000
1000
0001
0000
1000
0001
0100
0010
1000
0001
0000
,
0010
0100
1000
0010
0100
0000
0001
0000
1000
0100
0010
0001
0100
0000
1000
0000
,
0100
0001
0000
0100
0010
0000
1000
0001
0000
0010
0001
0000
0100
0010
1000
0000
,
0001
0000
0001
0000
0001
0000
0010
0100
0000
0100
1000
0000
0010
1000
0001
0000
,
1000
0100
0010
0001
0010
0000
0001
1000
0000
0010
1000
0000
0100
0010
0001
0000
,
1000
0010
1000
0010
0100
0000
0001
0010
0000
0010
0100
0000
1000
0001
0100
0000
,
0010
1000
0100
0001
1000
0010
0001
0100
,
0010
1000
0000
1000
0001
0000
0010
0001
0100
0010
0000
0010
1000
0000
0001
0000
,
0100
0000
0001
1000
0000
1000
0100
0000
1000
0010
0001
0010
1000
0000
0001
0000
,
0010
0001
0100
0010
1000
0001
0000
1000
0100
0000
0010
0001
0100
0000
0010
0000
,
1000
0000
0100
0010
0000
0010
0001
0000
0100
0010
1000
0001
1000
0000
0100
0000
,
1000
0000
0010
0000
0100
0001
0100
0000
0001
0010
0000
0100
1000
0000
0001
0000
,
1000
0000
0010
0000
0100
0001
0000
0001
0010
0000
0100
1000
0000
1000
0001
0000
,
1000
0010
1000
0000
0100
0010
0001
0100
0000
0010
1000
0000
0001
0100
0001
0100
,
0001
0000
0010
0100
1000
0000
0010
1000
0001
0000
1000
0100
0010
0000
0001
0100
,
0001
0000
0010
0001
0100
0000
0010
0000
1000
0100
0000
0100
0001
0000
1000
0000
,
0010
0000
1000
0100
0000
1000
0001
0000
0010
0100
0000
0010
0001
0000
1000
0000
,
0010
1000
0100
1000
0010
0000
0100
0001
0000
0010
0001
1000
0001
0000
0100
0000
,
0001
0000
0010
0001
0000
1000
0010
0000
1000
0100
0000
0100
0010
0000
0001
0000
,
0100
0000
1000
0000
0100
0000
0010
0000
0100
1000
0100
0001
0100
0000
0010
0000
,
0100
0000
0001
0010
0000
0010
1000
0000
0001
0100
0000
0100
1000
0000
0010
0000
,
1000
0100
0010
0001
0100
0000
0010
1000
0100
0010
0001
0100
0010
1000
0001
0000
,
1000
0010
1000
0001
0000
0001
0010
0000
0100
1000
0000
0010
1000
0100
0010
0000
,
0001
0100
0000
0001
0100
0000
0001
0100
0000
0001
0100
0000
0010
1000
0001
0000
,
0220
0000
0000
0000
,
0330
0000
0000
0000
;

//---------------dance-double - ----------------
#NOTES:
     dance-double:
     :
     Easy:
     4:
     :
00000000
00000000
00000000
00000000
,
00000000
00000000
00000000
00000000
,
00000000
00000000
00000000
00000000
,
00000000
00000000
00000000
00000000
,
00000000
00000000
00000000
00000000
,
00000010
00000000
00000010
00000000
,
00000001
00000000
00000100
00000000
,
00000010
00001000
00010000
01000000
,
00010000
00000000
00010000
00000000
,
10000000
00000000
00100000
00000000
,
10000000
00000000
10000000
00000000
,
00010000
00010000
01000000
01000000
,
00001000
00000000
00010000
00000000
,
00001000
00001000
00010000
00000000
,
00000100
00000000
00000010
00000000
,
00000001
00000000
00000000
00000000
,
00000000
00000000
00000000
00000000
,
00000100
00000010
00010000
00001000
,
01000000
00010000
01000000
00100000
,
10000000
00000000
10000000
00000000
,
00010000
00000000
00010000
00000000
,
00100000
00001000
00010000
00000100
,
00001000
00000010
00000100
00000001
,
00001000
00000000
00001000
00000000
,
00000010
00000000
00000010
00000000
,
00000100
00000000
00000100
00000000
,
00000001
00000000
00000001
00000000
,
00001000
00000000
00000010
00000000
,
00010000
00001000
01000000
00010000
,
10000000
00000000
10000000
00000000
,
00010000
00000000
01000000
00000000
,
00100000
00000000
00100000
00000000
,
10000000
10000000
01000000
01000000
,
00100000
00000000
00001000
00000000
,
00010000
00010000
00000010
00000000
,
00000100
00000000
00000010
00000000
,
00001000
00000000
00000000
00000000
,
00000000
00000000
00000000
00000000
,
01000000
00100000
00001000
00010000
,
00000100
00001000
00000100
00000010
,
00000001
00000000
00000001
00000000
,
00001000
00000000
00001000
00000000
,
00000010
00010000
00001000
01000000
,
00010000
00100000
01000000
10000000
,
00010000
00000000
00010000
00000000
,
00100000
00000000
00100000
00000000
,
00010000
00100000
01000000
10000000
,
00100000
01000000
00001000
00010000
,
00000100
00000000
00000010
00000000
,
00000001
00000001
00000100
00000000
,
00000010
00000100
00000010
00001000
,
00000100
00010000
00001000
01000000
,
00100000
00000000
10000000
00000000
,
00010000
00010000
01000000
01000000
,
00001000
00001000
00010000
00010000
,
00011000
00000000
00000000
00000000
,
00000000
00000000
00000000
00000000
;

//---------------dance-double - ----------------
#NOTES:
     dance-double:
     :
     Medium:
     7:
     :
00000000
00000000
00000000
00000000
,
00000000
00000000
00000000
00000000
,
00000000
00000000
00000000
00000000
,
00100000
00000000
00100000
00000000
10000000
00010000
01000000
00000000
,
00100000
00000000
00000000
00000000
,
01000000
00000000
00001000
00000000
00010000
00001000
00010000
00000000
,
00000010
00000000
00001000
00000000
00000001
00000100
00000001
00000000
,
00000010
00000000
00000100
00000000
00010000
00001000
00010000
00000000
,
00001000
00000000
01000000
00000000
,
00100000
10000000
00100000
00000000
01000000
00000000
00001000
00000000
,
00010000
00001000
00010000
00000000
00000010
00000000
00001000
00000000
,
00000001
00000001
00000100
00000010
,
00010000
00010000
00001000
00001000
,
01000000
00000000
00000000
00000000
,
00010000
10000000
00010000
00000000
01000000
00100000
01000000
00000000
,
00001000
00000000
00010000
00000000
,
00001000
00000000
00000000
00000000
,
00000010
00000001
00000100
00000010
,
00010000
00000000
00001000
00000000
01000000
00010000
10000000
00000000
,
01000000
00100000
00001000
00010000
,
00000100
00000000
00000010
00000000
00000001
00001000
00000010
00000000
,
00000100
00000010
00010000
00001000
,
01000000
00000000
00010000
00000000
10000000
01000000
00100000
00000000
,
00001000
00001000
00010000
00010000
,
00000010
00001000
00000001
00001000
,
00000001
00001000
00000100
00001000
,
00000100
00000000
00010000
00000000
00001000
00010000
00001000
00000000
,
00100000
00000000
00010000
00000000
10000000
01000000
10000000
00000000
,
00100000
00000000
01000000
00000000
00001000
00010000
00001000
00000000
,
00010000
00000000
00000100
00000000
,
00000010
00000001
00000010
00000000
00000100
00000000
00010000
00000000
,
00001000
00010000
00001000
00000000
00100000
00000000
00010000
00000000
,
10000000
10000000
01000000
00100000
,
00001000
00001000
00010000
00010000
,
00000100
00000000
00000000
00000000
,
00001000
00000001
00001000
00000000
00000100
00000010
00000100
00000000
,
00010000
00000000
00001000
00000000
,
00010000
00000000
00000000
00000000
,
00100000
10000000
01000000
00100000
,
00001000
00000000
00010000
00000000
00000100
00001000
00000001
00000000
,
00000100
00000010
00010000
00001000
,
01000000
00000000
00100000
00000000
10000000
00010000
00100000
00000000
,
01000000
00100000
00001000
00010000
,
00000100
00000000
00001000
00000000
00000001
00000100
00000010
00000000
,
00010000
00010000
00001000
00001000
,
00100000
00010000
10000000
00010000
,
10000000
00100000
01000000
00001000
,
00010000
00000000
00000100
00000000
00000010
00000100
00001000
00000000
,
00000010
00001000
00000100
00010000
,
00001000
00000000
01000000
00000000
00100000
10000000
00010000
00000000
,
01000000
00001000
00010000
00000010
,
00000100
00000000
00000010
00000000
00001000
00000001
00000100
00000000
,
00000010
00001000
00000100
00010000
,
00001000
00000000
00100000
00000000
00010000
01000000
00100000
00000000
,
10000000
01000000
00100000
00000000
00010000
01000000
00100000
00000000
,
10010000
00000000
00000000
00000000
,
00000000
00000000
00000000
00000000
;

//---------------dance-double - ----------------
#NOTES:
     dance-double:
     :
     Hard:
     10:
     :
00000000
00000000
00000000
00000000
,
00000000
00000000
00000000
00000000
,
00000000
00000000
00000000
00000000
,
10010000
01000000
00001000
00001000
,
00011000
00000000
00000000
00000000
,
00000010
00001000
00000010
00001000
00000001
00001000
00000010
00010000
,
00001000
01000000
00010000
00000000
10000000
01000000
00100000
00000000
,
00001000
00010000
00001000
00010000
00000100
00001000
00000010
00000000
,
00001000
00000001
00000100
00000000
00000010
00001000
00000100
00000000
,
00010000
00001000
00010000
00001000
00100000
00010000
01000000
00100000
,
10000000
00010000
00100000
00000000
01000000
10000000
00100000
00000000
,
01000000
00001000
01000000
00001000
00010000
00000100
00001000
00000000
,
00000001
00000000
00000001
00000000
00001000
00000000
00001000
00000010
,
00010000
00010000
00001000
00000000
01000000
00000000
00010000
00000000
,
10000000
00000000
10000000
00000000
00100000
01000000
00001000
00010000
,
00000100
00000100
00000100
00000100
,
00000100
00001000
00000010
00000100
00000001
00000000
00000001
00000000
,
00001000
00000010
00001000
00000001
00001000
00000010
00001000
00000001
,
00001000
00000100
00010000
00001000
00100000
00010000
10000000
01000000
,
00100000
00010000
01000000
00010000
00100000
00001000
00010000
00000100
,
00000010
00000100
00001000
00000010
00000100
00000001
00001000
00000100
,
00000010
00000001
00000010
00000100
00000010
00000001
00000010
00000100
,
00001000
00000001
00001000
00000010
00010000
00001000
00100000
00010000
,
01000000
00100000
01000000
10000000
01000000
00100000
10000000
00010000
,
10000000
00000000
10000000
00000000
00010000
01000000
00100000
00000000
,
10000000
00000000
00000000
00000000
,
00100000
00010000
00100000
00010000
10000000
00010000
00100000
00001000
,
00010000
00000100
00001000
00000000
00000001
00000100
00000010
00000000
,
00010000
00001000
00010000
00001000
01000000
00010000
00100000
00000000
,
00010000
10000000
01000000
00000000
00100000
00010000
01000000
00000000
,
00001000
00010000
00001000
00010000
00000010
00001000
00000100
00000010
,
00000001
00001000
00000010
00000000
00000100
00000001
00000010
00000000
,
00000100
00010000
00000100
00010000
00001000
01000000
00010000
00000000
,
10000000
00000000
10000000
00000000
00010000
00000000
00010000
00100000
,
00001000
00001000
00010000
00000000
00000100
00000000
00001000
00000000
,
00000001
00000000
00000001
00000000
00000010
00000100
00010000
00001000
,
01000000
01000000
01000000
01000000
,
01000000
00010000
00100000
01000000
10000000
00000000
10000000
00000000
,
00010000
01000000
00010000
10000000
00010000
01000000
00010000
10000000
,
00010000
00100000
00001000
00010000
00000100
00001000
00000001
00000010
,
00000100
00001000
00000010
00001000
00000100
00010000
00001000
00100000
,
01000000
00100000
00010000
01000000
00100000
10000000
00010000
00100000
,
01000000
10000000
01000000
00100000
01000000
10000000
01000000
00100000
,
00010000
10000000
00010000
01000000
00001000
00010000
00000100
00001000
,
00000010
00000100
00000010
00001000
00000010
00000100
00000001
00001000
,
00000001
00000000
00000001
00000000
00001000
00000010
00000100
00000010
,
00001000
00000000
00000000
00000000
00001000
00000001
00000010
00000100
,
00001000
00000000
00000000
00000000
00001000
00000010
00010000
00001000
,
01000000
00000000
00000000
00000000
01000000
00010000
00100000
01000000
,
10000000
00000000
00000000
00000000
10000000
00100000
01000000
00001000
,
00010000
00000000
00010000
00000000
00010000
00001000
01000000
00100000
,
10000000
00000000
10000000
00000000
10000000
00100000
01000000
00001000
,
00010000
00000010
00001000
00000001
00000010
00000100
00001000
00000010
,
00001000
00000001
00001000
00000010
00010000
00001000
01000000
00010000
,
10000000
01000000
00100000
00010000
01000000
00001000
00010000
00000100
,
00000010
00000000
00000000
00000000
,
00000000
00000000
00000000
00000000
;
