#TITLE:AFTER THE GAME;
#ARTIST:NPD3;
#BANNER:AFTER THE GAME.png;
#BACKGROUND:AFTER THE GAME-bg.png;
#JACKET:AFTER THE GAME-jacket.png;
#MUSIC:AFTER THE GAME.ogg;
#SAMPLESTART:38.846;
#SAMPLELENGTH:20;
#DISPLAYBPM:105;
#BPMS:0=104.956,4=104.727,20=105.097;
#BGCHANGES:;

//---------------dance-single - ----------------
#NOTES:
     dance-single:
     :
     Beginner:
     2:
     :
0000
0000
0000
0000
,
0000
0000
0000
0000
,
0000
0000
0000
0000
,
0000
0000
0000
0000
,
0001
0000
1000
0000
,
0020
0000
0030
0000
,
0200
0000
0300
0000
,
0001
0001
0001
0000
,
0010
0000
0000
0000
,
1001
0000
0100
0000
,
0002
0000
0003
0000
,
1000
0000
0010
0000
,
1000
0000
0000
0000
,
0001
0000
0000
0100
,
0100
0000
0010
0000
,
1000
0000
0000
0001
,
0001
0000
0100
0000
,
1001
0000
0000
1000
,
1000
0000
0000
0000
,
0002
0000
0003
0000
,
0100
0100
0100
0000
,
1001
0000
0010
0000
,
1000
1000
0000
0000
,
0001
0000
0010
0000
,
0001
0001
0001
0000
,
1001
0000
0000
0000
,
0100
0000
0010
0000
,
0200
0000
0300
0000
,
0002
0000
0003
0000
,
1001
0000
0010
0000
,
2000
0000
3000
0000
,
0001
0000
0100
0000
,
0010
0010
0000
0000
,
1001
0000
0000
1000
,
1000
0000
0001
0000
,
0010
0000
0000
0100
,
0100
0000
0000
0000
,
1001
0000
0001
0000
,
0100
0000
0001
0000
,
1000
2000
3000
0000
,
0010
0000
0100
0000
,
1001
0000
0000
0000
;

//---------------dance-single - ----------------
#NOTES:
     dance-single:
     :
     Easy:
     6:
     :
0000
0000
0000
0000
,
0000
0000
0000
0000
,
0000
0000
0000
0000
,
0000
0000
0000
0000
,
0001
1001
1000
1001
,
0020
0200
0000
0000
0000
0000
0330
0000
,
0001
2000
0200
0000
0000
0000
3300
0000
,
0010
0010
0001
1000
,
0010
0000
0100
0110
,
1001
0001
0100
1000
,
0002
0000
0010
0013
,
2000
0000
3001
0100
,
0010
0000
1000
0000
0001
0000
0100
0010
,
0100
0001
1000
0010
,
0010
0000
1000
0001
,
1000
0010
0000
0100
,
0100
0001
1000
0110
,
1001
0000
0000
0010
,
1000
0100
1000
0001
,
0100
0010
2000
0000
0000
0000
3001
0000
,
0101
1100
0101
0000
,
1000
0002
0010
0000
1000
0000
0103
0000
,
1000
0002
0200
0000
0300
0000
0103
0000
,
0010
0000
1000
0100
,
1001
0110
1001
0110
,
1001
0010
1000
0001
,
0010
0001
0100
0100
,
0010
2000
0002
0000
0000
0000
3003
0000
,
0020
0000
0031
1000
,
0110
0000
1000
0000
0010
0100
0001
0000
,
0010
0100
2000
0000
0000
0000
3000
0000
,
0001
0100
1000
0010
,
1000
0001
1000
0000
0000
0000
0110
0000
,
1001
0010
1000
0001
,
0011
0000
0100
1000
,
0001
0000
0100
0010
,
1000
0000
0000
0000
0001
0000
1000
0100
,
1000
0000
0010
1000
,
0001
0000
0100
0100
,
0100
0002
1003
0100
,
0020
0000
0031
0110
,
1001
0000
0000
0000
;

//---------------dance-single - ----------------
#NOTES:
     dance-single:
     :
     Medium:
     9:
     :
0000
0000
0000
0000
,
0000
0000
0000
0000
,
0000
0000
0000
0000
,
0000
0000
0000
0000
,
1001
0100
0010
0000
1000
0001
0110
0000
,
0001
1000
0000
0100
0010
0000
0002
0000
,
1003
0010
0100
0010
2000
0000
3002
0000
,
0013
0000
0020
0000
0031
1000
0001
0100
,
0010
0000
1000
0100
0010
0000
0110
0000
,
1001
0000
0010
1000
0001
0000
1000
0100
,
0020
0001
1000
0130
,
0002
0000
0000
0103
0010
0100
0010
1000
,
0001
0000
0100
0000
0010
1000
0010
1000
,
0001
0000
0010
0100
1000
0000
1010
0000
,
0101
0000
1000
0100
2000
0000
3002
0000
,
0013
0000
0001
1000
0010
0000
0101
0000
,
1100
0000
0001
0100
0010
1000
0110
0000
,
1001
0000
0010
0000
0000
1000
0001
0000
,
0100
0000
0001
1000
0001
0000
0010
0000
,
0100
2000
0002
0000
3003
0100
0010
1000
,
0001
1000
0001
1000
0010
0000
0100
0001
,
1000
0000
0001
0010
0100
1000
0010
0100
,
0001
1000
0200
0000
0001
0000
1300
0001
,
0200
0000
0300
0001
0010
0001
0100
0010
,
1000
1100
0110
0011
,
1001
0000
0010
1000
0001
0000
0100
0010
,
0000
1000
0100
0010
0002
0000
2003
0000
,
3001
0200
0020
0000
0000
0000
0330
0000
,
2000
0000
3001
1000
0020
0000
0130
0000
,
1001
0000
0001
0010
0001
1000
0100
0000
,
0010
0001
2000
0000
0010
0000
0100
0000
,
3001
0100
0010
0000
1000
0100
0001
0000
,
0010
0001
1000
0000
0000
0000
1100
0000
,
0101
0000
0010
1000
0001
0000
1020
0000
,
0130
0001
2000
3200
,
0310
0000
0001
1000
0100
0000
1001
0000
,
0110
0000
0000
0000
1000
0010
0100
0001
,
1000
0000
0100
0010
0001
0000
0012
0000
,
1003
0000
1010
0000
0100
0001
1000
0000
,
0001
0000
0001
1000
0010
0000
0000
1000
,
0100
0020
0000
0001
0031
0000
0110
0000
,
1001
0000
0000
0000
;

//---------------dance-single - ----------------
#NOTES:
     dance-single:
     :
     Hard:
     12:
     :
0000
0000
0000
0000
,
0000
0000
0000
0000
,
0000
0000
0000
0000
,
0000
0000
0000
0000
,
1001
0000
0100
0000
1000
0001
0000
0000
0010
0000
0100
0000
1100
0000
0000
0000
,
0001
0000
0002
0000
0000
0000
0010
0000
0000
0100
0000
1000
0003
1000
0000
0001
,
0100
0000
0010
2000
0100
0000
0000
0000
0001
0000
0001
0000
3100
0000
0000
0000
,
0001
0000
0000
1000
0100
0000
0000
1000
0100
0010
0100
0000
1000
0001
0100
0000
,
0010
0000
0100
0000
0001
0010
0000
0001
1000
0000
1000
0000
0110
0000
0000
0000
,
1001
0000
0010
0000
0010
0000
1000
0000
0001
0000
0000
0000
0100
0000
0001
2000
,
0001
0000
0000
0000
3100
0000
0001
1000
0001
0000
0100
0010
0100
0000
0000
0000
,
0102
0000
0000
0000
1003
0000
0010
0100
0010
1000
0001
0000
0100
0000
0010
0000
,
1000
0000
0000
0100
0000
0000
1000
0010
1000
0000
0001
0000
0100
0000
0010
0000
,
1000
0000
0001
0100
0001
0000
0010
0000
0010
0000
0000
0000
0110
0000
0000
0000
,
0001
0000
0100
0010
1000
0000
0000
0000
0002
0000
0000
0000
2003
0000
0000
0000
,
3010
0000
1000
0000
1000
0001
0000
0000
0100
0000
0010
0000
1010
0000
0000
0000
,
0101
0000
1000
0000
0001
0000
1000
0000
0010
0100
0000
0000
0110
0000
0000
0000
,
1001
0000
0000
0000
0100
0000
0010
0000
1000
0000
0001
0000
0000
0010
0000
0001
,
0000
1000
0000
0001
0100
0000
0000
0000
0010
0000
1000
0000
0001
0000
0000
0000
,
0011
0000
2000
0002
0000
0000
0000
0000
3003
0000
0100
0010
1000
0000
0001
0000
,
0101
0100
0110
0010
1010
1000
1000
0001
,
0100
0000
0200
0000
0010
0000
0010
0000
1000
0000
1000
0000
0301
0100
0010
1000
,
0100
0010
0001
0000
2000
0000
0000
0000
0001
0000
0000
0000
3010
0100
0010
0000
,
1000
0000
0001
0000
0000
0000
0010
0000
0001
0000
0100
0000
0010
0000
1000
0001
,
0100
0000
0010
1000
0010
0100
0010
1000
0001
0000
0001
0000
0001
0000
1000
0000
,
2001
0000
0000
0000
0100
0000
0001
0000
3001
0000
0000
0100
0000
0020
0000
0000
,
1030
0010
0100
0010
1000
0001
0000
0001
0200
0000
0000
0000
0320
0000
0000
0000
,
1030
0000
0100
0020
0001
0000
0000
0000
1000
0000
1000
0000
0130
0000
0000
0000
,
0012
0000
0100
0000
1003
0000
0001
0100
0001
0000
0000
1000
0010
0000
0000
0100
,
0001
0000
0010
0100
0000
1000
0000
0010
0000
1000
0001
0000
0100
0000
0000
0010
,
1000
0000
0010
1000
0001
0000
0100
0000
0002
0000
0000
0000
2003
0000
0000
0000
,
3100
0000
1000
0000
0001
0100
0000
0000
0001
0000
0010
0000
1000
0000
0000
0000
,
0010
1000
0001
0000
0100
0000
0000
0010
1000
0000
0001
0000
0101
0000
0000
0000
,
1100
0000
0001
0100
0001
0000
0100
0010
1000
0000
0000
0000
0110
0000
0000
0000
,
1010
0000
0000
0000
0001
0000
0010
0100
2000
0000
0000
0000
3002
0000
0000
0000
,
0203
0000
0010
0000
0310
0000
1000
0001
1000
0000
0000
0000
1010
0000
0000
0000
,
0101
0000
0000
0000
0001
0000
0010
0100
1000
0000
1000
0000
0001
0000
0100
0000
,
0001
0000
0000
0000
0010
0000
0001
1000
0100
0000
0000
0000
0110
0000
0000
0000
,
0011
0000
0000
0000
0100
0000
1000
0001
2000
0000
0000
0000
3020
0000
0000
0000
,
0130
0000
0000
0001
0010
0000
0000
0001
1000
0000
0000
0000
0010
0100
0010
1000
,
0001
0000
0002
0000
0000
0000
0013
0100
1000
0000
0000
0000
1100
0000
0000
0000
,
1001
0000
0000
0000
;

//---------------dance-couple - ----------------
#NOTES:
     dance-couple:
     :
     Medium:
     5:
     :
00000000
00000000
00000000
00000000
,
00000000
00000000
00000000
00000000
,
00000000
00000000
00000000
00000000
,
00000000
00000000
00000000
00000000
,
00000000
00000000
00000000
00000000
,
00100000
00000000
00010000
00000000
10000000
00000000
00010000
00100000
,
01000000
00000000
00100000
00000000
00010000
00000000
10000000
00100000
,
00000010
00000000
00000001
00000000
00001000
00000000
00000001
00000010
,
00000100
00000000
00000010
00000000
00000001
00000000
00001000
00000010
,
00110000
00010100
01000000
00100100
,
10000000
00000000
01000100
00000000
00100000
00000000
00010100
01000000
,
10000000
00010100
01000000
00100100
,
10010000
01000100
00000000
00100100
,
00000011
00100001
00000100
00100010
,
00001000
00000000
00100100
00000000
00000010
00000000
00100001
00000100
,
00001000
00100001
00000100
00100010
,
00001001
00100100
00000000
00100100
,
10011001
10011001
10011001
00000000
00100010
00000000
00010001
00000000
,
01000100
00010001
10001000
00000000
00100010
00010001
00100010
00000000
,
00100010
10001000
01000100
10001000
00010001
01000100
00100010
00000000
,
10001000
00010001
10001000
00010001
10001000
00000000
01100110
00000000
,
00010001
00010001
00100010
00000000
00100010
00010001
10001000
00000000
,
10001000
10001000
01000100
00000000
00100010
10001000
00010001
00000000
,
11001100
01010101
00110011
10101010
,
00100010
01000100
00100010
01000100
00100010
00000000
10011001
00000000
,
00100100
00000000
00010000
00000000
10000000
01000000
00100000
00000000
,
00100100
00000000
10000000
00000000
00010000
01000000
00100000
00000000
,
00100100
01000000
10000000
00100000
,
00100100
00010000
00100000
00000000
00100000
10000000
00100000
00000000
,
01000010
00000000
00000001
00000000
00001000
00000100
00000010
00000000
,
01000010
00000000
00001000
00000000
00000001
00000100
00000010
00000000
,
01000010
00000100
00001000
00000010
,
01000010
00000001
00000010
00000000
00000010
00001000
00000010
00000000
,
00000000
00000000
00000000
00000000
,
00010001
00000000
00100010
00000000
,
10001000
00000000
00100010
00000000
,
00100010
00100010
01000100
00000000
,
00010001
00000000
01000100
00000000
,
10001000
00000000
01000100
00000000
,
00000001
00000000
10000000
00000000
,
00000010
00000000
01000000
00000000
,
10011001
00000000
00000000
00000000
;

//---------------dance-solo - ----------------
#NOTES:
     dance-solo:
     :
     Easy:
     2:
     :
000000
000000
000000
000000
,
000000
000000
000000
000000
,
000000
000000
000000
000000
,
000000
000000
000000
000000
,
000000
000000
000000
000000
,
000001
000000
100000
000000
,
000010
000000
010000
000000
,
000001
000000
100000
000000
,
000010
000000
010000
000000
,
000010
000000
000001
000000
,
010000
000000
100000
000000
,
000100
000000
000100
000000
,
100000
000000
000001
000000
,
000010
000000
000001
000000
,
010000
000000
100000
000000
,
000100
000000
000100
000000
,
100000
000000
000001
000000
,
000010
000000
000010
000000
,
010000
000000
010000
000000
,
000001
000000
001000
000000
,
100000
000000
001000
000000
,
000010
000000
000010
000000
,
010000
000000
010000
000000
,
000001
000000
100000
000000
,
000100
000100
000100
001000
,
000100
000001
100000
001000
,
000100
100000
000001
001000
,
000010
000000
010000
000000
,
000001
000000
100000
000001
,
000100
000001
100000
001000
,
000100
100000
000001
001000
,
000010
000000
010000
000000
,
000010
000000
010000
000000
,
000100
000000
001000
000000
,
000100
000000
100000
000001
,
001000
000000
000010
000000
,
010000
000000
001000
000000
,
000100
000000
001000
000000
,
000100
000000
010000
000010
,
010000
000000
001000
000000
,
000100
000000
001000
000000
,
000010
000000
000000
000000
;

//---------------dance-solo - ----------------
#NOTES:
     dance-solo:
     :
     Medium:
     4:
     :
000000
000000
000000
000000
,
000000
000000
000000
000000
,
000000
000000
000000
000000
,
000000
000000
000000
000000
,
000000
000000
000000
000000
,
000010
000001
010000
100000
,
000001
001000
100000
001000
,
000001
000001
100000
100000
,
001000
001000
000100
000100
,
000100
010000
000100
100001
,
000100
000010
000100
100001
,
000010
101000
000010
101000
,
100000
000001
001000
001000
,
000100
010000
000100
100001
,
000100
000010
000100
100001
,
010000
001001
010000
001001
,
000001
100000
001000
001000
,
000010
000100
001000
000001
,
000010
000100
001000
000001
,
000010
000010
001100
100001
,
000101
100100
101000
001001
,
010000
000100
001000
100000
,
010000
000100
001000
100000
,
010000
010000
000101
100100
,
100001
001100
000010
010000
,
000100
001000
000100
001000
,
000010
100001
000010
100001
,
000010
000000
010000
000000
,
000100
000100
101000
001001
,
000100
001000
000100
001000
,
000010
100001
000010
100001
,
000010
001001
010000
101000
,
000010
001000
010000
001000
,
000001
000010
000100
000010
,
000001
000010
001100
100010
,
010001
000000
000100
000000
,
000010
100001
001000
001000
,
100000
010000
000100
010000
,
100000
010000
001100
010001
,
100010
000000
000100
000000
,
000010
100001
100000
000001
,
001100
000000
000000
000000
;

//---------------dance-solo - ----------------
#NOTES:
     dance-solo:
     :
     Hard:
     6:
     :
000000
000000
000000
000000
,
000000
000000
000000
000000
,
000000
000000
000000
000000
,
000000
000000
000000
000000
,
000000
000000
000000
000000
,
000100
000001
001000
000000
000100
100000
001000
000000
,
000100
000001
001000
000000
000100
100000
001000
000000
,
000010
000001
010000
100000
,
000010
000000
010000
000000
001100
001100
100001
000000
,
000100
000000
000100
000000
001000
000001
010000
000000
,
000100
000000
000100
000000
001000
100000
000010
000000
,
000100
000000
000100
000000
001000
000101
100100
000000
,
000100
000000
000100
000000
001000
000110
010100
000000
,
001000
000000
000001
000000
001001
101000
100100
000000
,
001000
000000
000001
000000
000101
100100
101000
000000
,
001000
000000
100000
000000
000101
001001
000101
000000
,
001000
000000
000001
000000
100100
101000
100100
000000
,
000010
000010
000010
101000
,
010000
010000
010000
001001
,
000100
000010
000001
001000
,
000100
010000
100000
001000
,
000010
000010
000010
100100
,
010000
010000
010000
000101
,
010000
001000
000010
001000
,
000101
100100
011000
001010
,
000100
000001
000100
000000
010000
010000
010000
010000
,
000100
100000
000100
000000
000010
000010
000010
000010
,
100000
000100
010000
001000
,
000001
000100
000010
010000
000001
010000
001000
000000
,
000100
000010
100000
000000
000001
000001
000001
000001
,
000100
010000
000001
000000
100000
100000
100000
100000
,
000100
000000
000001
000000
000010
010000
001000
000000
,
000100
000000
010000
000010
001000
000000
000100
000000
,
000100
000010
100000
000000
001000
001000
001000
000000
,
010000
000100
101000
000110
,
001001
001000
010000
001000
,
000010
000000
001000
000000
010000
001000
100001
000000
,
000100
010000
000001
000000
001000
001000
001000
000000
,
000010
000100
001001
010100
,
101000
001000
000010
001000
,
010000
001000
000010
001000
,
010010
000000
000000
000000
;
