#VERSION:0.83;
#TITLE:AFRONOVA PRIMEVAL;
#SUBTITLE:(FROM NONSTOP MEGAMIX);
#ARTIST:8-bit remixed by K.O.G;
#TITLETRANSLIT:;
#SUBTITLETRANSLIT:;
#ARTISTTRANSLIT:;
#GENRE:;
#ORIGIN:;
#CREDIT:;
#BANNER:AFRONOVA PRIMEVAL (FROM NONSTOP MEGAMIX)-bn.png;
#BACKGROUND:AFRONOVA PRIMEVAL (FROM NONSTOP MEGAMIX)-bg.png;
#PREVIEWVID:;
#JACKET:AFRONOVA PRIMEVAL (FROM NONSTOP MEGAMIX)-jacket.png;
#CDIMAGE:;
#DISCIMAGE:;
#LYRICSPATH:;
#CDTITLE:;
#MUSIC:AFRONOVA PRIMEVAL (FROM NONSTOP MEGAMIX).ogg;
#OFFSET:0.200000;
#SAMPLESTART:73.000000;
#SAMPLELENGTH:20.000000;
#SELECTABLE:YES;
#DISPLAYBPM:200.000000;
#BPMS:0.000=200.000;
#STOPS:;
#DELAYS:;
#WARPS:;
#TIMESIGNATURES:0.000=4=4;
#TICKCOUNTS:0.000=4;
#COMBOS:0.000=1;
#SPEEDS:0.000=1.000=0.000=0;
#SCROLLS:0.000=1.000;
#FAKES:;
#LABELS:0.000=Song Start;
#BGCHANGES:;
#KEYSOUNDS:;
#ATTACKS:
;

//---------------dance-single - ----------------
#NOTEDATA:;
#CHARTNAME:;
#STEPSTYPE:dance-single;
#DESCRIPTION:;
#CHARTSTYLE:;
#DIFFICULTY:Challenge;
#METER:15;
#RADARVALUES:0.813846,0.983469,0.519719,0.159914,0.324825,570.000000,518.000000,52.000000,16.000000,0.000000,0.000000,0.000000,0.000000,0.000000,0.813846,0.983469,0.519719,0.159914,0.324825,570.000000,518.000000,52.000000,16.000000,0.000000,0.000000,0.000000,0.000000,0.000000;
#CREDIT:;
#DISPLAYBPM:200.000000;
#NOTES:
0000
0000
0000
0000
,
0000
0000
0000
0000
,
0000
0000
0000
0000
,
0000
0000
0000
0000
,
0000
0000
0000
0000
,
1001
0010
0100
0010
0100
0010
0100
0010
,
1000
0000
0100
0010
0001
0100
0001
1000
,
0000
0000
0000
0010
0000
0000
1000
0000
0100
0000
0010
0000
0001
0000
0010
0000
0100
0000
1000
0000
0100
0000
0010
0000
,
0001
1000
0001
0100
0000
0010
1000
0100
,
0110
0000
0001
0010
0001
0100
1000
0000
,
0020
0000
1030
0100
1000
0010
0001
0000
,
0100
0001
0010
0001
0010
0100
1000
0000
,
0010
1000
0010
0100
0010
1000
0101
0000
,
1100
0000
0001
0010
0001
0100
0010
1000
,
0200
0000
0310
0001
0100
0001
1000
0000
,
1010
0000
0100
0011
0000
1000
0001
0100
,
0010
1000
0000
1000
0100
0010
0001
0100
,
0110
0000
1001
0100
0001
0010
0001
0100
,
1000
0000
0010
1000
0001
1000
0100
0000
,
0010
0001
0100
0010
1000
0100
0001
0100
,
1000
0000
0010
0000
0100
0000
0010
0000
0100
0000
0001
0000
1000
0001
1000
0001
,
1000
0010
0100
0001
0010
0100
1000
0000
,
0001
0000
0000
0001
0000
0000
1000
0000
0001
0000
0100
0000
1000
0000
0000
0000
,
0010
1000
0001
0010
1000
0100
0001
0000
,
0010
0000
0000
0001
0100
0000
0010
1000
0010
0000
0100
0001
0100
0000
0010
0000
,
1000
0000
0002
0010
0000
1000
0000
0100
,
0100
0000
1000
0000
0010
0010
0000
0100
,
0103
0000
0010
0000
1000
0100
0001
0010
,
0000
0100
1000
0010
1000
0001
1000
0100
,
1100
0000
0002
0000
0100
0100
0000
0010
,
0000
1000
1000
0000
0010
0010
0000
0100
,
0000
1000
1003
0001
0000
1000
0100
0010
,
0001
0100
1000
0100
0001
0010
0100
1000
,
0020
1000
0000
0100
0000
0001
0000
1000
,
1030
0000
0000
0000
0010
0000
0000
1000
0000
0001
0000
1000
0100
0000
0010
0000
,
0001
0000
0000
0000
0100
0000
0000
0010
0000
1000
0000
0001
1000
0000
0100
0000
,
0010
0000
0001
0000
0100
0000
0000
0010
0000
1000
0000
0001
1000
0000
0100
0000
,
0020
1000
0000
0100
0000
1000
0000
0001
,
0031
0000
0000
0000
1000
0000
0000
0010
0000
0100
0000
0001
0010
0000
0100
0000
,
1000
0000
0000
0000
0010
0000
0000
0100
0000
0010
0000
1000
0001
0000
0100
0000
,
0101
0000
0000
0000
0010
0000
0000
1000
0000
0100
0000
1000
0001
0000
0100
0000
,
1010
0000
0000
0000
0100
0000
0001
0010
0000
0100
0000
1000
0010
0000
0100
0000
,
0001
0000
0000
0000
0011
0000
0001
0100
0000
0010
0000
1000
0100
0000
0010
0000
,
0001
0000
0000
0000
1000
0000
0001
0100
0000
0010
0000
1000
0001
0000
0100
0000
,
0010
1010
0010
0011
0010
1010
0010
0011
,
0100
0000
0010
0000
1000
0000
0001
0010
0000
0100
0000
1000
0010
0000
0100
0000
,
0001
0000
0000
0000
0010
0000
0000
0001
1000
0010
0000
0010
0100
0000
0001
0000
,
1000
0000
0000
0000
0100
0000
0000
1000
0010
0100
0000
0100
0001
0000
0010
0000
,
0100
0000
0000
0000
0010
0000
0000
0001
1000
0100
0000
0100
1000
0000
0001
0000
,
0100
0101
0100
1100
0100
0101
0100
1100
,
0010
0000
0000
0000
1001
0000
0000
0010
1000
0001
0000
1000
0100
0000
0010
0000
,
0001
0000
0000
0000
0101
0000
0000
1000
0001
0010
0000
0010
0100
0000
1000
0000
,
0010
0001
0010
1000
0100
0001
0100
1000
,
0001
0001
0000
1000
1000
0010
0001
0010
,
1010
0010
0011
0010
2020
0000
3030
0000
,
0100
0100
0000
1000
0100
0001
0100
1000
,
1100
0100
0101
0100
2200
0000
3300
0000
,
1000
1000
0000
0010
0001
0010
1000
0010
,
1010
0010
0011
0010
2020
0000
3030
0000
,
0010
0010
0000
0100
1000
0100
0001
0100
,
0101
0100
1100
0100
0202
0000
0303
0000
,
1001
0000
0010
0000
1000
0000
0100
0000
1000
0000
0010
0000
0001
0000
0000
0100
,
0010
1000
0100
0001
0100
0010
0100
1000
,
0001
0000
0010
0100
1000
0010
0001
0100
,
0010
0000
1000
0100
1000
0000
0001
0000
0100
0000
1000
0000
0100
0000
0001
0000
,
0110
0000
0010
1000
0001
1000
0100
0010
,
0001
0000
0100
0000
0010
0000
0000
1000
0001
0000
0100
0000
1000
0000
0100
0000
,
0001
0000
0010
0000
0001
0000
0100
0000
1000
0000
0010
0000
0001
0000
0000
0100
,
0010
1000
0100
0001
0100
1000
0010
0100
,
0001
0000
0011
0100
1000
0010
1010
0100
,
0001
0000
1000
0010
0100
0000
0001
0000
0010
0000
1000
0000
0010
0000
0001
0000
,
0100
0000
0110
0010
1000
0100
1100
0010
,
0001
0100
0101
0010
1000
0001
0011
0100
,
1100
0000
0101
0010
1000
0001
1001
0100
,
0010
0000
1000
0001
0100
0000
0000
0000
0110
0000
1000
0000
0010
0000
0001
0100
,
0010
0000
1000
0000
1100
0000
0010
0000
0001
0000
0100
0000
1001
0000
0010
0100
,
0001
1000
1100
0100
0110
0010
0011
0001
,
2002
0000
0000
0000
,
0000
0000
0000
0000
,
0000
0000
0000
0000
,
0000
0000
0000
0000
,
0000
0000
0000
0000
,
3003
0000
0000
0000
;

//---------------dance-single - ----------------
#NOTEDATA:;
#CHARTNAME:;
#STEPSTYPE:dance-single;
#DESCRIPTION:;
#CHARTSTYLE:;
#DIFFICULTY:Hard;
#METER:12;
#RADARVALUES:0.629660,0.696624,0.339817,0.179903,0.009995,441.000000,407.000000,34.000000,18.000000,0.000000,0.000000,0.000000,0.000000,0.000000,0.629660,0.696624,0.339817,0.179903,0.009995,441.000000,407.000000,34.000000,18.000000,0.000000,0.000000,0.000000,0.000000,0.000000;
#CREDIT:;
#DISPLAYBPM:200.000000;
#NOTES:
0000
0000
0000
0000
,
0000
0000
0000
0000
,
0000
0000
0000
0000
,
0000
0000
0000
0000
,
0000
0000
0000
0000
,
1001
0000
0100
0001
0010
0001
0010
0100
,
1000
0000
0001
0100
0001
0000
1000
0100
,
0000
0010
0001
0100
0001
0010
0001
0100
,
0001
1000
0000
0010
0000
1000
0001
0000
,
0101
0000
1000
0100
1000
0000
0001
0000
,
0100
0001
0010
0001
0010
0100
1000
0000
,
0010
0000
1000
0100
0000
1000
0001
0000
,
0100
0000
0001
0010
0000
0100
1000
0000
,
0001
0000
1000
0010
1000
0100
0010
0001
,
0100
0000
0010
1000
0001
0000
0100
0000
,
0110
0000
1000
0001
0000
1000
0100
0010
,
0001
0000
0100
0010
1000
0000
0001
0010
,
0100
0000
1000
0001
1000
0000
1010
0000
,
0001
0000
0100
0010
1000
0000
1100
0000
,
0101
0000
0010
1000
0100
0010
0001
0000
,
0100
0000
0001
0010
0100
0000
1000
0001
,
1000
0000
0110
0001
0100
0000
0010
0000
,
1000
0000
0000
0010
0000
0000
1000
0000
0001
0000
0000
0000
1010
0000
0000
0000
,
0011
0000
0100
1000
0010
0000
0101
0000
,
1000
0000
0000
0001
0000
0000
1000
0000
0100
0000
0010
0000
0001
0000
0000
0000
,
0200
0000
0010
0000
0000
1000
0000
0000
,
0001
0010
1000
0001
,
0310
0000
1000
0000
0000
0100
1000
0000
,
0001
0010
0000
0010
0100
0000
1000
0001
,
0200
0000
0010
0000
0000
1000
0000
0000
,
0001
0010
1000
0001
,
0310
0000
1000
0100
0000
0100
0001
0000
,
0001
0010
0000
0010
0100
0000
1000
0001
,
1001
0000
0010
0000
1000
0100
0001
0000
,
0010
0000
0001
0000
0100
0001
1000
0000
,
0010
0000
1000
0000
0001
1000
0001
0010
,
0100
1000
0001
0000
0100
0010
1000
0000
,
0201
0010
0000
1000
0000
0010
0000
0001
,
0001
0000
0310
0000
1000
0001
0100
0000
,
0010
0000
0100
0000
0010
1000
0001
0100
,
0001
0000
1000
0010
1000
0100
0010
0001
,
0100
0010
1000
0000
0001
0010
0001
0100
,
0010
0000
0010
0000
1000
0001
1000
0100
,
0010
0000
0001
0000
1000
0001
1000
0100
,
0010
0011
0000
1100
0000
0101
0000
1100
,
0000
1001
0000
0110
0000
1000
0001
0100
,
0010
0000
1000
0000
0100
0010
0001
0000
,
1000
0000
0001
0000
1000
0010
0100
0001
,
0010
0000
0100
0000
1000
0010
0100
0001
,
1000
1100
0000
0011
0000
0101
0000
1010
,
0001
0000
1000
0000
0100
0010
0100
1000
,
0001
0000
0100
0001
1000
0001
0010
0100
,
1000
0010
0100
0000
0001
0010
1000
0000
,
0010
0100
0000
0010
1000
0001
0100
0000
,
0001
0010
0100
0000
2200
0000
3300
0000
,
0001
1000
0000
0001
0100
0010
1000
0000
,
0100
0010
0001
0000
0022
0000
0033
0000
,
0100
0010
0000
0100
0001
1000
0010
0000
,
1000
0001
0100
0000
2020
0000
3030
0000
,
1000
0001
0000
0010
0001
1000
0100
0000
,
0010
1000
0001
0000
0202
0000
0303
0000
,
1001
0100
0010
1000
0000
0001
0001
0000
,
0010
0001
0100
0000
0020
0000
2030
0000
,
3100
0000
0010
0001
0000
1000
0001
0000
,
0100
0010
2000
0000
3002
0000
0103
0000
,
0110
0000
1000
0001
1000
0100
0010
0000
,
0001
0100
0010
0000
2000
0000
3001
0010
,
0001
0000
1000
0010
0000
0010
0100
0000
,
0001
0010
0001
0100
0010
1000
0001
0000
,
1001
0000
0010
1000
0010
0100
0001
0010
,
0100
0010
0001
0100
0010
1000
0001
0010
,
0100
0000
1000
0001
1000
0010
0100
0010
,
1000
0001
0010
0100
0010
0001
0100
0010
,
1010
0000
0100
0001
0010
0001
1000
0001
,
0100
0010
1000
0001
0010
0100
0010
0001
,
1000
0000
0010
1000
0010
0100
0001
0010
,
0100
1000
1100
0000
0110
0000
0011
0000
,
2002
0000
0000
0000
,
0000
0000
0000
0000
,
0000
0000
0000
0000
,
0000
0000
0000
0000
,
0000
0000
0000
0000
,
3003
0000
0000
0000
;

//---------------dance-single - ----------------
#NOTEDATA:;
#CHARTNAME:;
#STEPSTYPE:dance-single;
#DESCRIPTION:;
#CHARTSTYLE:;
#DIFFICULTY:Medium;
#METER:10;
#RADARVALUES:0.558270,0.614668,0.619665,0.219881,0.000000,391.000000,329.000000,62.000000,22.000000,0.000000,0.000000,0.000000,0.000000,0.000000,0.558270,0.614668,0.619665,0.219881,0.000000,391.000000,329.000000,62.000000,22.000000,0.000000,0.000000,0.000000,0.000000,0.000000;
#CREDIT:;
#DISPLAYBPM:200.000000;
#NOTES:
0000
0000
0000
0000
,
0000
0000
0000
0000
,
0000
0000
0000
0000
,
0000
0000
0000
0000
,
0000
0000
0000
0000
,
1001
0000
0100
0000
0001
1000
0001
1000
,
0100
0010
0001
0100
,
0000
0010
1000
0100
1000
0010
0100
0001
,
2000
0002
0000
0000
0000
0000
3003
0000
,
0110
0000
0001
1000
0001
0000
0100
0000
,
0020
0000
1030
0001
1000
0000
0100
0000
,
0010
0000
0001
1000
0001
0000
0100
0000
,
0110
0000
0000
1010
0000
0000
0101
0000
,
1001
0000
1000
0100
0010
0000
0001
1000
,
0002
0000
0103
0010
0100
0000
0001
0000
,
1010
0000
0000
0100
0000
0001
1000
0001
,
0100
0000
0000
0010
0000
1000
0100
0000
,
1001
0000
0010
1000
0010
0000
0100
0000
,
0001
0101
0001
0101
,
1000
0000
0010
1000
0001
0000
0100
0000
,
0010
1010
0010
1010
,
0001
0000
1000
0001
1000
0000
0100
0000
,
0010
0000
0001
0100
0001
0000
1000
0000
,
0010
0000
1000
0100
1000
0000
0001
0000
,
0100
0110
1001
0110
,
2001
0000
0001
0000
,
0100
0000
3001
0000
1000
0000
0000
0010
,
0100
0000
0001
0000
0000
0010
0000
0000
,
0200
1000
0001
1300
,
2100
0010
0001
0000
,
0100
0000
3010
0000
1000
0001
0000
0010
,
0000
0100
0000
1000
0000
0000
0001
0000
,
0200
0010
0001
0310
,
0110
0000
0001
0000
0010
0001
0100
0000
,
1000
0000
0001
0000
1000
0100
1000
0000
,
0010
0000
0100
0000
0010
1000
0010
0000
,
1000
0000
0001
0000
1000
0100
1000
0000
,
0000
1010
0000
0110
0000
1010
0000
0101
,
0000
0000
1000
0000
0001
0010
0001
0000
,
0100
0000
0010
0000
0100
0000
0001
1000
,
0100
0000
0010
0000
0001
1000
0001
1000
,
0010
0000
0100
0000
0001
0100
0001
0000
,
1000
0000
0001
0000
1000
0000
0010
0100
,
0001
0000
0010
0000
0001
0100
0010
0000
,
0000
1010
0000
0101
0000
0011
0000
1100
,
0000
1001
0000
0110
0000
1000
0001
0000
,
0100
0000
0010
0000
0100
0001
1000
0000
,
0010
0000
0010
0000
1000
0001
1000
0000
,
0100
0000
0010
0000
0100
0000
1000
0001
,
0000
0101
0000
0011
0000
1100
0000
1010
,
0000
0000
0010
0000
0100
0001
1000
0001
,
0100
0000
0010
0000
0000
1000
0001
0000
,
1000
0100
0000
0000
0010
0000
0010
0000
,
0011
1100
0101
1100
,
1000
0001
0010
0001
2000
0000
3000
0000
,
1100
0110
0011
1001
,
0100
0001
1000
0001
0200
0000
0300
0000
,
0110
1001
1100
0101
,
0001
0010
0100
0010
0002
0000
0003
0000
,
1100
1001
1010
0011
,
0010
0100
1000
0100
0020
0000
0030
0000
,
1001
0000
0000
0100
0000
0010
1000
0000
,
0001
1000
0001
0000
0020
0000
0230
0000
,
1300
0000
0010
1000
0000
0000
0001
0000
,
0100
0001
2000
0000
3020
0000
0030
0000
,
0101
0000
0000
1000
0000
0001
0100
0000
,
0010
1000
0001
0000
2000
0000
3200
0000
,
0310
0000
0001
0100
0000
0010
1000
0000
,
0100
0010
0002
0000
2003
0000
3001
0100
,
0010
1010
0001
0101
,
1000
0001
0100
0000
0010
0000
1000
0100
,
0010
0011
0100
1100
,
0010
1000
0001
0000
0010
0100
1000
0000
,
1001
0000
1010
0000
1000
0001
0100
0000
,
0001
0010
0100
0000
1000
0000
0001
0100
,
0010
1010
0100
0101
,
0001
0011
0110
1100
,
2002
0000
0000
0000
,
0000
0000
0000
0000
,
0000
0000
0000
0000
,
0000
0000
0000
0000
,
0000
0000
0000
0000
,
3003
0000
0000
0000
;

//---------------dance-single - ----------------
#NOTEDATA:;
#CHARTNAME:;
#STEPSTYPE:dance-single;
#DESCRIPTION:;
#CHARTSTYLE:;
#DIFFICULTY:Easy;
#METER:7;
#RADARVALUES:0.392645,0.573690,0.359806,0.179903,0.000000,275.000000,239.000000,36.000000,18.000000,0.000000,0.000000,0.000000,0.000000,0.000000,0.392645,0.573690,0.359806,0.179903,0.000000,275.000000,239.000000,36.000000,18.000000,0.000000,0.000000,0.000000,0.000000,0.000000;
#CREDIT:;
#DISPLAYBPM:200.000000;
#NOTES:
0000
0000
0000
0000
,
0000
0000
0000
0000
,
0000
0000
0000
0000
,
0000
0000
0000
0000
,
0000
0000
0000
0000
,
1001
0100
0010
0100
,
0001
0010
0001
1000
,
0010
1000
0001
1000
,
0200
0000
0000
0300
,
0110
0000
0001
1000
,
0020
0230
0301
0000
,
1000
0010
0001
0010
,
1000
0100
0010
0001
,
0100
0000
0010
1000
,
0002
2003
3100
0000
,
0110
0000
1000
0001
,
1000
0000
0010
0100
,
1001
0100
0001
0100
,
0010
1000
0001
0100
,
0001
0010
0001
0100
,
0010
1000
0100
0010
,
0001
1000
0001
0010
,
0001
0100
0010
1000
,
0100
0010
0100
1000
,
0001
1000
1000
1000
,
2002
0000
0000
0000
,
0000
0000
0000
0000
,
0000
0000
0000
3003
,
0020
0100
0100
0130
,
0210
0000
0000
0000
,
0001
0000
0000
0000
,
1000
0000
0000
0300
,
0002
1000
1000
1003
,
1002
0000
0010
0000
,
1000
1000
1000
1003
,
0001
0001
0001
0001
,
0200
0010
0010
0310
,
0110
0000
0001
0000
,
1000
1000
1000
0000
,
0001
0001
1000
1000
,
0001
1000
0100
0100
,
0110
0000
0010
0001
,
0100
0010
0100
0001
,
1000
0001
1000
0010
,
1000
0100
0010
0001
,
1001
0100
0010
0100
,
0001
0001
1000
1000
,
0100
0010
0001
0100
,
0001
1000
0001
0100
,
1001
0000
0010
0000
,
1000
0001
1000
0100
,
0010
0001
0010
0100
,
1000
0001
1000
0010
,
1001
1000
1001
0001
,
0110
1001
0110
0000
,
1001
1000
1001
0001
,
0110
1001
0110
0000
,
1001
1000
1001
0001
,
0110
1001
0110
0000
,
1001
1000
1001
0001
,
0110
1001
0110
0000
,
1001
0000
0000
0010
0000
0000
1000
0000
,
0000
0100
0010
0001
,
1000
0000
0000
0001
0000
0000
1000
0000
,
0000
0020
0230
0300
,
0110
0000
0000
0001
0000
0000
1000
0000
,
0000
0001
0010
0100
,
1000
0000
0000
0010
0000
0000
0100
0000
,
0000
0002
2003
3001
,
1001
0010
1000
0001
,
1000
0100
0010
0001
,
0100
0001
0010
0100
,
0010
0001
0100
1000
,
0110
1000
0001
1000
,
0010
1000
0100
0010
,
0001
0100
0010
1000
,
0001
1000
1000
1000
,
2002
0000
0000
0000
,
0000
0000
0000
0000
,
0000
0000
0000
0000
,
0000
0000
0000
0000
,
0000
0000
0000
0000
,
3003
0000
0000
0000
;

//---------------dance-single - ----------------
#NOTEDATA:;
#CHARTNAME:;
#STEPSTYPE:dance-single;
#DESCRIPTION:;
#CHARTSTYLE:;
#DIFFICULTY:Beginner;
#METER:4;
#RADARVALUES:0.198464,0.269355,0.139924,0.019989,0.000000,139.000000,125.000000,14.000000,2.000000,0.000000,0.000000,0.000000,0.000000,0.000000,0.198464,0.269355,0.139924,0.019989,0.000000,139.000000,125.000000,14.000000,2.000000,0.000000,0.000000,0.000000,0.000000,0.000000;
#CREDIT:;
#DISPLAYBPM:200.000000;
#NOTES:
// measure 0
0000
0000
0000
0000
,  // measure 1
0000
0000
0000
0000
,  // measure 2
0000
0000
0000
0000
,  // measure 3
0000
0000
0000
0000
,  // measure 4
0000
0000
0000
0000
,  // measure 5
1001
0000
0000
0000
,  // measure 6
0010
0000
0000
0000
,  // measure 7
0100
0000
0100
0000
,  // measure 8
0100
0000
0000
0000
,  // measure 9
0110
0000
0000
0000
,  // measure 10
0001
0001
0000
0000
,  // measure 11
1000
0000
0000
0000
,  // measure 12
0001
0000
0000
1000
,  // measure 13
1000
0000
0000
0000
,  // measure 14
0010
0010
0000
0000
,  // measure 15
0110
0000
0000
0000
,  // measure 16
0000
0000
0000
0000
,  // measure 17
0000
1000
0000
1000
,  // measure 18
0000
0001
0000
0001
,  // measure 19
0000
0100
0000
0100
,  // measure 20
0000
0010
0000
0010
,  // measure 21
0000
1000
0000
1000
,  // measure 22
0000
0100
0000
0100
,  // measure 23
0000
0010
0000
0010
,  // measure 24
0000
0001
0001
0001
,  // measure 25
0000
0200
0000
0000
,  // measure 26
0000
0000
0000
0000
,  // measure 27
0300
0000
0000
0000
,  // measure 28
1001
0000
0000
0000
,  // measure 29
0020
0000
0000
0000
,  // measure 30
0000
0000
0000
0000
,  // measure 31
0030
0000
0000
0000
,  // measure 32
1001
0000
0000
0000
,  // measure 33
0110
0000
0000
0000
,  // measure 34
0001
0001
0000
0000
,  // measure 35
1000
1000
0000
0000
,  // measure 36
0001
0001
0000
0000
,  // measure 37
1001
0000
0000
0000
,  // measure 38
0100
0100
0000
0000
,  // measure 39
0010
0000
0010
0000
,  // measure 40
1000
0000
0001
0000
,  // measure 41
1001
0000
0000
0000
,  // measure 42
0100
0100
0100
0000
,  // measure 43
0010
0000
1000
0000
,  // measure 44
0100
0000
0010
0000
,  // measure 45
0110
0000
0001
0001
,  // measure 46
0001
0000
1000
0000
,  // measure 47
0001
0000
0010
0000
,  // measure 48
0100
0000
1000
1000
,  // measure 49
1000
0000
0000
0000
,  // measure 50
0001
0001
0001
0000
,  // measure 51
0100
0000
0010
0000
,  // measure 52
0100
0000
0001
0000
,  // measure 53
1000
0000
0010
0000
,  // measure 54
0100
0000
0110
0000
,  // measure 55
0001
0000
0010
0000
,  // measure 56
0100
0000
0110
0000
,  // measure 57
1000
0000
0001
0000
,  // measure 58
1000
0000
1001
0000
,  // measure 59
0010
0000
1000
0000
,  // measure 60
0100
0000
1001
0000
,  // measure 61
0001
0000
0001
0000
,  // measure 62
0001
0000
0010
0000
,  // measure 63
0100
0000
0100
0000
,  // measure 64
1000
0000
1000
0000
,  // measure 65
0010
0000
0010
0000
,  // measure 66
1000
0000
0001
0000
,  // measure 67
0010
0000
0100
0000
,  // measure 68
1000
0000
1000
0000
,  // measure 69
0001
0000
0010
0000
,  // measure 70
0001
0000
0100
0000
,  // measure 71
0010
0000
1000
0000
,  // measure 72
0100
0000
0100
0000
,  // measure 73
0010
0000
0001
0000
,  // measure 74
1000
0000
0001
0000
,  // measure 75
0100
0000
0010
0000
,  // measure 76
0100
0000
0001
0000
,  // measure 77
1001
0000
0000
0000
;
