#TITLE:AFRONOVA;
#SUBTITLE:(25th Anniversary Special);
#ARTIST:RE-VENGE;
#BANNER:AFRONOVA (25th Anniversary Special)-bn.png;
#BACKGROUND:AFRONOVA (25th Anniversary Special)-bg.png;
#JACKET:AFRONOVA (25th Anniversary Special)-jacket.png;
#MUSIC:AFRONOVA (25th Anniversary Special).ogg;
#SAMPLESTART:28.8;
#SAMPLELENGTH:20;
#DISPLAYBPM:100:400;
#BPMS:0=100,16=400,144=200,176=400,240=100,256=200,280=400,344=100;
#STOPS:251.5=0.3,279=0.075,279.25=0.075,279.5=0.075,279.75=0.075;
#BGCHANGES:;

//---------------dance-single - ----------------
#NOTES:
     dance-single:
     :
     Challenge:
     17:
     :
0000
0000
0000
0000
,
0000
0000
0000
0000
,
0000
0000
0000
0000
,
0000
0000
0000
0000
0000
0000
0000
0000
1000
1100
0000
0101
0000
1100
0000
0101
,
1001
0000
0010
0000
1000
0000
0001
1000
,
0010
0100
0001
0010
,
0100
0000
1000
0000
0010
0000
1000
0001
,
0100
0001
0010
0100
,
0010
0000
0001
0000
0100
0000
0010
1000
,
0100
0010
0001
0100
,
0001
0010
1000
0100
,
0010
0001
0100
1000
,
0010
0100
1001
0010
,
1000
0100
1000
0000
0001
0000
0010
0000
,
0100
0000
0010
0000
0001
0000
0100
0010
,
1000
0010
0100
0000
0001
0000
1000
0000
,
0100
0010
0001
0100
,
0001
1000
0100
0010
,
0001
0100
0001
0010
,
1000
0100
1000
0001
,
0100
0010
1010
0001
,
1000
0100
0011
0100
,
0001
0010
1001
0100
,
0010
1000
1100
0001
,
0010
0100
0110
1000
,
0010
0100
0101
0010
,
0001
0100
0110
1000
,
0001
0000
1000
0100
1000
0100
1000
0100
,
0010
0001
0011
1000
,
0001
0100
1001
1000
,
1010
1010
0100
0011
,
0011
0100
1001
0010
,
1000
0001
1100
0010
,
0100
1000
0110
0001
,
1000
0010
1001
0100
,
0010
1000
0001
0100
,
0010
1000
0000
0100
1100
0100
0110
0010
,
0011
0100
1001
0010
2020
0000
0030
0000
,
3001
1000
0000
0010
0110
0100
0101
0001
,
0011
1000
1100
0010
0202
0000
0003
0000
,
0310
0100
0000
0001
1001
0010
1010
1000
,
0110
0001
0101
1000
2200
0000
3000
0000
,
1300
0010
0000
0100
0110
0010
1001
0100
,
0101
1000
1100
0001
0022
0000
0003
0000
,
0031
0100
0010
1000
,
0100
0000
0010
0000
0001
0000
1000
0010
,
0100
0001
0010
0100
,
1000
0000
0001
0010
0001
0000
1000
0100
,
1000
0000
0010
0100
0010
0000
1000
0001
,
1000
0100
0010
0001
,
0100
0010
0100
0001
,
1000
0000
0010
0000
0001
0000
0100
0010
,
0100
0000
0001
0000
0010
0000
0001
1000
,
0100
1000
0010
0100
,
0001
0010
1000
0100
,
1000
0001
0010
0000
0100
0000
1000
0000
,
0001
0100
0010
0100
,
0001
0000
0010
0000
0001
1000
0100
0000
,
1000
0010
1000
0000
0001
0010
0001
0000
,
1000
0100
0010
0001
0100
0010
1000
0001
,
0100
0000
0001
0010
0001
0100
0010
1000
0001
0000
1000
0100
0010
0001
0100
0000
,
0110
0000
0010
1000
0001
0001
0100
1000
1000
0010
1000
0001
0010
0100
1000
0000
,
1100
0000
0010
1000
0001
1000
0100
0010
0001
0000
0100
0010
1000
1000
1000
0000
,
1001
0000
0000
1001
0000
0000
1100
0101
1100
0101
1100
0000
,
0011
0000
0001
0100
1000
0010
1000
0100
,
0001
0010
1001
0000
0100
0010
1001
0000
,
1000
1000
0010
0010
0001
0001
0100
0000
,
0110
0110
1000
0001
1000
0100
0010
0001
,
0100
0010
1000
0000
1001
0010
1000
0000
,
0100
0000
0100
0000
0001
0000
0001
0000
0010
0000
0010
0000
0001
0100
0010
1000
,
1100
0001
1000
1010
,
0001
0100
0110
0010
,
1000
0100
0001
0010
,
0001
0100
1000
0010
,
0110
0100
0001
0011
,
1000
0001
0101
0100
,
0010
1000
1001
0100
,
0001
0000
0010
0100
0010
0100
0010
0100
,
1000
0001
1000
0101
,
0010
1000
1100
0001
,
0010
0010
0001
0100
,
0100
0010
1000
0001
,
0011
1000
0001
1010
,
0100
0010
1001
1000
,
0001
0100
0001
0010
,
1000
0100
1000
0001
,
0200
0000
0000
0000
0010
0000
0000
0000
1300
0000
0100
0000
0001
0000
0010
0100
2000
0000
0001
0000
0001
0000
0000
0000
3100
0000
1000
0000
0001
0000
0010
0000
,
0001
0100
0010
1000
0001
0100
1000
0000
0010
0100
0010
2000
0001
0100
3100
1000
,
0001
0000
0100
0000
0010
0000
1000
0000
0001
0000
0010
0000
0001
0000
1000
0000
0100
0000
0001
0000
0100
0000
1000
0000
0010
0100
0000
0100
0001
0000
2000
0000
,
0010
0001
3001
0100
0010
1000
0002
0000
1000
1000
0010
0010
1000
1003
0001
0100
,
0120
0000
0000
1000
0100
0001
1000
0100
0031
0110
0000
0000
;
