#TITLE:ACROSS THE BOARDERS;
#ARTIST:B.BANDJ;
#BANNER:ACROSS THE BOARDERS-bn.png;
#BACKGROUND:ACROSS THE BOARDERS-bg.png;
#JACKET:ACROSS THE BOARDERS-jacket.png;
#MUSIC:ACROSS THE BOARDERS.ogg;
#OFFSET:0.667;
#SAMPLESTART:33.625;
#SAMPLELENGTH:20;
#DISPLAYBPM:182;
#BPMS:0=182;
#BGCHANGES:;

//---------------dance-single - ----------------
#NOTES:
     dance-single:
     :
     Beginner:
     2:
     :
0000
0000
0000
0000
,
0000
0000
0000
0000
,
0000
0000
0000
0000
,
0000
0000
0000
0000
,
0000
0000
0000
0000
,
0000
0000
0000
0000
,
0010
0000
0100
0000
,
0010
0000
1000
0000
,
0001
0000
1000
0000
,
0100
0000
0000
0000
,
0010
0000
1000
0000
,
0001
0000
0010
0000
,
0001
0000
0100
0000
,
1000
0000
0001
0000
,
0000
0000
0001
0000
,
0100
0000
1000
0000
,
0010
0000
0100
0000
,
0001
0000
0000
0000
,
1001
0000
0110
0000
,
1000
0000
0001
0000
,
0100
0000
0100
0000
,
0010
0000
0010
0000
,
1001
0000
0110
0000
,
0000
0000
0100
0000
,
0001
0000
0010
0000
,
0001
0000
0000
0000
,
1000
0000
1000
0000
,
1000
0000
0000
0000
,
0010
0000
1000
0000
,
0001
0000
0100
0000
,
0001
0000
0010
0000
,
0001
0000
0001
0000
,
1000
0000
0001
0000
,
0100
0000
0100
0000
,
0000
0000
0010
0000
,
1000
0000
0001
0000
,
0100
0000
0010
0000
,
0110
0000
1001
0000
,
0000
0000
1000
0000
,
0100
0000
0001
0000
,
0010
0000
0000
0000
,
0110
0000
1001
0000
,
0010
0000
1000
0000
,
0001
0000
0000
0000
,
0010
0000
0001
0000
,
0100
0000
0000
0000
,
0001
0000
0010
0000
,
1000
0000
0000
0000
,
0100
0000
1000
0000
,
0001
0000
0000
0000
,
0010
0000
0010
0000
,
0010
0000
0000
0000
,
0001
0000
0001
0000
,
0001
0000
0000
0000
,
0100
0000
0100
0000
,
0100
0000
0000
0000
,
1000
0000
1000
0000
,
1000
0000
0000
0000
,
0001
0000
0000
0000
;

//---------------dance-single - ----------------
#NOTES:
     dance-single:
     :
     Easy:
     7:
     :
0000
0000
0000
0000
,
0000
0000
0000
0000
,
0000
0000
0000
0000
,
0000
0000
0000
0000
,
0000
0000
0000
0000
,
0000
0000
0000
0000
,
0010
0010
1000
1000
,
0001
0010
1000
0100
,
0010
0001
0010
0001
,
0100
0100
0100
0000
,
0010
1000
0010
0100
,
0001
0010
1000
0000
,
0100
1000
0001
0000
,
1000
0001
0100
0010
,
0100
0000
0001
1000
,
0100
1000
0001
1000
,
0100
0010
0001
0100
,
0010
0010
0010
0000
,
0001
0001
0001
0000
,
1000
0100
0001
0000
,
0010
0001
0100
0001
,
1000
0100
0100
0000
,
1001
0110
1001
0000
,
0010
1000
0001
0000
,
0100
0001
0010
0001
,
0100
0100
0110
0000
,
0001
0100
0001
0010
,
0001
0100
0010
1000
,
0100
0010
0100
1000
,
0001
0010
0001
0100
,
0010
0100
0010
1000
,
0100
0010
0001
0100
,
0001
0010
0001
1000
,
0001
0100
1000
0010
,
0100
0010
0100
0001
,
1000
0100
0010
0001
,
1000
0001
1000
0100
,
0010
0100
0010
0001
,
0100
0010
0100
0001
,
0010
0100
0010
0001
,
0100
0010
1000
0001
,
0100
0100
0100
0010
,
0110
0000
1001
0000
,
0001
0100
1000
0000
,
0110
0000
1001
0000
,
1000
0010
0001
0100
,
0010
0010
1000
0001
,
0100
0010
0100
0000
,
1001
0000
0110
0000
,
1000
0100
0001
0000
,
0110
0000
0001
0100
,
0010
1000
0001
0000
,
1001
0000
0100
0001
,
0010
0100
1000
0000
,
0010
0000
0010
1000
,
0100
0001
1000
0000
,
0010
0000
0100
0000
,
0001
0010
0001
1000
,
0010
0000
0100
0000
;

//---------------dance-single - ----------------
#NOTES:
     dance-single:
     :
     Medium:
     10:
     :
0000
0000
0000
0000
,
0000
0000
0000
0000
,
0000
0000
0000
0000
,
0000
0000
0000
0000
,
0000
0000
0000
0000
,
0000
0000
0000
0000
,
0010
1000
0010
0100
0001
1000
0000
0000
,
0001
0100
1000
0100
0001
0000
0000
0000
,
0010
0000
0000
0001
0000
0000
0100
0000
,
0010
1000
0010
0000
0100
0000
0000
0000
,
0001
0100
0010
0000
1000
0001
0000
0000
,
0010
0001
0100
0010
1000
0100
0001
0000
,
0010
0001
1000
0000
0001
1000
0010
0000
,
1000
0000
0001
0000
0100
0010
1000
0000
,
1001
0000
0010
1000
0100
1000
0001
0000
,
0010
0001
0100
0010
1000
0100
0001
0000
,
0010
0001
0100
0000
0010
1000
0100
0000
,
1000
0010
0001
0100
0010
0000
0000
0000
,
0001
0000
0000
0000
0100
0000
0001
0000
0000
0000
0100
0000
0001
0000
0000
0000
0000
0000
1000
0000
0000
0010
0000
0000
,
0000
0100
0010
1000
0001
0000
0010
0001
,
0000
0100
0000
0010
0000
1000
0100
0001
,
0000
0010
0001
0000
0100
0001
0000
0000
,
1000
0000
1000
0000
1000
0000
1000
0000
0001
0000
0100
0000
,
0000
0010
1000
0010
0100
0000
0000
0000
,
0001
0100
1000
0000
0010
1000
0001
0100
,
0010
0010
0101
0000
,
1001
0000
0110
0000
1000
0100
0001
0000
,
0010
0001
0100
0000
1000
0010
0100
0000
,
0001
0000
0010
0100
0000
0100
1000
0000
,
0001
0100
0010
0000
1010
0000
0000
0001
,
0100
0000
0100
0010
1000
0000
0100
1000
,
0000
1000
0001
0000
0011
0000
0000
0010
,
0100
1000
0001
0000
0100
0010
1000
0000
,
0001
0010
1000
0000
0001
0100
1000
0000
,
0110
0000
0001
0100
0010
0100
0001
0000
,
1000
0100
0010
0001
0100
0010
1000
0000
,
0101
0000
0010
1000
0100
0000
0001
0000
,
0010
0001
0100
0001
1000
0100
0010
0000
,
0001
1000
0000
0001
1000
0010
0100
0001
,
0010
0000
0001
0010
1000
0000
0100
1000
,
0000
0001
0000
0000
0100
0010
1000
0000
,
0001
0100
1000
0100
0001
0000
0000
0000
,
0101
0000
0000
0000
0010
1000
0001
0000
,
1100
0110
0011
0000
,
0101
0000
0000
0000
0001
0010
1000
0000
,
0110
1001
0110
0000
,
0001
1000
0000
0000
0010
0000
0100
0001
,
1000
0000
1100
0000
0011
0000
0000
0100
,
0010
0000
1000
0000
0010
1000
0001
0100
,
0010
0000
1000
0001
0100
0000
0101
0000
,
1100
0000
0000
0000
0001
0100
0010
0000
,
1000
0100
0001
0000
0011
0000
0000
0000
,
1010
0000
0000
0000
0100
0001
1000
0000
,
0001
0010
0100
0010
0001
0000
0000
0000
,
0110
0000
0000
0000
0001
0100
0010
1000
,
0100
0000
0100
0000
1001
0000
0000
0010
,
0100
0000
0000
0010
1000
0100
0001
0000
,
0010
0100
1000
0001
,
0100
0001
0100
0010
0000
0000
0000
0000
;

//---------------dance-single - ----------------
#NOTES:
     dance-single:
     :
     Hard:
     13:
     :
0000
0000
0000
0000
,
0000
0000
0000
0000
,
0000
0000
0000
0000
,
0000
0000
0000
0000
,
0000
0000
0000
0000
,
0000
0000
0000
0000
,
0010
0000
0000
1000
0010
0000
0000
1000
0100
0000
0000
0010
0001
0000
0000
0000
,
0100
0000
0000
0001
0100
0000
0000
0010
1000
0000
0000
0001
0100
0000
0000
0000
,
0001
0000
0000
1000
0001
0000
0000
0010
0100
0000
0000
0010
0001
0000
0000
0000
,
1000
0000
0000
0100
1000
0000
0000
0100
0010
0000
0000
0001
0100
0000
0000
0000
,
0010
1000
0100
0010
0001
0100
0001
1000
,
0010
0000
0000
1000
0000
0000
0001
0000
1000
0000
0100
0000
0010
0000
0000
0001
,
0100
0010
0100
1000
0100
0001
0010
0100
,
1000
0000
0000
0000
0001
0000
0000
0010
0000
0000
0001
0000
1000
0000
0000
0000
,
1001
0010
1000
0100
1000
0010
0100
0001
,
0010
0100
1000
0010
1000
0100
0001
0100
,
1000
0010
1000
0001
0010
0100
1000
0001
,
0010
0001
0100
1000
0010
0000
0110
0000
,
0001
0000
0100
0000
0001
0000
0100
0000
0001
0000
0100
0000
0001
0000
0000
0000
0000
0000
1000
0000
0000
1000
0000
0000
,
0000
0010
0100
0010
1000
0000
0001
0001
,
0000
0010
0000
0001
0100
0010
0100
0001
,
1000
0100
0010
0000
0001
0100
1000
0000
,
1010
0000
1010
0000
1010
0000
1010
0000
0001
0000
1000
0000
,
0000
0000
0010
0000
1000
0000
0100
0000
0001
0000
0010
0000
0000
0000
0000
0001
,
0100
0000
0000
0010
1000
0000
0000
0000
0100
0000
0010
0000
0001
0000
1000
0000
,
0010
0000
0000
0000
0101
0000
0000
0000
1100
0000
0000
0001
0100
0000
0000
0000
,
1001
0000
0010
1000
0100
0001
0100
0010
,
0100
0000
1000
0000
0001
0000
0000
0000
0100
0000
0000
0010
0000
0000
0100
0000
,
0001
0010
0100
1000
0000
0001
0100
1000
,
0100
0000
0010
0000
1000
0000
0000
0000
0101
0000
0000
0000
1010
0000
0000
0001
,
1000
0000
0100
1000
0001
0100
0010
1000
,
0000
0000
0100
0000
0100
0000
1000
0000
0001
0000
1000
0000
0100
0000
0000
0010
,
0001
0000
0000
0010
0100
0000
0000
0000
1100
0000
0010
0000
0100
0000
0001
0000
,
0010
0000
0100
0000
1000
0000
0000
0000
0001
0000
0100
0000
1000
0000
0000
0010
,
0100
0000
0000
0000
0001
1000
0001
0000
0010
0000
0100
0000
1000
0000
0010
0000
,
0100
0001
0010
0100
1000
0010
0100
0001
,
1000
0000
0010
1000
0001
0010
0100
0000
,
1000
0000
0001
0000
0010
0000
0100
0000
0010
0000
0001
0000
0011
0000
0000
1000
,
0100
0000
0000
0000
0010
0000
0001
0000
0100
0000
0010
0000
1000
0001
1000
0000
,
0010
0000
0010
1000
0100
0001
0100
0010
,
0001
0100
1000
0000
0010
1000
0100
0001
,
0010
0100
0010
0100
1000
0001
0100
0000
,
0101
0000
0000
0000
0000
0000
0000
0010
1000
0000
0100
0000
0010
0000
0000
0000
,
0001
0000
0100
0000
1000
0000
0000
0000
1010
0000
0000
0000
0000
0000
0000
0001
,
1000
0000
0000
0000
0000
0000
0000
0001
0010
0000
0100
0000
1000
0000
0000
0000
,
0010
0000
0100
0000
0001
0000
0000
0000
1010
0000
0000
0000
0001
0000
0000
1000
,
0001
0000
0000
0100
0010
0000
0000
0000
0110
0000
0000
0000
0001
0000
1000
0000
,
0001
0000
0000
0000
0010
0000
0100
0000
1001
0000
0000
0000
0100
0000
0000
0100
,
0010
0000
0000
0000
1000
0000
0000
0001
1000
0000
0100
0000
0010
0000
0001
0000
,
0100
0000
0001
0000
0100
0000
1000
0000
0100
0000
0000
0001
1000
0000
0000
0001
,
0100
0000
0010
1000
0001
0010
0001
0100
,
0010
0000
1000
0000
0001
0000
0000
0000
0011
0000
0000
0000
1100
0000
0000
0001
,
0100
0000
0000
0000
0010
0000
0000
0010
1000
0000
0100
0000
1000
0000
0001
0000
,
0100
0000
1000
0000
0100
0000
0001
0000
0011
0000
0000
0001
1000
0000
0000
0000
,
0101
0000
0000
0000
0000
0000
0000
0010
1000
0000
0001
0000
1000
0000
0100
0000
,
0010
0000
0001
0000
0100
0000
0000
0000
1000
0000
0000
0000
0001
0000
0000
1000
,
0100
0000
0000
0000
0010
0000
0000
0001
1000
0000
0001
0000
0100
0000
1000
0000
,
1001
0000
0000
0000
0110
0000
0000
0010
1000
0000
0000
0000
0001
0000
0000
0000
,
0100
0000
0001
0000
0100
0000
0010
0000
0000
1000
0000
0000
0000
0000
0000
0000
;

//---------------dance-single - ----------------
#NOTES:
     dance-single:
     :
     Challenge:
     16:
     :
0000
0000
0000
0000
,
0000
0000
0000
0000
,
0000
0000
0000
0000
,
0000
0000
0000
0000
,
0000
0000
0000
0000
,
0000
0000
0000
0000
,
0010
0000
1000
0100
0010
0000
0001
0100
0010
0000
1000
0000
0000
0000
0001
0010
,
0100
0010
0001
0000
1000
0000
0010
0100
0010
0000
1000
0000
0001
0000
1000
0000
,
0100
0000
0010
0001
0010
0000
0100
0000
1000
0001
0100
0001
1000
0000
0000
0010
,
1000
0100
0000
0010
0001
0000
0000
0100
0010
0000
0000
1000
0001
0000
0000
0000
,
0000
0010
0000
0001
0000
0100
0000
0010
1000
0100
0010
0001
0000
0000
0100
0000
,
0010
0000
1000
0000
0001
0000
0010
0001
1000
0000
0000
0100
0010
0000
0000
0001
,
1000
0000
0010
0000
0100
0000
0001
0000
0010
0000
0100
0000
1000
0001
0010
0000
,
1000
0000
0000
0000
0001
0000
0011
0000
0000
0110
0000
0000
1100
0000
0000
0000
,
1001
0000
0000
0010
1000
0000
0000
0100
0010
0000
0001
0000
0100
0001
1000
0000
,
0010
0000
0100
0000
0010
1000
0001
0000
0010
0000
0100
0000
1000
0000
0001
0100
,
0010
0000
0100
0000
1000
0000
0100
0000
0010
0000
0001
0100
1000
0000
0010
1000
,
0001
0000
0010
0100
1000
0000
0001
0000
0100
0000
0000
0010
1000
0000
0000
0000
,
0001
0000
0100
0000
0010
0000
1000
0000
0100
0000
0010
0000
0001
0000
0000
0000
0000
0000
0110
0000
0000
1001
0000
0000
,
0010
0000
1000
0100
1000
0000
0001
0000
0001
0000
0010
0000
0001
0000
1000
0000
,
0100
0000
0010
0000
0001
0000
0100
0010
0000
1000
0001
0000
0010
0000
0100
0000
,
1000
0010
0001
0000
0101
0010
1000
0000
,
1100
0000
0101
0000
1100
0000
0101
0000
0011
0000
1100
0000
,
0000
0000
0001
0000
0001
0000
0100
0000
1000
0000
0010
0000
0100
0000
0000
0001
,
1000
0000
0010
0000
0100
0001
0000
0000
0010
0000
0001
0000
0100
0010
1000
0000
,
0001
0000
0000
0000
0001
0000
0000
0000
1010
0000
0000
0100
1000
0000
0000
0000
,
1000
0100
1000
0000
0001
0100
0001
0000
1000
0010
1000
0000
0001
0010
0001
0000
,
0100
0010
0100
0000
0001
0010
0001
0000
0010
0100
0010
0000
0001
1000
0001
0000
,
0010
0001
0010
0000
0001
1000
0001
0000
0010
0100
0010
0000
0100
0010
0100
0000
,
1000
0010
1000
0000
0001
0010
0001
0000
0010
0100
0010
0000
0001
1000
0001
0000
,
1000
0100
1000
0000
0001
0010
0001
0000
0010
0100
0010
0000
0100
1000
0100
0000
,
1000
0001
1000
0000
0001
0010
0001
0000
0010
0100
0010
0000
0001
0100
0001
0000
,
0100
0001
0100
0000
0001
0100
0001
0000
0010
0100
0010
0000
0001
1000
0001
0000
,
1000
0100
1000
0000
0010
0100
0010
0000
1000
0001
1000
0000
0001
0010
0001
0000
,
0010
0001
1000
0000
0010
1000
0100
0000
1000
0001
0010
0000
0100
0010
0001
0000
,
0100
0001
1000
0000
0010
1000
0100
0000
1000
0001
0010
0000
0001
1000
0100
0000
,
0010
0100
1000
0000
0010
1000
0001
0000
0100
0001
0010
0000
0100
1000
0001
0000
,
0100
0001
0010
0000
0001
0010
0100
0000
1000
0001
0100
0000
0010
1000
0100
0000
,
0010
0001
1000
0000
0010
0100
1000
0000
0100
0010
0001
0000
1000
0001
0100
0000
,
0001
0100
0010
0000
1000
0100
0010
0000
0100
1000
0001
0000
0010
0001
0100
0000
,
0001
0010
1000
0000
0100
0010
0001
0000
0100
0010
1000
0000
0100
1000
0001
0000
,
0010
0001
0100
0000
0010
1000
0100
0000
0010
0001
0100
0000
0010
1000
0100
0000
,
1001
0000
0000
0000
0010
0000
0000
0001
0100
0000
0010
0000
1000
0000
0001
0000
,
0100
0000
0010
1000
0001
0000
0000
0000
1010
0000
0000
0000
0100
0000
0000
1000
,
0001
0000
0000
0000
0010
0000
0000
0001
1000
0000
0010
0000
0100
0000
0001
0000
,
0010
0000
0100
1000
0001
0000
0100
0010
1000
0000
0000
0000
0001
0100
0000
0001
,
0100
0000
0000
0010
1000
0000
0000
0100
0010
0000
0001
0000
1000
0001
0100
0000
,
0010
0000
0000
0000
1000
0000
0001
0000
0011
0000
0000
0000
1100
0000
0000
0010
,
0100
0000
0000
0000
0110
0000
0000
0010
1000
0100
1000
0000
0001
0000
0010
0000
,
0001
0000
0100
0010
1000
0000
0000
0000
0101
0000
0000
0010
1000
0000
0000
0010
,
1000
0000
0000
0000
0100
0000
0010
0000
0001
0000
0100
0000
0010
1000
0001
0000
,
1000
0100
0010
0001
0100
0000
0000
0010
1000
0000
0000
0001
0100
0000
0000
0010
,
1000
0000
0000
0000
0001
0000
0000
0010
0001
0000
0100
0000
0010
0000
1000
0000
,
0100
0000
0001
0000
0100
0000
1000
0000
0010
0100
0001
0000
1000
0000
0000
0000
,
1001
0000
0000
0000
0010
0000
0000
1000
0001
0000
0010
0000
0001
0000
0100
0000
,
0010
0000
1000
0000
0100
0000
0000
0000
0110
0000
0000
0000
0001
0000
0000
1000
,
0100
0000
0000
0000
1001
0000
0000
0010
1000
0000
0100
0000
0001
0000
0100
0000
,
1000
0000
0000
0000
0001
0000
0000
0100
0010
1000
0000
0000
0101
0000
0000
0000
,
0100
0000
0010
0000
0100
0000
0001
0000
0000
1000
0000
0000
0000
0000
0000
0000
;
