#VERSION:0.83;
#TITLE:A thing called LOVE;
#SUBTITLE:;
#ARTIST:D-crew 2 US;
#TITLETRANSLIT:;
#SUBTITLETRANSLIT:;
#ARTISTTRANSLIT:;
#GENRE:;
#ORIGIN:;
#CREDIT:;
#BANNER:A thing called LOVE-bn.png;
#BACKGROUND:A thing called LOVE-bg.png;
#PREVIEWVID:;
#JACKET:A thing called LOVE-jacket.png;
#CDIMAGE:;
#DISCIMAGE:;
#LYRICSPATH:;
#CDTITLE:;
#MUSIC:A thing called LOVE.ogg;
#OFFSET:0.000000;
#SAMPLESTART:16.120001;
#SAMPLELENGTH:20.000000;
#SELECTABLE:YES;
#DISPLAYBPM:160.000000;
#BPMS:0.000=160.010;
#STOPS:;
#DELAYS:;
#WARPS:;
#TIMESIGNATURES:0.000=4=4;
#TICKCOUNTS:0.000=4;
#COMBOS:0.000=1;
#SPEEDS:0.000=1.000=0.000=0;
#SCROLLS:0.000=1.000;
#FAKES:;
#LABELS:0.000=Song Start;
#BGCHANGES:0.000=A thing called LOVE.avi=1.000=0=0=0=StretchNoLoop====,
99999=-nosongbg-=1.000=0=0=0 // don't automatically add -songbackground-
;
#KEYSOUNDS:;
#ATTACKS:
;

//---------------dance-single - ----------------
#NOTEDATA:;
#CHARTNAME:;
#STEPSTYPE:dance-single;
#DESCRIPTION:;
#CHARTSTYLE:;
#DIFFICULTY:Beginner;
#METER:3;
#RADARVALUES:0.121952,0.182538,0.054489,0.000000,0.000000,94.000000,88.000000,6.000000,0.000000,0.000000,0.000000,0.000000,0.000000,0.000000,0.121952,0.182538,0.054489,0.000000,0.000000,94.000000,88.000000,6.000000,0.000000,0.000000,0.000000,0.000000,0.000000,0.000000;
#CREDIT:;
#DISPLAYBPM:160.000000;
#NOTES:
0000
0000
0000
0000
,
0000
0000
0000
0000
,
0000
0000
0000
0000
,
0001
0000
0000
0000
,
1000
0000
0000
0000
,
1001
0000
0000
0000
,
0110
0000
0000
0000
,
1000
0000
0000
0000
,
0010
0000
0000
0000
,
0100
0000
0100
0000
,
0001
0000
0000
0000
,
1000
0000
0000
0000
,
0010
0000
0000
0000
,
0001
0000
0010
0000
,
1000
0000
0000
0000
,
0001
0000
0000
0000
,
0100
0000
0000
0000
,
1000
0000
0100
0000
,
0001
0000
0000
0000
,
1000
0000
0000
0000
,
0010
0000
0000
0000
,
0100
0000
0001
0000
,
1000
0000
0100
0000
,
0001
0000
0000
0000
,
0010
0000
0000
0000
,
0100
0000
1000
0000
,
0010
0000
0100
0000
,
0100
0000
0000
0000
,
0001
0000
0000
0000
,
0010
0000
0100
0000
,
1000
0000
0000
0000
,
0010
0000
0000
0000
,
0100
0000
0000
0000
,
0010
0000
0000
0000
,
0100
0000
0010
0000
,
0001
0000
0000
0000
,
1000
0000
0000
0000
,
0100
0000
0010
0000
,
0001
0000
0000
0000
,
1000
0000
0000
0000
,
0001
0000
0000
0000
,
1001
0000
0000
0000
,
0000
0000
0000
0000
,
1000
1000
0000
0000
,
0010
0000
0001
0000
,
0100
0100
0000
0000
,
0010
0000
0000
0000
,
0001
0000
0100
0000
,
0010
0010
0000
0000
,
0100
0000
0010
0000
,
0110
0000
0000
0000
,
0100
0100
0000
0000
,
0001
0000
0010
0000
,
1000
1000
0000
0000
,
0001
0000
0000
0000
,
0100
0000
0010
0000
,
1000
0000
0001
0000
,
1000
0000
0010
0000
,
0001
0000
0000
0000
,
1000
0000
0000
0000
,
0001
0000
0000
0000
,
0110
0000
0000
0000
,
1001
0000
0000
0000
,
0010
0000
0000
0000
,
0100
0000
0000
0000
,
1000
0000
0100
0000
,
0010
0000
0001
0000
,
0010
0000
0000
0000
,
0000
0000
0000
0000
;

//---------------dance-single - ----------------
#NOTEDATA:;
#CHARTNAME:;
#STEPSTYPE:dance-single;
#DESCRIPTION:;
#CHARTSTYLE:;
#DIFFICULTY:Easy;
#METER:4;
#RADARVALUES:0.232227,0.273807,0.036326,0.108978,0.000000,179.000000,175.000000,4.000000,12.000000,0.000000,0.000000,0.000000,0.000000,0.000000,0.232227,0.273807,0.036326,0.108978,0.000000,179.000000,175.000000,4.000000,12.000000,0.000000,0.000000,0.000000,0.000000,0.000000;
#CREDIT:;
#DISPLAYBPM:160.000000;
#NOTES:
0000
0000
0000
0000
,
0000
0000
0000
0000
,
0000
0000
0000
0000
,
1000
0002
0003
0000
,
1000
0020
0030
0000
,
0100
0001
1000
0000
,
0100
0010
0001
0000
,
1000
0200
0300
0000
,
1000
0020
0030
0000
,
0100
0001
0100
0000
,
0010
0001
1000
0000
,
0010
0010
0000
0100
,
0010
1000
0000
0000
,
1000
1000
0001
0001
,
0100
0010
1000
0000
,
0100
0100
0000
0100
,
1000
0010
0000
0000
,
0100
0100
1000
1000
,
0010
0100
1000
0000
,
0001
0100
0000
0001
,
0001
2000
3000
0000
,
0001
0100
1000
0000
,
1000
0100
1000
0000
,
0010
0100
0000
0010
,
0010
2000
3000
0000
,
1000
0001
1000
0001
,
1000
1000
0100
0000
,
0010
0000
0100
0010
,
1000
0000
0001
0000
,
0010
0010
0002
1003
,
0100
0000
0010
0000
,
0001
0001
1000
0001
,
0010
0000
0100
0000
,
1000
0010
0200
0310
,
1000
0000
0100
0010
,
1001
0000
0010
0001
,
0100
0000
0010
0000
,
1000
0100
0010
0000
,
0001
0000
1000
0000
,
0010
0010
0010
0100
,
0010
0000
0001
0000
,
1000
0000
0100
0000
,
0110
0000
0000
0000
,
0010
1000
0100
0000
,
0010
0001
0100
0000
,
0100
0000
0010
0100
,
0001
0000
1000
0001
,
0100
0000
0100
0000
,
0001
0000
0001
1000
,
0100
0000
0010
0000
,
1001
0000
0000
0100
,
0010
0001
0100
0000
,
0010
1000
0100
0000
,
0100
0000
0010
0100
,
1000
0000
0001
1000
,
0100
0000
1000
0010
,
0100
0000
0001
0010
,
0001
0000
1000
0000
,
1001
0000
0000
0000
,
0100
0020
0030
0000
,
1000
0020
0030
0000
,
1000
1000
0010
0000
,
0001
0001
0010
0000
,
0001
0020
0030
0000
,
0100
0020
0030
0000
,
0100
0100
0001
0010
,
0001
1000
0100
1000
,
0010
0000
0000
0000
,
0000
0000
0000
0000
;

//---------------dance-single - ----------------
#NOTEDATA:;
#CHARTNAME:;
#STEPSTYPE:dance-single;
#DESCRIPTION:;
#CHARTSTYLE:;
#DIFFICULTY:Medium;
#METER:7;
#RADARVALUES:0.324339,0.365076,0.063570,0.127141,0.000000,250.000000,243.000000,7.000000,14.000000,0.000000,0.000000,0.000000,0.000000,0.000000,0.324339,0.365076,0.063570,0.127141,0.000000,250.000000,243.000000,7.000000,14.000000,0.000000,0.000000,0.000000,0.000000,0.000000;
#CREDIT:;
#DISPLAYBPM:160.000000;
#NOTES:
0000
0000
0000
0000
,
0000
0000
0000
0000
,
0000
0000
0000
0000
,
0010
0000
1000
0001
0000
0000
0100
0000
,
0010
0000
0001
1000
0000
0000
0100
0000
,
0010
0001
0010
0100
,
1000
0001
1000
0100
,
0010
0000
1000
0100
0000
0000
0001
0000
,
0100
0000
0010
1000
0000
0000
0100
0000
,
0001
0100
0010
1000
,
0001
0000
1000
0000
,
0100
0000
0010
0000
0100
1000
0100
0000
,
0010
0000
0100
0000
0010
1000
0010
0000
,
1000
1000
0100
0001
,
0010
0010
0001
0100
,
0001
0000
1000
0000
0001
0010
0001
0000
,
1000
0000
0001
0000
1000
0100
1000
0000
,
0010
0010
1000
0100
,
2000
0000
3001
0000
,
0010
0000
0100
0000
0010
0001
0010
0000
,
0100
0000
0010
0000
0100
0001
0100
0000
,
0001
0001
0010
1000
,
0100
0000
0100
0000
0100
1000
0010
0000
,
1000
0000
0001
0000
1000
0100
1000
0000
,
0001
0000
1000
0000
0001
0010
0001
0000
,
0100
0100
0001
0010
,
0011
0000
0000
0000
,
0010
0000
0100
0000
0000
0010
0100
0000
,
1000
0000
0001
0000
0000
0010
0100
0000
,
1000
0000
0010
0000
0000
1000
0001
0000
,
1000
0000
0001
0000
0000
0010
0100
0000
,
1000
0100
0001
0010
,
1000
0100
0001
0010
,
1000
0100
0001
0100
,
0020
0000
0100
0130
,
0100
0000
0010
0000
0000
0100
0010
0000
,
0001
0000
1000
0000
0000
0100
0010
0000
,
0001
0000
0100
0000
0000
0001
1000
0000
,
0001
0000
1000
0000
0000
0100
0010
0000
,
0110
0000
1001
0000
,
1000
0010
0001
1000
,
0020
0000
0130
0000
,
1001
0000
0000
0000
,
1000
0100
1000
0000
0001
0100
0001
0000
,
1000
0001
1000
0100
,
0020
0030
0200
0300
,
1000
1000
1000
0010
,
0100
0001
0010
0100
,
0001
0010
1000
0001
,
0200
0300
0020
0030
,
0100
0000
0001
1000
,
0001
0010
0001
0000
1000
0010
1000
0000
,
0001
1000
0001
0010
,
0200
0300
0020
0030
,
0110
0000
1000
0100
,
2000
3000
0002
0003
,
0020
0030
0100
1000
,
0020
0030
0200
0300
,
1001
0000
0100
0100
,
0010
0000
0001
1000
0000
0000
0100
0000
,
0010
0000
1000
0001
0000
0000
0100
0000
,
1000
0001
1000
0100
,
0010
1000
0010
0001
,
1000
0000
0100
1000
0000
0000
0001
0000
,
0100
0000
0010
1000
0000
0000
0100
0000
,
0010
0001
1000
0100
,
1000
0001
1000
0000
0001
0010
0001
0000
,
0011
0000
0000
0000
,
0000
0000
0000
0000
;

//---------------dance-single - ----------------
#NOTEDATA:;
#CHARTNAME:;
#STEPSTYPE:dance-single;
#DESCRIPTION:;
#CHARTSTYLE:;
#DIFFICULTY:Hard;
#METER:10;
#RADARVALUES:0.463156,0.547614,0.372341,0.345097,0.049948,357.000000,316.000000,41.000000,38.000000,0.000000,0.000000,0.000000,0.000000,0.000000,0.463156,0.547614,0.372341,0.345097,0.049948,357.000000,316.000000,41.000000,38.000000,0.000000,0.000000,0.000000,0.000000,0.000000;
#CREDIT:;
#DISPLAYBPM:160.000000;
#NOTES:
0000
0000
0000
0000
,
0000
0000
0000
0000
,
0000
0000
0000
0000
,
0110
0000
1001
0000
0000
0100
0010
1000
,
1010
0101
0000
0000
,
1000
0000
0000
0100
0000
0000
0010
0000
0000
0000
0100
0000
0100
0000
0000
0000
,
1000
0000
0000
0001
0000
0000
0100
0000
0000
0000
0010
0000
0010
0000
1000
0000
,
0110
0000
1001
0000
0000
0010
0001
1000
,
1001
1100
0000
0000
,
0010
0000
0000
0001
0000
0000
0100
0000
0000
0000
0010
0000
1000
0000
0000
0000
,
2002
0000
0000
0000
0000
0000
0000
0000
3003
0000
0000
0001
1000
0000
0100
0000
,
1000
0100
0010
0100
1000
0010
0100
0001
,
0010
0000
0000
0001
0100
0000
0010
0000
1000
0000
1000
0000
1000
0000
0000
0000
,
0002
0023
2030
3200
,
0301
0000
0010
0000
0110
0000
1001
1000
,
0010
0100
0001
0010
0100
0010
0001
1000
,
0100
0000
0000
0010
0100
0000
1000
0000
0010
0000
0100
0000
0100
0000
0100
0000
,
0002
0023
0230
2300
,
3001
0000
0000
0000
0000
0000
0000
0000
1001
0000
0000
1000
0010
0000
0100
0000
,
0020
0000
0130
0000
0000
0001
0010
0100
,
2000
0000
3010
0000
0000
0100
0001
1000
,
0200
0310
0002
0103
,
0020
0000
2030
0000
3002
0000
0103
0010
,
2000
0000
3010
0000
0000
0100
0010
1000
,
0200
0000
0301
0000
0000
0100
1000
0010
,
0100
1000
0100
0010
0001
0100
0010
1000
,
0200
0000
0300
0000
,
1000
0100
1000
0000
0001
0010
0100
0000
,
2000
0000
3010
0000
0100
0001
1000
0000
,
0101
1100
0101
1001
,
0001
0000
0001
0000
0001
0000
0001
0010
,
0100
0110
1000
0010
,
0001
0100
0010
1000
,
0001
0100
0010
0000
0001
0100
0010
0000
,
1000
0100
0010
0000
1001
0000
1001
0000
,
0010
1000
0100
0000
0010
0001
0010
0000
,
0200
1300
0100
1000
,
1100
0101
1100
1001
,
1000
0000
1000
0000
1000
0000
1000
0010
,
0100
0110
0001
0010
,
2000
3200
0320
0032
,
0103
0010
1000
0000
1001
0100
0001
0000
,
1000
0100
0010
0001
1000
0010
0100
0000
,
0110
0000
1001
0000
1000
0001
0100
0000
,
0001
1000
0100
0000
0010
0000
0001
0000
,
0100
0020
2030
3200
,
0320
0031
1000
0010
,
0100
0001
0010
0000
0100
1000
0010
0000
,
2000
3010
0002
0013
,
1001
0100
1001
0010
,
0011
0000
1000
1000
,
1000
0100
0010
0001
1000
0100
0010
0001
,
0100
0010
1000
0001
,
1000
0020
0230
0302
,
2003
3001
0100
0010
,
1000
0010
0001
0000
0001
0010
1000
0000
,
0020
0130
2000
3100
,
1100
0100
0110
0010
,
1001
0000
0000
0000
0000
0000
0000
0000
0100
0000
0000
0001
0100
0000
0010
0000
,
0110
0000
1001
0000
0000
0100
0010
1000
,
1010
0101
0000
0000
,
1000
0000
0000
0100
0000
0000
0010
0000
0000
0000
0100
0000
0100
0000
0000
0000
,
1000
0000
0000
0001
0000
0000
0100
0000
0000
0000
0010
0000
0010
0000
1000
0000
,
1010
0000
0101
0000
0000
0001
0010
0100
,
1100
0000
0011
0000
0000
1000
0100
0010
,
0001
0000
0000
1000
0000
0000
0100
0000
0000
0000
0010
0000
0010
0000
0000
0000
,
1000
0010
0100
0001
1000
0100
0010
1000
,
0001
0000
0000
0000
,
0000
0000
0000
0000
;

//---------------dance-single - ----------------
#NOTEDATA:;
#CHARTNAME:;
#STEPSTYPE:dance-single;
#DESCRIPTION:;
#CHARTSTYLE:;
#DIFFICULTY:Challenge;
#METER:15;
#RADARVALUES:0.806956,0.821421,0.363260,0.054489,0.631164,622.000000,582.000000,40.000000,6.000000,0.000000,0.000000,0.000000,0.000000,0.000000,0.806956,0.821421,0.363260,0.054489,0.631164,622.000000,582.000000,40.000000,6.000000,0.000000,0.000000,0.000000,0.000000,0.000000;
#CREDIT:;
#DISPLAYBPM:160.000000;
#NOTES:
0000
0000
0000
0000
,
0000
0000
0000
0000
,
0000
0000
0000
0000
,
0110
0000
0000
0001
0200
0000
0000
0310
1000
0000
0001
0000
0100
0000
0010
0000
,
1010
0000
0000
0001
2000
0000
0000
3010
0100
0000
0001
0000
1000
0000
0100
0010
,
0001
0000
0100
0010
0000
0100
0010
0000
0000
0000
1010
0000
1010
0000
0000
0000
,
1000
0000
0100
0010
0000
0100
0010
0000
0000
0000
0011
0000
0011
0000
0000
0000
,
1001
0000
0000
0001
0020
0000
0000
0130
1000
0000
0010
0000
1000
0000
0001
0000
,
0101
0000
0000
1000
0002
0000
0000
0013
0001
0000
0100
0000
0010
0000
1000
0000
,
0100
0000
0010
0001
0000
0010
0001
0000
0000
0000
0101
0000
0101
0000
0000
0000
,
0010
0000
1000
0001
0000
1000
0001
0000
1000
0100
1000
0100
1000
0000
0001
0000
,
0011
0000
0000
0100
1000
0000
0000
0001
1000
0000
0010
0000
0100
0000
0001
0000
,
1010
0000
0000
1000
0001
0000
0000
0010
0001
0000
0100
0000
0010
0000
1000
0100
,
0010
0000
0001
0100
0000
0010
1000
0000
0000
0000
1100
0000
1100
0000
0000
0000
,
1000
0000
0001
0100
0000
0010
1000
0000
0000
0000
1001
0000
1001
0000
0100
0000
,
0101
0000
0000
0010
1000
0000
0000
0001
0010
0000
0001
0100
0001
0000
1000
0100
,
1000
0000
0000
0010
0100
0000
0000
0001
0010
0000
0100
1000
0100
0000
1000
0001
,
0100
0000
0010
1000
0000
1000
0001
0000
0010
0000
0110
0000
0110
0000
0000
0000
,
2100
0000
0000
3002
0000
0000
0103
0000
0010
0000
0000
1000
0001
0000
0100
0000
,
1001
0000
0000
0010
1000
0000
0000
0100
0010
0000
0001
0100
0001
0000
1000
0000
,
0101
0000
0000
0010
1000
0000
0000
0100
0010
0000
0001
1000
0001
0000
0100
0000
,
0010
0000
1000
0001
0000
1000
0100
0000
0010
0000
0011
0000
0011
0000
0000
0000
,
1001
0000
0010
1000
0000
1000
0100
0000
0010
0000
0011
0000
0011
0000
1000
0000
,
1100
0000
0000
0001
1000
0000
0000
0010
1000
0000
0000
0100
0010
0000
0001
0000
,
0101
0000
0000
1000
0001
0000
0000
0010
0100
0000
0000
1000
0010
0000
0001
0000
,
0100
0000
0010
1000
0000
1000
0001
0000
0100
0000
0110
0000
0110
0000
0000
0000
,
0001
1000
0000
0010
1000
0100
0000
1000
0001
0000
0100
0000
0010
0000
1000
0000
,
0001
0000
0100
0000
0010
0000
0100
0000
1000
0000
0100
0000
0001
0000
0010
0100
,
1000
0000
0010
0000
0100
0000
1000
0000
0100
0000
0001
0000
0010
0000
1000
0010
,
0001
0000
0100
0000
0010
0000
0001
0000
0010
0000
0100
0000
1000
0000
0100
0001
,
0010
0000
0100
0000
1000
0000
0010
0000
0100
0000
1000
0000
0100
0000
0001
0010
,
0100
0000
1000
0001
1000
0000
0010
0000
0100
0000
1000
0000
0100
0000
0001
1000
,
0010
0100
1000
0100
0001
0010
1000
0001
,
0100
0000
0010
0000
0100
0000
0001
0000
0010
0000
1000
0000
0001
0000
1000
0100
,
0010
0001
0100
1000
0001
0010
1000
0100
,
0001
0000
0010
0000
1000
0000
0100
0000
0001
0000
1000
0000
0100
0000
0010
0001
,
0100
0000
1000
0000
0100
0000
0010
0000
0100
0000
1000
0000
0100
0000
0001
0010
,
0001
0100
0010
1000
0100
0010
0001
0100
,
0001
0010
1000
0100
1000
0010
0100
0000
,
1001
0000
0001
0000
0010
0100
1000
0000
0001
0000
0100
0000
0010
0000
0100
0000
,
1000
0000
0100
0000
0001
0010
0100
0000
1000
0000
0001
0100
0010
0000
1000
0000
,
0001
0000
0100
0000
0010
0000
1000
0000
0100
0010
0100
1000
0001
0000
0100
0000
,
0010
0000
1000
0100
1000
0000
0001
0100
0001
0000
1000
0000
0010
0000
0100
0000
,
0001
0000
0010
0000
1000
0100
1000
0000
0010
0100
0001
0000
1000
0000
0100
0000
,
0001
0000
0010
0000
0100
0000
1000
0010
1000
0000
0100
0000
0001
0000
0000
1000
,
0100
0000
0000
0010
0001
0000
0100
0000
1000
0000
0010
0000
1000
0000
0001
0000
,
0100
0000
0000
0010
1000
0000
0000
0001
1000
0000
0010
0000
0100
0000
0001
0000
,
0010
0000
0100
1000
0100
0010
0001
0000
0100
0000
0010
0000
1000
0000
0001
1000
,
0100
0000
0010
0000
0001
0000
0100
0001
1000
0000
0010
0000
0100
0000
0001
0010
,
0001
0000
0100
0000
0010
1000
0001
0000
0100
0000
0001
0000
0010
0000
1000
0000
,
0100
0000
0010
0001
0010
0001
1000
0000
0010
1000
0010
0100
0001
1000
0100
0000
,
0010
0001
0010
0000
0001
1000
0100
0000
1000
0000
0010
0100
0001
0000
1000
0000
,
0001
0010
0100
0000
1000
0000
0001
0000
0100
0000
0010
0000
1000
0000
0100
0010
,
0001
0000
0000
0100
0001
0000
0010
0000
1000
0000
0010
0000
0100
0000
0001
0000
,
0100
0000
1000
0000
0010
0000
0100
0000
0001
0000
0010
0001
1000
0000
0100
0000
,
0010
0000
0001
0100
0001
0000
1000
0100
1000
0000
0010
0100
0010
0000
1000
0000
,
0001
0010
1000
0001
1000
0100
1000
0010
,
0100
0000
0001
1000
0001
0000
0100
0000
0010
0000
0001
0000
0010
0000
1000
0000
,
0001
0100
0001
0100
0010
1000
0001
0000
1000
0100
1000
0100
0010
0001
1000
0000
,
0110
0000
1000
0100
1000
0000
0001
0100
0001
0000
0010
0000
0100
0000
1000
0001
,
1000
0000
0000
0010
0100
0000
0001
0000
0010
0000
0100
0000
1000
0001
1000
0001
,
0100
0000
0010
1000
0000
0010
0100
0000
0001
0000
0011
0000
1100
0000
0000
0000
,
0010
0000
1000
0001
0000
1000
0100
0000
0010
0000
0110
0000
1001
0000
0000
0000
,
1010
0000
0001
0010
0100
0000
1000
0010
0100
0000
0001
0000
0010
0000
1000
0100
,
1000
0000
0010
0100
0010
0000
1000
0001
0100
0000
0010
0000
1000
0000
0001
0010
,
0100
0000
1000
0001
0000
1000
0001
0000
0010
0000
0101
0000
1010
0000
0000
0000
,
0100
1000
0000
0001
1000
0010
0000
1000
0100
0010
0000
0001
1000
0001
0000
0100
,
0010
0000
0000
0000
;

//---------------dance-double - ----------------
#NOTEDATA:;
#CHARTNAME:;
#STEPSTYPE:dance-double;
#DESCRIPTION:;
#CHARTSTYLE:;
#DIFFICULTY:Easy;
#METER:5;
#RADARVALUES:0.236119,0.304230,0.054489,0.099896,0.000000,182.000000,176.000000,6.000000,11.000000,0.000000,0.000000,0.000000,0.000000,0.000000,0.236119,0.304230,0.054489,0.099896,0.000000,182.000000,176.000000,6.000000,11.000000,0.000000,0.000000,0.000000,0.000000,0.000000;
#CREDIT:;
#DISPLAYBPM:160.000000;
#NOTES:
00000000
00000000
00000000
00000000
,
00000000
00000000
00000000
00000000
,
00000000
00000000
00000000
00000000
,
00000001
00002000
00003000
00000000
,
00000010
00000200
00000300
00000000
,
00000100
00001000
00010000
00000000
,
00001000
00010000
01000000
00000000
,
00100000
02000000
03000000
00000000
,
00010000
20000000
30000000
00000000
,
01000000
00001000
00010000
00000000
,
00010000
00000100
00001000
00000000
,
00000010
00000010
00000000
00001000
,
00000100
00000010
00000000
00000000
,
00000100
00000100
00001000
00001000
,
00010000
00001000
00010000
00000000
,
00100000
00100000
00000000
10000000
,
00010000
01000000
00000000
00000000
,
01000000
01000000
00001000
00001000
,
00010000
00000100
00001000
00000000
,
00000001
00000100
00000000
00001000
,
00010000
00002000
00003000
00000000
,
00010000
00100000
10000000
00000000
,
10000000
01000000
00010000
00000000
,
00001000
00010000
00000000
00000100
,
00001000
00000020
00000030
00000000
,
00000001
00000100
00000001
00000100
,
00001000
00001000
00010000
00000000
,
00001000
00000000
00100000
00010000
,
01000000
00000000
00100000
00000000
,
10000000
01000000
00010000
00001000
,
00001000
00000000
00000100
00000000
,
00000001
00000001
00001000
00000010
,
00000100
00000000
00001000
00000000
,
00010000
00100000
02000000
03100000
,
00100000
00000000
10000000
01000000
,
01100000
00000000
00010000
00001000
,
00011000
00000000
00001000
00000000
,
00000100
00000010
00001000
00000001
,
00000100
00000000
00001000
00000000
,
00010000
00010000
00001000
00001000
,
00100000
00000000
00010000
00000000
,
10000000
00000000
01000000
00000000
,
10010000
00000000
00000000
00000000
,
00010000
00001000
00000100
00000000
,
00001000
00010000
01000000
00000000
,
00010000
00000000
00001000
00010000
,
00000010
00000000
00000010
00001000
,
00000100
00000000
00000001
00000000
,
00000100
00000000
00001000
00010000
,
00001000
00000000
00100000
00000000
,
01100000
00000000
00000000
01000000
,
10000000
00010000
00100000
00000000
,
00001000
00010000
00001000
00000000
,
00000100
00000000
00000001
00000010
,
00001000
00000000
00010000
00100000
,
10000000
00000000
00100000
01000000
,
00100000
00000000
10000000
01000000
,
00010000
00000000
00001000
00000000
,
00011000
00000000
00000000
00000000
,
00000010
00000200
00000300
00000000
,
00000001
00002000
00003000
00000000
,
00000001
00000001
00000100
00000000
,
00001000
00001000
00010000
00000000
,
00100000
02000000
03000000
00000000
,
00010000
20000000
30000000
00000000
,
00010000
00010000
10000000
10000000
,
01000000
00010000
00001000
00000100
,
00000110
00000000
00000000
00000000
,
00000000
00000000
00000000
00000000
;

//---------------dance-double - ----------------
#NOTEDATA:;
#CHARTNAME:;
#STEPSTYPE:dance-double;
#DESCRIPTION:;
#CHARTSTYLE:;
#DIFFICULTY:Medium;
#METER:7;
#RADARVALUES:0.329529,0.365076,0.090815,0.127141,0.000000,254.000000,244.000000,10.000000,14.000000,0.000000,0.000000,0.000000,0.000000,0.000000,0.329529,0.365076,0.090815,0.127141,0.000000,254.000000,244.000000,10.000000,14.000000,0.000000,0.000000,0.000000,0.000000,0.000000;
#CREDIT:;
#DISPLAYBPM:160.000000;
#NOTES:
// measure 0
00000000
00000000
00000000
00000000
,  // measure 1
00000000
00000000
00000000
00000000
,  // measure 2
00000000
00000000
00000000
00000000
,  // measure 3
00000001
00000000
00001000
00000100
00000000
00000000
00000010
00000000
,  // measure 4
00000001
00000000
00001000
00000100
00000000
00000000
00010000
00000000
,  // measure 5
00001000
00100000
00001000
00010000
,  // measure 6
00001000
01000000
00010000
00100000
,  // measure 7
00010000
00000000
10000000
01000000
00000000
00000000
00010000
00000000
,  // measure 8
00001000
00000000
00000100
00000010
00000000
00000000
00000100
00000000
,  // measure 9
00001000
00010000
00001000
00010000
,  // measure 10
00000010
00000000
00001000
00000000
,  // measure 11
00000100
00000000
00000010
00000000
00000001
00000100
00000001
00000000
,  // measure 12
00000100
00000000
00001000
00000000
00010000
00001000
00010000
00000000
,  // measure 13
01000000
00100000
01000000
10000000
,  // measure 14
01000000
00010000
00001000
00000100
,  // measure 15
00000010
00000000
00000100
00000000
00001000
00010000
00001000
00000000
,  // measure 16
00010000
00000000
00000100
00000000
00000010
00000100
00000010
00000000
,  // measure 17
00000001
00000001
00000100
00001000
,  // measure 18
00020000
00000000
00031000
00000000
,  // measure 19
00010000
00000000
00001000
00000000
00100000
01000000
00100000
00000000
,  // measure 20
00010000
00000000
01000000
00000000
00100000
10000000
01000000
00000000
,  // measure 21
00010000
00001000
00000100
00000100
,  // measure 22
00000001
00000000
00000001
00000000
00001000
00000100
00001000
00000000
,  // measure 23
00000100
00000000
00010000
00000000
00001000
00010000
00001000
00000000
,  // measure 24
00100000
00000000
00010000
00000000
10000000
01000000
10000000
00000000
,  // measure 25
01000000
01000000
00010000
00010000
,  // measure 26
00011000
00000000
00000000
00000000
,  // measure 27
00000010
00000000
00001000
00000000
00000000
00000100
00001000
00000000
,  // measure 28
00000001
00000000
00000100
00000000
00000000
00001000
00010000
00000000
,  // measure 29
00001000
00000000
00100000
00000000
00000000
00010000
01000000
00000000
,  // measure 30
00100000
00000000
10000000
00000000
00000000
01000000
00010000
00000000
,  // measure 31
00001000
00000010
00000001
00000100
,  // measure 32
00001000
00010000
01000000
10000000
,  // measure 33
00100000
10000000
01000000
00010000
,  // measure 34
00002000
00000000
00010000
00013000
,  // measure 35
00000100
00000000
00001000
00000000
00000000
00000010
00001000
00000000
,  // measure 36
00000001
00000000
00000100
00000000
00000000
00001000
00010000
00000000
,  // measure 37
00001000
00000000
00100000
00000000
00000000
00010000
01000000
00000000
,  // measure 38
00100000
00000000
00010000
00000000
00000000
10000000
01000000
00000000
,  // measure 39
01100000
00000000
00011000
00000000
,  // measure 40
00000110
00000100
00000010
00001000
,  // measure 41
00000200
00000000
00000310
00000000
,  // measure 42
00000110
00000000
00000000
00000000
,  // measure 43
00001000
00000010
00001000
00000000
00000100
00010000
00000100
00000000
,  // measure 44
00010000
00001000
00100000
01000000
,  // measure 45
00200000
00300000
00020000
00030000
,  // measure 46
10000000
10000000
01000000
00010000
,  // measure 47
00001000
00010000
00001000
00000100
,  // measure 48
00000010
00000100
00000010
00001000
,  // measure 49
00000002
00000003
00000200
00000300
,  // measure 50
00001000
00000000
00010000
00001000
,  // measure 51
00010000
00001000
00010000
00000000
00001000
00100000
00001000
00000000
,  // measure 52
00100000
00010000
10000000
01000000
,  // measure 53
00020000
00030000
00002000
00003000
,  // measure 54
00011000
00000010
00000100
00000010
,  // measure 55
00000200
00000300
00002000
00003000
,  // measure 56
00020000
00030000
00001000
00100000
,  // measure 57
00020000
00030000
02000000
03000000
,  // measure 58
10010000
00000000
01100000
01100000
,  // measure 59
10000000
00000000
01000000
00010000
00000000
00000000
00001000
00000000
,  // measure 60
00010000
00000000
00000100
00001000
00000000
00000000
00001000
00000000
,  // measure 61
00000010
00010000
00001000
00100000
,  // measure 62
00010000
00100000
01000000
10000000
,  // measure 63
01000000
00000000
00010000
00001000
00000000
00000000
00000100
00000000
,  // measure 64
00000001
00000000
00001000
00000100
00000000
00000000
00000010
00000000
,  // measure 65
00000001
00000100
00001000
00010000
,  // measure 66
01000000
00100000
01000000
00000000
10000000
00010000
10000000
00000000
,  // measure 67
10010000
00000000
00000000
00000000
;

//---------------dance-double - ----------------
#NOTEDATA:;
#CHARTNAME:;
#STEPSTYPE:dance-double;
#DESCRIPTION:;
#CHARTSTYLE:;
#DIFFICULTY:Hard;
#METER:11;
#RADARVALUES:0.490401,0.517191,0.290608,0.090815,0.104437,378.000000,346.000000,32.000000,10.000000,0.000000,0.000000,0.000000,0.000000,0.000000,0.490401,0.517191,0.290608,0.090815,0.104437,378.000000,346.000000,32.000000,10.000000,0.000000,0.000000,0.000000,0.000000,0.000000;
#CREDIT:;
#DISPLAYBPM:160.000000;
#NOTES:
00000000
00000000
00000000
00000000
,
00000000
00000000
00000000
00000000
,
00000000
00000000
00000000
00000000
,
00100000
00000000
00010000
00000000
10000000
01000000
10000000
00000000
,
00100000
00000000
01000000
00000000
00010000
01000000
00010000
00000000
,
00100000
00000000
00000000
00001000
00000000
00000000
00010000
00000000
00000000
00000000
00000010
00000000
00001000
00000000
00000000
00000000
,
00000100
00000000
00000000
00010000
00000000
00000000
00000010
00000000
00000000
00000000
00000100
00000000
00000001
00000000
00000000
00000000
,
00001010
00000000
00001001
00000000
00000010
00000100
00001000
00000000
,
00001010
00000000
00010010
00000000
00010000
00001000
00100000
00000000
,
01000000
00000000
00000000
10000000
00000000
00000000
01000000
00000000
00000000
00000000
00010000
00000000
00001000
00000000
00000000
00000000
,
00010000
00000000
00000000
01000000
00000000
00000000
10000000
00000000
00100000
00000000
00000000
01000000
00010000
00000000
01000000
00000000
,
00010000
10000000
01000000
00000000
00010000
10000000
01000000
00000000
,
00010000
00001000
00000100
00000001
,
00000010
00000001
00001000
00000000
00000010
00000001
00001000
00000000
,
00000010
00000001
00000100
00001000
,
00010000
00000000
01001000
00000000
00100000
10000000
00010000
00000000
,
01000000
00000000
01001000
00000000
00001000
00010000
00000010
00000000
,
00001000
00000000
00000000
00000001
00000000
00000000
00000100
00000000
00000000
00000000
00000001
00000000
00000010
00000000
00000000
00000000
,
00001000
00000000
00000000
00010000
00000000
00000000
00100000
00000000
10000000
00000000
00000000
01000000
00100000
00000000
00010000
00000000
,
00100000
01000000
10000000
00000000
00100000
01000000
00010000
00000000
,
10000000
01000000
00010000
00000000
00001000
00000000
00011000
00000000
,
00101000
00000000
00000000
00010000
00000000
00000000
00000100
00000000
00000000
00000000
00001000
00000000
00000010
00000000
00000000
00000000
,
00000101
00000000
00000000
00000000
00001000
00000000
00000000
00000010
00000000
00000000
00010000
00000000
00001000
00000000
00000000
00000000
,
00010000
00001000
00000100
00000000
00000010
00000100
00001000
00000000
,
00010000
01000000
00100000
00000000
00010000
00000000
11000000
00000000
,
00010000
00000000
00000000
00001000
00000000
00000000
00000010
00000000
00000000
00000000
00000001
00000000
00000100
00000000
00000000
00000000
,
00000010
00000000
00000000
00001000
00000000
00000000
00000001
00000000
00000000
00000000
00000000
00000000
00000000
00000000
00000000
00000000
,
00001000
00000100
00000010
00000001
00000010
00000100
00001000
00000010
,
00000100
00000001
00000100
00001000
00010000
01000000
10000000
00100000
,
01000000
00010000
00100000
00010000
01000000
00100000
10000000
00100000
,
01000000
00100000
10000000
01000000
,
00010000
00001000
00100000
00010000
01000000
00001000
00010000
00000010
,
00001000
00000100
00000010
00000001
00000100
00001000
00010000
00001000
,
00100000
00010000
01000000
00100000
10000000
01000000
00100000
00010000
,
01000000
00001000
00010000
00000010
,
00001000
00000100
00010000
00000000
00001000
01000000
00010000
00000000
,
00100000
00001000
00010000
00000000
00000010
00001000
00000100
00000000
,
00000010
00000001
00000100
00001000
00010000
00100000
10000000
00100000
,
01000000
00100000
00100000
01000000
,
00010000
01010000
00001000
00011000
,
00000100
00001100
00000001
00000011
,
00001001
00001100
00010100
00011000
,
00202000
00000000
00000000
00303000
,
00010000
00000000
00000000
01000000
00100000
00000000
10000000
00000000
00100000
00000000
10000000
00000000
01000000
00000000
00000000
00000000
,
00010000
00000000
00000000
00001000
00010000
00000000
00001000
00000000
00010000
00000000
00000100
00000000
00001000
00000000
00000000
00000000
,
00001010
00000200
00000302
00002003
,
00003200
00000000
00010300
00000000
00001000
00100000
00001000
00010000
,
01000000
10000000
00100000
00010000
,
00100000
10000000
01000000
00010000
,
00011000
00000010
00001010
00000100
,
00000101
00000000
00000000
00000000
00000000
00000000
00000000
00000000
00001100
00000000
00000000
00000100
00001000
00000000
00000010
00000000
,
00000100
00000000
00000000
00000001
00000100
00000000
00001000
00000000
00010000
00000000
00100000
00000000
00010000
00000000
00000000
00000000
,
00001000
00000000
00000000
00010000
01000000
00000000
10000000
00000000
01000000
00000000
00010000
00000000
00001000
00000000
00000000
00000000
,
00101000
00020000
20030000
32000000
,
03020000
00000000
00031000
00000000
00010000
00000100
00010000
00001000
,
00000010
00000001
00000100
00001000
,
00000100
00000001
00000010
00001000
,
00011000
01000000
01010000
00100000
,
10100000
00000000
00000000
00000000
00000000
00000000
00000000
00000000
01000000
00000000
00000000
00010000
00100000
00000000
01000000
00000000
,
10000000
00000000
01010000
00000000
00001000
00010000
00000100
00001000
,
00000010
00000000
00000110
00000000
00000001
00001000
00000100
00000010
,
00000001
00000000
00000000
00001000
00000000
00000000
00000100
00000000
00000000
00000000
00010000
00000000
00001000
00000000
00000000
00000000
,
01000000
00000000
00000000
00010000
00000000
00000000
00100000
00000000
00000000
00000000
00010000
00000000
10000000
00000000
00000000
00000000
,
00010000
00000000
01010000
00000000
00100000
00001000
00010000
00000100
,
00001000
00000000
00001100
00000000
00000010
00000001
00000100
00001000
,
00010000
00000000
00000000
00000010
00000000
00000000
00001000
00000000
00000000
00000000
00000100
00000000
00010000
00000000
00000000
00000000
,
00001000
00000000
00000000
00100000
00000000
00000000
00010000
00000000
01000000
00000000
00000000
00100000
01000000
00000000
00010000
00000000
,
10000000
00000000
00000000
00000000
,
00000000
00000000
00000000
00000000
;
