#TITLE:A Little Bit Of Ecstasy;
#ARTIST:Jocelyn Enriquez;
#BANNER:A Little Bit Of Ecstasy-bn.png;
#BACKGROUND:A Little Bit Of Ecstasy-bg.png;
#JACKET:A Little Bit Of Ecstasy-jacket.png;
#MUSIC:A Little Bit Of Ecstasy.ogg;
#SAMPLESTART:45.48;
#SAMPLELENGTH:20;
#DISPLAYBPM:56:136;
#BPMS:0=130,132=125.5,136=122.5,140=118,144=113,148=111,152=105.8,156=104,160=102,180=99,182=89,184=83.5,186=75,188=66,189=57.692,190=56.25,191=135.5;
#BGCHANGES:0=A Little Bit Of Ecstasy.mp4=1=0=0=0,
;

//---------------dance-single - ----------------
#NOTES:
     dance-single:
     :
     Beginner:
     3:
     :
0000
0000
0000
0000
,
0000
0000
0000
0000
,
0010
0000
0100
0000
,
0010
0000
1000
1000
,
0000
0001
0000
0000
,
0001
0000
0010
0000
,
1000
0000
0010
0000
,
0001
0000
0010
0000
,
1000
0000
0010
0000
,
0001
0000
0001
0000
,
0001
0000
0010
0000
,
0001
0000
0001
0000
,
0010
0000
1000
0000
,
0001
0000
0001
0000
,
0001
0000
0010
0000
,
0001
0000
0001
0000
,
0010
0000
1000
0000
,
0001
0000
0000
0000
,
0000
0000
1000
1000
,
1000
0000
0100
0000
,
0000
0000
0001
0001
,
0001
0000
0100
0000
,
0000
0000
1000
1000
,
1000
0000
0100
0000
,
0001
0001
0001
0001
,
0001
0000
0000
0000
,
1000
0000
0100
0000
,
0001
0001
0001
0000
,
0000
0000
0000
0000
,
1000
0000
0000
0000
,
0001
0000
0100
0000
,
1000
1000
1000
0000
,
0001
0000
0010
0000
,
1000
0000
0010
0000
,
0001
0000
0010
0000
,
1000
0000
0010
0000
,
0001
0000
0000
0000
,
0001
0000
0000
0000
,
0001
0000
0000
0000
,
1001
0000
0000
0000
,
1000
1000
1000
1000
,
1000
0000
0001
0000
,
1000
0000
0001
0000
,
1000
0000
0001
0000
,
0100
0000
0001
0001
,
0001
0000
1000
0000
,
0001
0000
1000
0000
,
0001
0000
0000
0000
,
0000
0000
0000
0000
,
0000
0000
0000
0000
,
0100
0100
0000
0000
;

//---------------dance-single - ----------------
#NOTES:
     dance-single:
     :
     Easy:
     4:
     :
0000
0000
0000
0000
,
0000
0000
0000
0000
,
0020
0000
0130
0000
,
0020
0030
1000
0100
,
0002
0000
1003
0000
,
0200
0300
0001
0010
,
0020
0000
0130
0000
,
0002
0003
1000
0100
,
0002
0000
1003
0000
,
0020
0030
0110
0000
,
0020
0030
1000
0100
,
0002
0003
1001
0000
,
0200
0300
0001
0010
,
0020
0030
0110
0000
,
0002
0003
1000
0100
,
0002
0003
1001
0000
,
0001
0100
1000
0100
,
0001
0002
1003
0100
,
1000
0100
0001
0100
,
1000
2000
3001
0100
,
0010
0010
0100
0010
,
1000
2000
3001
0100
,
0001
0100
1000
0100
,
0001
0002
1003
0100
,
0010
0010
0110
0000
,
0002
0003
0020
0030
,
1000
0100
0100
0000
,
0020
0031
0000
1001
,
0200
1300
0000
1001
,
0002
0003
0020
0030
,
1000
0100
0100
0000
,
1000
0100
0001
0000
,
0001
0100
1000
0000
,
0001
0010
0010
1000
,
1000
0100
0100
0000
,
2000
0000
3100
0000
,
0002
0000
0103
0000
,
0001
0010
0010
1000
,
1000
0100
0100
0000
,
2000
0000
3100
0001
,
0002
0000
0103
0100
,
0001
0010
0000
0010
,
1000
0100
0000
0100
,
0002
0003
0010
0100
,
2000
3000
0100
0010
,
0001
0001
1000
1000
,
0001
0100
1000
0100
,
0010
0110
0000
0000
,
0000
0000
0000
0000
,
0000
0000
0000
0000
,
0001
1001
0000
0000
;

//---------------dance-single - ----------------
#NOTES:
     dance-single:
     :
     Medium:
     7:
     :
0000
0000
0000
0000
,
0000
0000
0000
0000
,
0020
0000
0031
0100
,
1000
0000
0100
0000
1000
0100
0010
0000
,
0200
0000
1300
0100
,
0001
1000
1000
0001
,
0020
0000
1030
0100
,
0001
0000
0100
0000
0001
0010
0100
0000
,
2000
3100
0100
0001
,
0002
0000
0103
0000
0001
0010
0100
0000
,
0002
0013
0010
1000
,
2000
0000
3100
0000
1000
0100
0010
0000
,
2000
3100
0100
0001
,
0010
0100
1000
0000
2000
0000
3100
0000
,
0002
0013
0010
1000
,
0002
0000
0103
0000
0001
0010
0100
0000
,
1000
0100
0010
0000
2000
0000
3010
0000
,
0020
0000
1030
0110
,
0010
0100
0010
0000
0001
1000
0001
0000
,
2000
0000
0000
0000
3001
0010
0100
0000
,
1000
0001
1000
0000
0010
0100
0010
0000
,
0020
0000
1030
0110
,
0010
0100
0010
0000
0001
1000
0001
0000
,
0002
0000
0000
0000
1003
0010
0100
0000
,
1000
0001
1000
0000
0010
0000
0110
0000
,
2000
3100
0002
0103
,
0200
0000
0320
0000
,
1030
0100
0000
1100
,
0001
0010
0001
0000
0100
1000
0100
0000
,
2000
3100
0002
0103
,
0200
0000
0320
0000
,
1030
0001
0100
1000
,
0100
0000
0001
0000
0100
0000
1000
0001
,
2000
3100
0002
0103
,
0200
0310
0020
0030
,
0010
0100
0001
0100
,
1000
0001
0100
0000
0010
0000
1000
0001
,
2000
3100
0002
0103
,
0200
0310
0020
0030
,
0010
0000
0010
0000
,
0100
0100
0100
0001
,
1000
1000
0100
0000
0001
0000
0100
0000
,
0100
0100
0100
0000
0010
0000
0000
0000
,
2000
3100
0000
0110
,
0002
0013
0000
0110
,
1000
0100
0001
0100
,
1000
0100
0001
0100
,
0200
0300
0000
0000
,
0000
0000
0000
0000
,
0000
0000
0000
0000
,
1000
0000
0001
1000
0000
0000
0000
0000
;

//---------------dance-single - ----------------
#NOTES:
     dance-single:
     :
     Hard:
     10:
     :
0000
0000
0000
0000
,
0000
0000
0000
0000
,
1000
0000
0000
0001
0000
0000
0010
0000
0001
0000
0000
1000
0000
0000
0001
0000
,
0100
0000
0000
0001
0000
0000
0010
0000
0000
0000
0000
0000
0000
0000
1000
0000
,
0001
0000
0000
0010
0000
0000
0001
0000
1000
0000
0000
0010
0000
0000
0100
0000
,
0001
0000
0000
0010
0000
0000
0001
0000
1000
0000
0000
0010
0000
0000
0100
0000
,
0001
0000
0000
0010
0000
0000
0001
0000
1000
0000
0000
0010
0000
0000
0100
0000
,
0001
0000
0000
0100
0000
0000
0010
0000
1000
0000
0000
0100
0000
0000
0010
0000
,
0001
0000
0000
0010
0000
0000
0001
0000
1000
0000
0000
0010
0000
0000
0100
0000
,
0001
0000
1100
1000
0000
1000
0100
0010
,
0001
0000
1001
1000
0000
0001
0010
0100
,
0010
0000
1100
1000
0000
0001
0100
0001
,
1000
0000
1001
0001
0000
1000
0100
1000
,
1000
0000
0101
0001
0000
0001
0100
0010
,
1000
0000
1001
0001
0000
1000
0010
0100
,
0010
0000
0101
0001
0000
1000
0100
1000
,
0001
0000
1001
1000
0000
0001
0100
0001
,
0001
0000
1100
1000
0001
1000
0100
0010
,
0001
0000
1001
0001
0010
0001
0010
0100
,
0010
0000
1100
1000
0100
0001
0100
0001
,
1000
0000
1001
0001
0100
1000
0100
1000
,
1000
0000
0101
0001
0100
0001
0100
0010
,
1000
0000
1001
0001
0100
0001
0010
0100
,
0010
0000
0101
0001
0100
1000
0100
1000
,
0110
1001
0110
1001
,
1000
0000
0000
0001
0000
0000
1000
0000
0000
0000
0000
0000
0000
0000
0001
0000
,
1000
0000
0000
0001
0000
0000
0010
0000
0001
0000
0000
1000
0000
0000
0001
0000
,
0100
0000
0000
0001
0000
0000
0010
0000
0000
0000
0000
0000
0000
0000
1000
0000
,
0001
0000
0000
0010
0000
0000
0001
0000
1000
0000
0000
0010
0000
0000
0100
0000
,
0001
0000
0000
1000
0000
0000
0001
0000
0000
0000
0000
0000
0000
0000
1000
0000
,
0001
0000
0000
1000
0000
0000
0010
0000
1000
0000
0000
0001
0000
0000
1000
0000
,
0100
0000
0000
1000
0000
0000
0010
0000
0000
0000
0000
0000
0000
0000
0001
0000
,
1000
0000
0000
0010
0000
0000
1000
0000
0001
0000
0000
0010
0000
0000
0100
0000
,
1000
0000
0000
0010
0000
0000
1000
0000
0001
0000
0000
0010
0000
0000
0100
0000
,
1000
0000
0000
0100
0000
0000
0010
0000
0001
0000
0000
0100
0000
0000
0010
0000
,
1000
0000
0000
0010
0000
0000
1000
0000
0001
0000
0000
0010
0000
0000
0100
0000
,
1000
0000
0000
0010
0000
0000
1000
0000
0001
0000
0000
0010
0000
0000
0100
0000
,
2001
0000
0000
0001
0000
0000
0001
0000
0000
0000
0000
0000
0000
0000
0000
0000
,
0001
0000
0000
0001
0000
0000
0001
0000
0001
0000
0000
0001
0000
0000
0001
0000
,
3001
0000
0000
0000
,
0110
1001
0110
1001
,
1000
0000
1000
0000
0001
0000
1000
0001
0010
0100
1000
0000
0001
0000
0100
0000
,
0100
0000
0100
0000
1000
0000
0001
1000
0100
0010
0001
0000
1000
0000
1000
0000
,
0001
0000
0001
0000
1000
0000
0001
1000
0010
0100
0001
0000
1000
0000
0100
0000
,
0100
0100
0001
1000
0101
0000
1100
0000
,
1001
0000
1000
0000
0001
0000
1000
0001
0010
0100
1000
0000
0001
0000
0100
0000
,
0100
0000
0100
0000
1000
0000
0001
1000
0100
0010
0001
0000
1000
0000
0001
0000
,
2000
0001
0002
0000
0003
0000
0000
0000
,
0000
0000
0000
0000
,
0000
0000
0000
3000
,
0010
0000
0101
0001
0000
0000
0000
0000
;

//---------------dance-single - ----------------
#NOTES:
     dance-single:
     :
     Challenge:
     12:
     :
0000
0000
0000
0000
,
0000
0000
0000
0000
,
0010
0000
0000
0010
0000
0000
0010
0000
1000
0000
0100
0000
1000
0000
0001
0000
,
0011
0000
0100
2000
0000
3002
0000
0103
,
0010
0000
0000
0010
0000
0000
0010
0000
1000
0000
0100
0000
1000
0000
0001
0000
,
1010
0000
0100
0002
0000
2003
0000
3010
,
1000
0000
0000
1000
0000
0000
1000
0000
0100
0000
0010
0000
0001
0000
0100
0000
,
1001
0000
0010
2000
0000
3002
0000
0103
,
0001
0000
0000
0001
0000
0000
0001
0000
0010
0000
0100
0000
1000
0000
0010
0000
,
0110
0000
0000
0100
0001
0000
1000
0000
0010
0000
0000
0100
0001
0000
1000
0000
,
0100
0000
0000
0010
0100
0000
1000
0000
0001
0000
0010
0000
0001
0000
0100
0000
,
0010
0000
0000
1000
0001
0000
0010
0000
0100
0000
0000
1000
0001
0000
0100
0000
,
0001
0010
0000
0001
0010
0000
0100
0000
1000
0000
0010
0000
1000
0000
0001
0000
,
0101
0000
0000
0010
1000
0000
0001
0000
0010
0000
0000
0100
1000
0000
0010
0000
,
0100
0000
0001
1000
0000
0001
1000
0000
0010
0000
0100
0000
0001
0000
1000
0000
,
1100
0000
0000
0010
0001
0000
0100
0000
0010
0000
0000
1000
0001
0000
0100
0000
,
0001
0000
0010
0100
0000
0010
0100
0000
1000
0000
0010
0000
1000
0000
0001
0000
,
1002
0000
0000
0000
0103
0000
0010
0000
1000
0000
0001
0100
0000
0001
0100
0000
,
0010
0000
0000
1000
0000
0000
0001
0000
1000
0000
0100
0000
0010
0000
0001
0000
,
0201
0000
0000
0000
0310
0000
1000
0000
0100
0000
0010
0001
0000
0010
0001
0000
,
1000
0000
0000
0001
0000
0000
0100
0000
0010
0000
1000
0000
0001
0000
0010
0000
,
2100
0000
0000
0000
3010
0000
0100
0000
0001
0000
1000
0100
0000
1000
0100
0000
,
0010
0000
0000
0100
0000
0000
1000
0000
0001
0000
0100
0000
0010
0000
1000
0000
,
1020
0000
0000
0000
1030
0000
0001
0000
0010
0000
0001
0100
0000
0001
0100
0000
,
0101
0000
1100
0000
0101
0010
1000
0001
,
0012
0000
0000
1000
0000
0000
1003
0000
0000
0000
0001
0000
0100
0000
0010
1000
,
0010
0000
0000
0100
0000
0000
0001
0000
1000
0000
0100
0010
0100
0000
1000
0000
,
0002
0000
0000
2003
0000
0000
3020
0000
0000
0000
1030
0100
1000
0000
0001
0000
,
0010
0000
0000
0001
0000
0000
0100
0000
0010
0000
1000
0000
0001
0000
1000
0000
,
0200
0000
0000
0010
0000
0000
0310
0000
0000
0000
0001
0000
1000
0000
0001
0100
,
0001
0000
0000
0010
0000
0000
0100
0000
1000
0000
0010
0100
0010
0000
1000
0000
,
0002
0000
0000
0203
0000
0000
0320
0000
0000
0000
1030
0100
1000
0000
0001
0000
,
0010
0000
0000
0001
0000
0000
1000
0000
0001
0000
0100
0000
0010
0000
1000
0000
,
1100
0000
0000
0001
0000
0000
0100
0000
0010
0000
0000
1000
0000
0000
0100
0010
,
0001
0000
0000
1000
0000
0000
0001
0000
0100
0000
0000
0010
0000
0000
1000
0000
,
0100
0000
0000
1000
0000
0000
0001
0000
0100
0000
0000
0010
0000
0000
1000
0000
,
0001
0010
0000
0001
0010
0000
0100
0000
1000
0010
0000
1000
0010
0000
0100
0000
,
0110
0000
0000
1001
0000
0000
0110
0000
0000
0000
1000
0000
0000
0000
0001
0100
,
0010
0000
0000
0010
0000
0000
1000
0000
0001
0000
0000
0100
0000
0000
0010
0000
,
1010
0000
0000
0001
0000
0000
1000
0000
0001
0000
0000
0100
0000
0000
0010
0000
,
0101
0000
1100
0000
0101
0010
1000
0001
,
0100
0000
0010
1000
0001
0000
1000
0100
0001
0100
1000
0000
0010
0000
0100
0001
,
1000
0000
0010
0000
0100
0000
0001
0010
1000
0010
0001
0100
0010
0000
1000
0000
,
0100
0000
0010
0000
0001
0000
1000
0010
0001
0010
1000
0000
0100
0000
0010
0000
,
0001
0000
1000
0100
0010
0001
0010
0100
1000
0010
0100
0000
0001
0010
1000
0000
,
1001
0000
0010
1000
0100
0000
1000
0010
0001
0010
1000
0000
0100
0000
0010
0000
,
0001
0000
0100
0000
0010
0000
1000
0001
0010
0100
1000
0010
0100
0001
1000
0000
,
0001
0000
0100
0000
1000
0000
0000
0000
0000
0000
0000
0000
0000
0000
0001
1000
,
0001
1000
0001
1000
0001
1000
0001
1000
0001
1000
0001
1000
0001
1000
0001
1000
,
0001
0000
0000
0100
0010
1000
0001
0010
,
0011
0000
1000
0001
0000
0000
0000
0000
;

//---------------dance-double - ----------------
#NOTES:
     dance-double:
     :
     Easy:
     4:
     :
00000000
00000000
00000000
00000000
,
00000000
00000000
00000000
00000000
,
00000000
00000000
00000000
00000000
,
00000000
00000000
00000000
00000000
,
00000000
00000000
00000000
00000000
,
00010000
00000000
00010000
00000000
,
00000000
00000000
00000000
00000000
,
10000000
00000000
10000000
00000000
,
00000000
00000000
01000000
00000000
,
00010000
00000000
00001000
00000000
,
00001000
00000000
00000000
00000000
,
00001000
00000000
00000100
00000000
,
00000100
00000000
00000000
00000000
,
00001001
00000001
00000000
00000001
,
00000000
00000100
00000000
00001000
,
00011000
00010000
00000000
00010000
,
00000000
00010000
00000000
00100000
,
00200000
00000000
00300000
00000000
,
02000000
00000000
03000000
01000000
,
02000000
00000000
00000000
03000000
,
00010000
00000000
00010000
10000000
,
00010000
00000000
00010000
00000000
,
10000000
00000000
10000000
10000000
,
10000000
00000000
01000000
00000000
,
00010000
00001000
00010000
00001000
,
00022000
00000000
00000000
00033000
,
00000000
00000000
00000000
00000000
,
00001000
00000100
00000001
00000001
,
00001000
00001000
00001000
00000000
,
00002002
00000000
00000000
00003003
,
00000200
00000000
00000000
00000300
,
00000001
00000001
00001000
00001000
,
00000002
00000000
00000000
00000003
,
00000200
00000000
00000000
00000300
,
00002000
00000000
00000000
00003000
,
00010000
00010000
00001000
00001000
,
00010000
00100000
01000000
01000000
,
20020000
00000000
00000000
30030000
,
00000000
00000000
00000000
00000000
,
01100000
00000000
00000000
00000000
,
10000000
10000000
10000000
10000000
,
10010000
00000000
01000000
00000000
,
00010000
00001000
00010000
00000000
,
00011000
00000000
00010000
00000000
,
00001000
00000010
00000100
00000100
,
00001000
00000000
00000001
00000000
,
00000001
00000001
00000001
00000001
,
00000100
00000200
00000000
00000300
,
00002000
00000000
00000000
00000000
,
00000000
00000000
00000000
00003000
,
00011000
00000000
00000000
00000000
;

//---------------dance-double - ----------------
#NOTES:
     dance-double:
     :
     Medium:
     6:
     :
00000000
00000000
00000000
00000000
,
00000000
00000000
00000000
00000000
,
00000000
00000000
00000000
00000000
,
00000000
00000000
00000000
00000000
,
00000000
00000000
00000000
00000000
,
00000001
00000001
00001000
00001000
,
00000100
00000100
00000010
00000010
,
00000001
00000001
00000100
00000100
,
00001000
00001000
00010000
00010000
,
00011000
00010000
01000000
10000000
,
10000000
10000000
00010000
00010000
,
00100000
01000000
10000000
10000000
,
00100000
01000000
00010000
10000000
,
01100000
10000000
00100000
00010000
,
00001000
00001000
00010000
00010000
,
00000100
00000010
00000001
00001000
,
00000010
00000100
00000100
00000100
,
00001002
00000100
00000000
00000103
,
00000010
00000010
00001000
00000001
,
00000100
00000100
00001000
00001000
,
00010000
01000000
10000000
00010000
,
20010000
01000000
00000000
31000000
,
00100000
00100000
00010000
10000000
,
01000000
01000000
00010000
00010000
,
00011000
00000010
00000110
00001000
,
00002002
00000000
00000000
00000003
,
00000200
00000000
00000000
00000000
00003300
00000000
00000001
00000100
,
00001000
00001000
00001000
00001000
,
00000001
00000000
00000100
00000000
00001000
00000000
00010000
00001000
,
00020000
00000000
00000000
00030000
,
00200000
00000000
00000000
00000000
00300000
00000000
10000000
00010000
,
01000000
00000000
01000000
00000000
01000000
00100000
01000000
00000000
,
10000000
01000000
00010000
00001000
,
00022000
00000000
00000000
00003000
,
00000200
00000000
00000000
00030300
,
00001100
00000100
00000100
00000100
,
00000010
00000001
00000100
00000000
00000100
00000010
00000100
00000010
,
00000200
00000000
00000000
00000300
,
00000002
00000000
00000000
00000003
,
00001001
00000100
00000010
00000001
,
00000110
00001000
00011000
00100000
,
10010000
00000000
10000000
00000000
00010000
10000000
01000000
00000000
,
00100000
00000000
00100000
00000000
00010000
10000000
01000000
00000000
,
10000000
00000000
01000000
00000000
00010000
00001000
00010000
00000000
,
00001000
00000100
00000001
00000000
00001000
00000100
00000001
00000000
,
00001000
00001000
00000001
00000001
,
00000001
00000100
00001000
00010000
,
00001000
00020000
00000000
00000000
,
00002000
00000000
00000000
00000000
,
00000000
00033000
00010000
01000000
,
10010000
00000000
00000000
00000000
;

//---------------dance-double - ----------------
#NOTES:
     dance-double:
     :
     Hard:
     9:
     :
00000000
00000000
00000000
00000000
,
00000000
00000000
00000000
00000000
,
00000000
00000000
00000000
00000000
,
00000000
00000000
00000000
00000000
,
00000000
00000000
00000000
00000000
,
10000000
00010000
10000000
00000000
01000000
00000000
01000000
00000000
,
00010000
00001000
00000100
00000001
,
00000001
00001000
00000001
00000000
00000100
00000000
00000100
00000000
,
00001000
00010000
01000000
10000000
,
10010000
10000000
00010000
00000000
10000000
00000000
10000000
00000000
,
00100000
00010000
00001000
00010000
,
00000100
00000010
00000001
00000001
,
00001000
00000000
00001000
00000000
00000010
00000100
00000010
00000100
,
00000001
00001000
00000001
00000100
,
00001000
00000000
00010000
00000000
01000000
10000000
00010000
10000000
,
00100000
01000000
01000000
01000000
,
00010000
00000000
10000000
00000000
00100000
01000000
00100000
00000000
,
20020000
00000000
00000000
30030000
,
01000000
00000000
00000000
00010000
00000000
00000000
00001000
00000000
00010000
00000000
00000000
00000100
00000000
00000000
00000010
00000000
,
00000001
00000000
00000000
00001000
00000000
00000000
00000010
00000000
00000100
00000000
00000000
00000001
00000000
00000000
00001000
00000000
,
00000010
00000000
00000000
00000100
00000000
00000000
00000100
00000000
00000001
00000000
00000000
00000001
00000000
00000000
00000001
00000000
,
00001100
00000000
00000000
00001000
00000000
00000000
00001000
00000000
00000001
00000000
00000000
00000100
00000000
00000000
00001000
00000000
,
00010000
00000000
00000000
01000000
00000000
00000000
10000000
00000000
00010000
00000000
00000000
00010000
00000000
00000000
00010000
00000000
,
20010000
00010000
00010000
30010000
,
01100000
10010000
01010000
11000000
,
00110000
00000000
00001000
00010000
00000000
00000000
00010000
00000000
,
00001100
00000000
00000001
00000100
00000000
00000000
00000100
00000000
,
00001001
00000000
00000010
00000100
00000000
00000000
00000100
00000000
,
00000001
00001000
00000100
00000000
00001000
00000001
00000100
00000020
,
00000200
00000000
00000000
00000030
,
00000002
00000000
00000000
00000303
00000000
00000001
00000100
00000000
,
00001100
00000000
00010000
00001000
00010000
00000000
01000000
00000000
,
20020000
00000000
00000000
30030000
00100000
01000000
00100000
00000000
,
10010000
00000000
00000000
00100000
00000000
00000000
01000000
00000000
00010000
00000000
00000000
10000000
00000000
00000000
01000000
00000000
,
00010000
00000000
00000000
00001000
00000000
00000000
00000100
00000000
00000001
00000000
00000000
00000001
00000000
00000000
00000001
00000000
,
00001000
00000000
00000000
00000001
00000000
00000000
00000100
00000000
00000010
00000000
00000000
00000100
00000000
00000000
00000010
00000000
,
00001000
00000000
00000000
00000001
00000000
00000000
00000100
00000000
00001000
00000000
00010000
00000000
00001000
00000000
00010000
00000000
,
00022000
00000000
00000000
00033000
,
00200000
00000000
00000000
00300000
,
20020000
00000000
00000000
30030000
,
02100000
03010000
02100000
13000000
,
10010000
01000000
00100000
00000000
00100000
01000000
00100000
00000000
,
10000000
01000000
00010000
00000000
00001000
00000100
00000001
00000000
,
00000010
00000100
00001000
00000000
00000010
00000100
00000001
00000000
,
00000010
00000100
00000010
00000100
00001100
00000000
00000101
00000000
,
00000001
00000100
00001000
00001000
00010000
01000000
10000000
00010000
,
01000000
00100000
10000000
00010000
00100000
01000000
10000000
10000000
,
10000000
10000000
20000000
00000000
00000000
00000000
00000000
00000000
,
00020000
00000000
00000000
00000000
,
00000000
00000000
30030000
00100000
01000000
00100000
01000000
00100000
,
10010000
00000000
00000000
00000000
;
