#TITLE:888;
#SUBTITLE:;
#ARTIST:DJ TECHNORCH;
#TITLETRANSLIT:;
#SUBTITLETRANSLIT:;
#ARTISTTRANSLIT:;
#GENRE:;
#CREDIT:;
#BANNER:888-bn.png;
#BACKGROUND:888-bg.png;
#LYRICSPATH:;
#CDTITLE:;
#MUSIC:888.ogg;
#OFFSET:0.000000;
#SAMPLESTART:4.330000;
#SAMPLELENGTH:20.000000;
#SELECTABLE:YES;
#DISPLAYBPM:111.000000:888.000000;
#BPMS:0.000000=222.000000
,79.000000=444.000000
,267.000000=222.000000
,268.000000=444.000000
,332.000000=111.000000
,344.000000=222.000000
,348.000000=444.000000
,476.000000=888.000000
,524.000000=222.000000
,528.000000=444.000000
,544.000000=888.000000
,576.000000=111.000000
,580.000000=222.000000
,584.000000=444.000000
,596.000000=888.000000
,608.500000=222.000000
;
#STOPS:78.500000=0.270000,
267.000000=0.135000,
267.500000=0.135000,
342.000000=0.135000,
342.250000=0.135000,
342.500000=0.135000,
342.750000=0.135000,
343.000000=0.135000,
343.250000=0.135000,
343.500000=0.135000,
343.750000=0.135000
;
#BGCHANGES:;
#KEYSOUNDS:;
#ATTACKS:;

//---------------dance-single - ----------------
#NOTES:
     dance-single:
     :
     Challenge:
     18:
     1.116050,2.648874,0.361321,0.048827,0.361321,800.000000,763.000000,37.000000,5.000000,0.000000,0.000000,1.116050,2.648874,0.361321,0.048827,0.361321,800.000000,763.000000,37.000000,5.000000,0.000000,0.000000:
0000
0000
0000
0000
,
0000
0000
0000
0000
,
0000
0000
0000
0000
,
0000
0000
0000
0110
,
1000
0010
0001
0100
0001
1000
0010
0100
,
1000
0100
0010
0100
0001
0010
1000
0001
,
0000
0100
0001
0010
0100
1000
0010
1000
,
0100
0000
0010
0000
0100
0000
1000
0000
0001
0010
0001
0100
0001
0000
1000
0000
,
0010
0000
0100
0000
0010
0000
1000
0000
0100
0000
0010
0001
1000
0000
0100
0000
,
0001
0000
0100
0000
1000
0000
0010
0000
0100
0000
0010
0000
1000
0000
0001
0010
,
0100
0000
1000
0000
0001
0000
1000
0010
0100
0000
0001
0000
0010
0000
1000
0000
,
0100
0000
0010
0000
0100
0000
1000
0000
0001
0010
0100
0000
1000
0001
0100
0000
,
0001
1000
0010
1000
0001
0000
0100
0000
0010
0000
0100
0000
0001
0000
1000
0000
,
0100
0000
0001
0000
0010
0100
1000
0001
0100
0000
0010
0000
1000
0000
0001
0000
,
0100
0001
0010
0000
1000
0000
0001
0000
0100
0010
1000
0000
0100
0000
0010
0001
,
1000
0000
0010
1000
0010
0000
0100
0001
0010
0000
0100
0000
1000
0000
0001
0000
,
1000
0010
0001
0010
1000
0100
0001
0100
,
1000
0000
0010
0000
0100
0000
1000
0000
0100
0000
0001
0000
0010
0001
0100
0001
,
1000
0010
1000
0100
0001
0010
0001
0100
,
1000
0010
0001
1000
0100
0001
1001
0000
,
0010
1000
0100
0000
0100
0000
1000
0000
,
0101
0101
0000
0001
,
0010
0000
0010
0000
0100
1000
0001
0000
,
0100
0100
0100
0001
,
0010
0000
0100
1000
0001
0000
1000
0000
,
1000
0000
1000
0000
0100
0010
0001
0000
,
0001
0000
0001
0000
0001
0000
0001
0010
,
0100
1000
0000
0010
,
1000
0001
0100
0000
0100
0000
0001
0000
,
1010
1010
0000
0100
,
0001
0000
0001
0000
1000
0100
0010
0000
,
0001
0001
0001
1000
,
0010
0000
1000
0100
0001
0000
0010
0000
,
0010
0000
0010
0000
0001
0100
0010
0000
,
1000
0001
1000
0100
,
0110
0110
0000
0001
,
0100
0001
1000
0000
0010
0000
1000
0000
,
0100
0000
0010
0001
0010
0100
1000
0000
,
0001
0000
0100
0000
0010
1000
0100
0010
,
0001
0000
0100
0010
0100
0000
0001
0000
,
0010
0000
0100
1000
0010
0000
0100
0000
,
0100
0000
0100
0000
0001
1000
0001
0000
,
0010
0000
1000
0000
0100
1000
0010
0100
,
0001
1000
0001
1000
,
0010
0000
0100
0000
0001
0000
0010
0001
,
0100
0000
0010
0000
1000
0100
0010
0000
,
0001
0000
0001
0000
0100
0010
1000
0000
,
0100
0000
1000
0010
1000
0000
0001
0100
,
0001
0000
1000
0100
1000
0000
0010
0000
,
0010
0010
0100
0001
,
0010
0000
0001
0000
0100
0000
1000
0010
,
1000
0100
0010
0001
,
0100
0001
1000
0010
,
1000
0100
0001
0010
,
0010
0100
0100
1000
,
1000
0001
0001
0100
,
0100
0100
0100
0010
,
0010
0010
0010
1000
,
1000
0001
0001
1000
,
1000
0001
0001
0010
,
0001
0000
0100
0000
1000
0000
0001
0010
,
0001
0000
1000
0010
1000
0000
0100
0000
,
0010
0000
0100
0000
1000
0010
1000
0000
,
0001
0010
0100
1000
,
0010
0100
0001
0000
0010
0100
1000
0000
,
0001
0100
0010
0000
1000
0001
1000
0000
,
0100
0000
0010
0000
0001
0000
0101
1100
,
0001
0001
0001
0100
,
0010
0010
1000
0001
,
1000
0000
0010
0000
1000
0000
0100
0010
,
0001
0100
0001
1000
,
0101
0000
0000
0000
0011
0000
0000
0000
1100
0000
0000
0000
,
1010
0000
0000
0000
1001
0000
0000
0000
0110
0000
0000
0000
,
1000
0010
0001
0010
,
1000
0100
0001
0100
,
1000
0010
1000
0001
,
0010
0100
0010
0001
,
0100
0100
0100
0100
,
0010
0010
0010
0010
,
1000
0010
0100
0001
,
0010
0100
0010
0000
0001
1000
0001
0000
,
1000
0000
0100
0000
1000
0000
0001
0000
0100
0000
0001
0000
,
0100
0010
2020
0030
,
3001
0000
0000
0001
0000
0000
1000
0000
0000
0010
0000
0100
0010
0000
1000
0100
0000
0010
0001
0000
0100
0001
0000
1000
,
0010
0000
0000
0010
0000
0000
0100
0000
0000
0001
0000
0010
0001
0000
0100
0010
0000
1000
0100
0000
0100
0000
0000
0000
,
1000
0000
1000
0000
0001
0000
0100
0000
0110
1001
0110
1001
1100
0101
1010
0011
,
1000
0001
0010
0100
0001
1000
0010
0100
0001
0010
0100
1000
0020
0000
0000
0000
,
0130
0000
0001
0010
0001
0000
1000
0000
,
0010
0000
0100
0000
0100
0000
0001
1000
,
0100
0010
0001
0100
,
1000
0010
1000
0001
0100
0000
0010
0000
,
1000
0000
0001
0000
1000
0100
0010
0000
,
0001
0000
0001
0000
0001
0000
0100
0010
,
1000
0000
0100
0010
0100
1000
0001
0000
,
0010
0001
0100
0000
1000
0000
0000
0000
,
0001
0000
0001
0000
1000
0100
1000
0000
,
0010
0000
0100
0001
1000
0000
0010
0000
,
1000
0100
0010
0100
1000
0000
0001
0100
,
0010
0000
1000
0000
0001
0100
0010
0000
,
1010
0000
1000
0100
0010
0000
0011
0000
,
0100
0001
0010
0000
0100
0000
1000
0001
,
0100
0010
0100
0001
,
0010
1000
0001
1000
,
0100
1000
0010
0100
0001
0010
1000
0000
,
0100
0000
0010
0000
0001
0000
1000
0001
,
0100
0000
0010
0000
0100
0000
0001
0010
,
1000
0000
0100
0000
1000
0001
0100
0000
,
0001
0000
0010
0000
0001
0100
1000
0000
,
0010
0000
0010
0000
0010
0000
1000
0001
,
1000
0100
1000
0010
,
0100
0001
1000
0000
0001
0010
0100
1000
,
0010
0000
0100
0000
0001
0000
0010
0100
,
1000
0001
0001
0100
,
1000
0000
0100
0000
0001
0000
0010
0100
,
1000
0000
0001
0000
1000
0001
0100
0000
,
0010
1000
0001
0010
,
0001
0100
0010
0000
1000
0000
0100
0010
,
0001
0100
0001
0010
,
1000
0100
0110
0000
,
0010
0000
0001
1000
,
0001
0000
0100
0000
,
1000
0010
0100
0000
,
0001
0000
0000
0000
,
0010
0000
0010
0000
,
0010
0000
0001
0100
,
1000
0000
0010
1000
,
0100
0000
0001
0000
,
1000
0010
0001
0010
,
1000
0000
0001
0100
,
1000
0100
0001
0000
,
0010
0001
0100
0000
,
1010
0000
0101
0000
0011
0000
1100
0000
1001
0000
0110
0000
,
1000
0000
0010
0000
0100
0000
0001
0000
0010
0000
0100
0000
,
1000
0000
0001
0000
0100
0000
0010
0000
1000
0000
0001
0000
,
0010
0000
0100
0000
1000
0000
0001
0000
1000
0000
0010
0000
,
0100
0000
0001
0000
0010
0000
0100
0000
1000
0000
0001
0000
,
1000
0010
0001
0100
,
0010
0100
1000
0001
,
0010
0100
1000
0001
,
0010
1000
0100
0001
,
0010
1000
0100
0001
,
0100
0010
1000
0001
,
0010
0001
0100
1000
,
0100
0001
0010
0000
,
1100
0000
0000
0000
0001
0000
0000
0000
0101
0000
0100
0000
0010
0000
0000
1000
,
0000
0000
0000
0000
0000
0000
0001
0000
0000
0000
0000
0000
0000
0000
0000
0000
0000
0000
1000
0000
0000
0000
0000
0000
0000
0000
0000
0001
0000
0000
0000
0000
0000
0000
0000
0000
0000
0000
0000
0000
1000
0000
0000
0000
0000
0000
0000
0000
,
0000
0000
0000
0000
0001
0000
0000
0000
0000
0000
0000
0000
0000
0000
0000
0000
0000
0000
1000
0000
0000
0000
0000
0000
0000
0000
0000
0000
0000
0000
0000
0000
0000
0001
0000
0000
0000
0000
0000
0000
0000
0000
0000
0000
0000
0000
0000
0000
,
0000
1000
0000
0000
0000
0000
0000
0000
0001
0000
0000
0000
0000
0000
1000
0000
,
0000
0000
0000
0001
0000
0000
0000
0000
1000
0000
0000
0000
0000
0001
0000
0000
,
0000
1000
0000
0000
0000
0000
0001
0000
0000
0000
1000
0000
0000
0000
0001
0000
,
0000
1000
0000
0001
0000
1000
0000
0001
,
0000
1000
0000
0001
0000
1000
0000
0001
,
0000
0220
0000
0000
0000
0000
0000
0000
,
0000
0000
0000
0000
,
0000
0000
0000
0000
,
0330
0000
0000
0000
;

//---------------dance-single - ----------------
#NOTES:
     dance-single:
     :
     Hard:
     14:
     0.832852,2.043417,0.146482,0.039062,0.092772,597.000000,582.000000,15.000000,4.000000,0.000000,0.000000,0.832852,2.043417,0.146482,0.039062,0.092772,597.000000,582.000000,15.000000,4.000000,0.000000,0.000000:
0000
0000
0000
0000
,
0000
0000
0000
0000
,
0000
0000
0000
0000
,
0000
0000
0000
0110
,
1000
0010
0100
0001
0000
0010
0000
0100
,
1000
0001
1000
0001
0100
0010
1000
0001
,
0000
0010
0001
0100
0000
0010
1000
0001
,
1000
0100
0010
0001
1000
0010
0100
0001
,
1000
0100
1000
0010
0000
0100
0001
0010
,
0001
0010
0100
1000
0010
1000
0001
1000
,
0000
0100
0010
0100
0000
1000
0010
0001
,
0100
0010
0100
0001
0000
1000
0000
0001
,
0000
0010
0001
0100
0000
0010
0000
1000
,
0100
1000
0000
0010
0100
0010
1000
0001
,
0010
0100
0010
0100
0000
1000
0010
0001
,
0100
0010
0100
0001
1000
0010
1000
0001
,
1000
0100
0010
0001
0000
0100
0010
0100
,
0001
1000
0010
0100
0010
1000
0001
0100
,
0000
0001
1000
0100
0000
0010
0001
0100
,
0001
0010
1000
0001
0100
1000
0010
0000
,
1000
0010
0100
0000
,
0001
0001
0000
0010
,
0001
0010
0100
1000
,
0010
1000
0001
0100
,
0010
0100
0001
0010
,
1000
0010
0001
0100
,
1000
0100
0010
0100
,
0001
0100
0000
0001
,
0010
0001
0100
0000
,
1000
1000
0000
0001
,
1000
0001
0010
0100
,
1000
0010
1000
0010
,
0100
0010
0001
0010
,
1000
0100
0010
0001
,
0100
0010
1000
0000
,
0100
0110
0000
0001
,
0010
0001
0100
0010
,
0001
0010
1000
0100
,
0001
0100
0010
0100
,
0001
0100
1000
0010
,
0100
0010
1000
0100
,
0010
0001
0100
1000
,
0100
0001
1000
0100
,
0010
0001
0000
0100
,
0001
0100
0010
1000
,
0001
0001
0000
1000
,
0100
0000
1000
0010
,
0100
0001
0010
0100
,
1000
0010
1000
0001
,
0010
0100
1000
0010
,
0001
0010
1000
0010
,
0100
0100
0000
0001
,
0010
0001
1000
0000
,
0010
0100
0010
1000
,
0100
1000
0100
0001
,
0100
0001
0100
1000
,
0010
1000
0010
0001
,
0010
0001
0010
1000
,
0001
1000
0001
1000
,
0001
1000
0001
0010
,
0100
0010
0100
1000
,
0010
1000
0001
0100
,
0010
0100
0010
0100
,
0001
0100
0010
1000
,
0100
1000
0001
0100
,
0001
1000
0010
1000
,
0001
0000
0010
0000
0001
0000
0101
1100
,
0001
0010
0001
0100
,
0000
0010
1000
0001
,
1000
0100
0001
0000
,
1000
0010
0001
0000
,
0100
0000
0000
0000
0100
0000
0000
0000
0100
0000
0000
0000
,
0100
0000
0000
0000
0100
0000
0000
0000
0100
0000
0000
0000
,
0001
1000
0001
1000
,
0001
1000
0001
1000
,
0010
1000
0010
0100
,
0001
0010
0100
1000
,
0010
0100
0010
0100
,
0001
1000
0001
1000
,
0100
0010
0100
1000
,
0010
0001
0010
1000
,
0001
0100
0001
0100
,
0001
1000
0200
0000
,
1300
0000
0000
1000
0000
0000
0001
0000
0000
1000
0000
0000
0000
0000
0000
0010
0000
0000
0100
0000
0001
0000
0000
0001
,
1000
0000
0000
0010
0000
0000
1001
0000
0000
0100
0000
0001
0000
0000
1000
0100
0000
0000
1000
0000
0001
0000
0000
0000
,
0010
0000
0010
0000
0100
0000
0010
0000
0001
0001
1000
1000
1100
0101
1010
0011
,
1000
0100
0010
0001
0100
0010
2000
0000
,
3001
0010
0001
0100
,
0000
1000
1000
0000
,
0010
0100
0010
1000
,
0100
0001
0100
1000
,
0001
0010
0001
0100
,
0001
0010
0001
1000
,
0100
0001
0100
1000
,
0010
0100
0100
0000
,
0001
0010
0100
1000
,
0000
0001
0001
0000
,
1000
0010
1000
0001
,
0010
1000
0010
0100
,
0110
0000
0001
0011
,
0000
1000
0010
0100
,
0001
0010
0001
0100
,
0010
1000
1000
0000
,
0100
1000
0010
0001
,
0010
1000
0100
0000
,
0010
0010
0000
0001
,
1000
0010
1000
0001
,
0100
0010
0100
0001
,
0010
1000
0010
0001
,
0100
0010
0100
0001
,
1000
0010
0001
0000
,
0100
0010
0100
0001
,
0000
1000
1000
0000
,
0010
0100
0010
1000
,
0100
0010
0001
1000
,
0010
0100
0010
1000
,
0100
0001
0100
0010
,
0100
1000
0010
0001
,
0010
1000
1100
0000
,
0001
0000
1000
0000
,
0001
0000
0100
0000
,
0010
0000
1000
0000
,
1000
0000
0000
0000
,
0100
0000
0010
0000
,
0001
0000
0100
0000
,
1000
0010
1000
0010
,
1000
0000
0001
0000
,
0010
0000
0001
0000
,
0010
0000
0100
0000
,
1000
0001
1000
0000
,
0001
1000
0001
0000
,
0100
0000
0100
0000
0100
0000
0100
0000
0100
0000
0100
0000
,
0001
0010
0100
1000
,
0010
0100
0001
1000
,
0100
0010
0001
1000
,
0001
0100
0010
1000
,
0001
0000
0100
0000
,
0001
0000
0100
0000
,
0010
0000
1000
0000
,
0010
0000
1000
0000
,
0001
0000
0100
0000
,
1000
0000
0100
0000
,
0001
0000
0100
0000
,
0010
0000
0000
0000
,
0101
0010
1100
0001
,
1000
0000
0001
0000
,
0100
0010
0100
0000
,
0000
0001
1000
0001
,
0000
0000
0010
0100
,
1000
0000
0001
0000
,
1000
0000
0001
0000
,
0100
0000
0000
0000
0000
0010
0000
0000
0000
0000
1000
0000
,
0000
0220
0000
0000
0000
0000
0000
0000
,
0000
0000
0000
0000
,
0000
0000
0000
0000
,
0330
0000
0000
0000
;

//---------------dance-single - ----------------
#NOTES:
     dance-single:
     :
     Medium:
     12:
     0.661259,1.362278,0.312494,0.175778,0.063475,474.000000,442.000000,32.000000,18.000000,0.000000,0.000000,0.661259,1.362278,0.312494,0.175778,0.063475,474.000000,442.000000,32.000000,18.000000,0.000000,0.000000:
0000
0000
0000
0000
,
0000
0000
0000
0000
,
0000
0000
0000
0000
,
0000
0000
0000
0110
,
1000
0000
0010
0000
1000
0100
1000
0000
,
0001
0010
0100
0000
1100
0000
0101
0000
,
0000
0010
0000
1000
0000
0001
1000
0000
,
0100
0010
0001
0000
0101
0000
1100
0000
,
0001
0000
0010
0001
0000
0100
0010
0000
,
1000
0001
1000
0000
1010
0000
0101
0000
,
0000
0010
0000
1000
0000
0100
0000
1000
,
0001
0100
0010
0000
1010
0000
0011
0000
,
0100
1000
0010
1000
0000
0001
0100
0000
,
0010
1000
0100
0000
0110
0000
1001
0000
,
0000
0001
1000
0001
0000
1000
0000
0100
,
0010
0001
0100
0000
0001
0010
1000
0000
,
0000
0100
0000
0010
0000
0001
0000
1000
,
0001
0100
0010
0000
1000
0100
0001
0000
,
0000
1000
0000
0001
0000
1000
0000
0100
,
0010
0100
0010
0100
0010
0100
1000
0000
,
0000
0010
0100
0000
,
0001
0100
0000
0010
,
1000
0010
0000
1000
,
0100
0001
0000
0010
,
0001
0010
0100
1000
,
0001
0100
0000
0001
,
1000
0001
0010
0100
,
1000
0001
0000
0100
,
0000
0001
0010
0000
,
0001
1000
0000
0001
,
0100
0010
0000
1000
,
0100
1000
0000
0001
,
0010
0100
0000
1000
,
0001
1000
0000
0010
,
0000
1000
0001
0000
,
1000
0100
0000
0010
,
0100
0010
0001
0100
,
0010
1000
0000
0001
,
1000
0001
0010
0100
,
1000
0001
0000
0100
,
0010
0100
0010
0000
,
1000
0001
0000
1000
,
0100
0010
0001
0000
,
0001
0100
0000
0001
,
1000
0001
0010
0000
,
0010
0100
0000
1000
,
0001
1000
0010
0100
,
0001
0010
0000
0100
,
1000
0010
1000
0100
,
0010
0001
0000
1000
,
0001
1000
0010
0000
,
0100
0001
0000
0010
,
0001
0010
0100
0000
,
1000
0001
0000
0101
,
0000
1010
0000
1100
,
0000
0011
0000
1000
,
0001
1000
0001
0000
,
0010
0000
0100
1000
,
0000
0001
0000
1000
,
0010
0100
0001
0010
,
0001
0010
0100
1000
,
0001
1000
0000
0001
,
0100
0010
0000
1000
,
0100
0001
0000
0010
,
0001
0100
0010
0000
,
0010
1000
0001
1000
,
0100
0000
1000
0000
0100
0000
1000
0001
,
1000
0010
0100
0000
,
0001
0010
0001
0000
,
0100
0010
0100
0000
,
0001
0010
1000
0000
,
0001
0000
0000
0000
0010
0000
0000
0000
0100
0000
0000
0000
,
1000
0000
0000
0000
0010
0000
0000
0000
0100
0000
0000
0000
,
0001
1000
0001
0000
,
0011
0000
1100
0000
,
0001
0100
0001
0100
,
0010
1000
0001
0000
,
1000
1000
1000
0000
,
0001
0001
0001
0000
,
0010
0001
0100
0000
,
0010
1000
0001
0000
,
1010
0000
0101
0000
,
0011
0000
1100
0000
,
0001
0001
0000
0100
0000
0010
1000
0000
,
0100
0010
1001
0000
0000
0010
0100
0000
,
0001
0000
1000
0000
0000
0000
0001
0000
0100
0100
0010
0010
0100
0010
1000
0001
,
0020
0032
2003
3200
,
1300
0000
0010
1000
,
0000
0001
0100
0000
,
0001
1000
0100
0000
,
1001
0000
0110
0000
,
1000
0010
1000
0000
,
0001
0010
0001
0000
,
0100
0010
0100
0001
,
0010
0100
1000
0000
,
0001
0000
1000
0001
,
0000
1000
0100
0000
,
0010
0001
0100
0000
,
1010
0000
0001
1000
,
0010
0000
1000
0001
,
0000
1000
0001
0000
,
0100
0000
0010
1000
,
0000
0001
0100
0000
,
0001
0010
0001
0010
,
0000
0100
1000
0000
,
0010
0100
0000
0000
,
0110
0000
1000
0001
,
1000
0000
0010
0000
,
1000
0100
0001
0000
,
0010
0001
0100
0000
,
0001
0010
0100
0000
,
1000
0010
1000
0001
,
0000
1000
0100
0000
,
1000
0001
1000
0000
,
1100
0000
0101
0000
,
0010
1000
0001
0000
,
1000
0100
0010
0000
,
0001
1000
0001
0100
,
0000
0010
0010
0000
,
1000
0000
0001
0000
,
1000
0000
0010
0000
,
1000
0000
0001
0000
,
0100
0000
0000
0000
,
0001
0000
0010
0000
,
0100
0000
0000
0000
,
1000
0000
0010
0000
,
1000
0000
0000
0000
,
0001
0000
0010
0000
,
0001
0000
1000
0000
,
0010
0000
0100
0000
,
0001
0000
0000
0000
,
1000
0000
0100
0000
0010
0000
0001
0000
0100
0000
0010
0000
,
2000
0000
3020
0000
,
0230
0000
0302
0000
,
0023
0000
0230
0000
,
2300
0000
3002
0000
,
0103
0000
0001
0000
,
0100
0000
0001
0000
,
1000
0000
0100
0000
,
1000
0000
0100
0000
,
1000
0000
0001
0000
,
0100
0000
0010
0000
,
1000
0000
0000
0000
,
0000
0000
0000
0000
,
1100
0000
0202
0000
,
0000
0000
0000
0000
0000
0000
0000
0000
0303
0000
0000
0000
0000
0000
0000
0000
0000
0000
0000
0000
0000
0000
0000
0000
0000
2020
0000
0000
0000
0000
0000
0000
,
0000
0000
0000
0000
,
0000
3030
0000
0000
,
0000
0000
0000
0000
,
0000
1000
0000
0000
0000
0000
0000
0000
,
0000
0000
0000
0001
0000
0000
0000
0000
,
0000
1000
0000
0000
,
0000
0220
0000
0000
0000
0000
0000
0000
,
0000
0000
0000
0000
,
0000
0000
0000
0000
,
0330
0000
0000
0000
;

//---------------dance-single - ----------------
#NOTES:
     dance-single:
     :
     Easy:
     10:
     0.509198,1.135232,0.195309,0.126951,0.009765,365.000000,345.000000,20.000000,13.000000,0.000000,0.000000,0.509198,1.135232,0.195309,0.126951,0.009765,365.000000,345.000000,20.000000,13.000000,0.000000,0.000000:
0000
0000
0000
0000
,
0000
0000
0000
0000
,
0000
0000
0000
0000
,
0000
0000
0000
0000
,
1000
0010
1000
0001
,
0010
0100
0010
0001
,
0100
0010
1000
0100
,
1000
0001
0100
0010
,
0100
0001
0100
0010
,
1000
0100
1000
0001
,
1000
0100
0010
0100
,
1000
0010
0100
0001
,
0010
0100
0010
0001
,
0100
0010
1000
0100
,
0010
0100
1000
0001
,
0010
0001
0100
0010
,
1000
0001
1000
0100
,
1000
0010
0100
0001
,
0010
0100
1000
0010
,
1000
0000
0001
0000
1000
0100
0010
0000
,
0000
0000
0001
0000
,
1000
0100
0000
1000
,
0000
0010
0000
1000
,
0000
0001
0000
0010
,
0000
0100
0000
0010
,
0000
0001
0000
0100
,
0000
0010
0000
1000
,
0001
1000
0000
0001
,
0000
0000
0010
0000
,
0100
1000
0000
0010
,
0000
0100
0000
0010
,
0000
1000
0000
0100
,
0000
0010
0000
0001
,
0000
1000
0000
0001
,
0000
1000
0010
0000
,
1000
0010
0000
0100
,
0000
0010
0000
0100
,
0000
0001
0000
1000
,
0010
1000
0000
0001
,
0000
0010
0000
0100
,
0000
1000
0000
0010
,
0000
1000
0000
0001
,
0100
0001
0000
1000
,
0100
1000
0000
0010
,
0000
0000
1000
0000
,
0100
0010
0000
0001
,
1000
0001
0000
0100
,
0000
0010
0000
1000
,
0000
0010
0000
1000
,
0000
0100
0000
0010
,
0000
0001
1000
0000
,
0001
1000
0000
0100
,
0000
0010
0000
0000
,
0100
1000
0000
0001
,
0000
0001
0000
1000
,
0000
1000
0000
0010
,
0000
1000
0000
0100
,
0000
0001
0000
0110
,
0000
1001
0000
0110
,
0000
1001
0000
0001
,
0000
0010
0000
0001
,
1000
0100
0000
1000
,
0001
0100
0000
0010
,
0000
1000
0000
0100
,
0010
0001
0000
0000
,
1000
0001
0000
0100
,
0010
0000
0100
0000
0000
0000
0101
1100
,
0001
0000
0010
0000
,
0001
1000
0100
0000
,
1000
0001
0100
0000
,
0010
1000
0100
0000
,
2020
0000
3030
0000
,
0202
0000
0303
0000
,
1000
0001
1000
0001
,
0100
0000
0100
0000
,
0001
0010
0100
0000
,
1000
0000
0001
0000
,
0100
0000
0100
0000
,
0010
0000
0010
0000
,
1000
0000
0010
0000
,
1000
0001
0100
0000
,
0001
0010
0001
0010
,
0001
0000
1000
0000
,
0010
0010
0000
0100
0000
0000
0000
0001
,
1000
1000
0100
0000
0000
1000
0001
0000
,
0100
0000
0100
0000
0000
0000
0010
0000
1000
0100
1000
0000
0001
0100
0001
0000
,
2000
0000
0000
3001
,
0010
0000
0001
0100
,
0000
0010
0100
0000
,
0010
1000
0100
0000
,
1010
0000
0101
0000
,
0001
0010
0001
0000
,
1000
0000
0001
0000
,
0100
0010
0100
0001
,
0010
0100
1000
0000
,
0001
0000
1000
0100
,
0000
1000
0001
0000
,
0010
0001
0100
0000
,
0001
1000
0100
0000
,
1100
0000
0000
0011
,
0000
0000
1000
0001
,
1000
0000
0010
0100
,
0000
0100
0001
0000
,
0010
0001
0100
0000
,
0000
0001
1000
0000
,
0010
1000
0000
0000
,
1010
0000
1001
0000
,
0100
0000
0010
0000
,
0100
0001
1000
0000
,
0001
0000
0010
0000
,
0001
0100
1000
0000
,
0010
0000
1000
0001
,
0000
1000
0100
0000
,
0010
0100
0010
0000
,
0011
0000
1010
0000
,
0100
0000
0001
0000
,
0010
0000
0100
0000
,
1000
0000
0001
0100
,
0000
0010
1000
0000
,
0010
0000
0000
0000
,
1000
0000
0000
0000
,
0100
0000
0010
0000
,
0001
0000
0000
0000
,
1000
0000
0001
0000
,
0100
0000
0000
0000
,
0010
0000
0000
0000
,
1000
0000
0000
0000
,
0100
0000
1000
0000
,
0001
0000
0000
0000
,
0100
0000
0001
0000
,
1000
0000
0000
0000
,
2200
3300
0022
0033
,
1000
0000
1000
0000
,
0001
0000
0001
0000
,
0100
0000
0100
0000
,
0010
0000
0010
0000
,
1000
0000
0000
0000
,
0010
0000
0000
0000
,
0100
0000
0000
0000
,
0001
0000
0000
0000
,
0010
0000
0000
0000
,
0100
0000
0000
0000
,
1000
0000
0000
0000
,
0000
0000
0000
0000
,
2002
0000
0000
0000
,
0000
0000
0000
0000
,
0000
0000
0000
0000
,
0000
0000
0000
0000
,
0000
0000
0000
0000
,
0000
0000
0000
0000
,
0000
0000
0000
0000
,
3003
0000
0000
0000
,
0000
0220
0000
0000
0000
0000
0000
0000
,
0000
0000
0000
0000
,
0000
0000
0000
0000
,
0330
0000
0000
0000
;

//---------------dance-single - ----------------
#NOTES:
     dance-single:
     :
     Beginner:
     5:
     0.259482,0.668505,0.078123,0.000000,0.000000,186.000000,178.000000,8.000000,0.000000,0.000000,0.000000,0.259482,0.668505,0.078123,0.000000,0.000000,186.000000,178.000000,8.000000,0.000000,0.000000,0.000000:
// measure 0
0000
0000
0000
0000
,  // measure 1
0000
0000
0000
0000
,  // measure 2
0000
0000
0000
0000
,  // measure 3
0000
0000
0000
0000
,  // measure 4
1000
1000
0000
0000
,  // measure 5
0001
0000
0100
0000
,  // measure 6
0010
0010
0000
0000
,  // measure 7
1000
0000
0001
0000
,  // measure 8
0100
0100
0000
0000
,  // measure 9
0010
0000
1000
0000
,  // measure 10
0001
0001
0000
0000
,  // measure 11
1000
1000
0000
0000
,  // measure 12
0001
0001
0000
0000
,  // measure 13
0010
0000
0100
0000
,  // measure 14
0010
0010
0000
0000
,  // measure 15
0001
0000
1000
0000
,  // measure 16
0100
0100
0000
0000
,  // measure 17
1000
0000
0010
0000
,  // measure 18
1000
0000
0001
0000
,  // measure 19
0100
0100
0100
0010
,  // measure 20
0000
0000
0000
0000
,  // measure 21
0000
1000
0000
1000
,  // measure 22
0000
0000
0000
0001
,  // measure 23
0000
0000
0000
0010
,  // measure 24
0000
0000
0000
0100
,  // measure 25
0000
0000
0000
1000
,  // measure 26
0000
1000
0000
1000
,  // measure 27
0000
0000
0000
0001
,  // measure 28
0000
0001
0000
0000
,  // measure 29
0000
0100
0000
0100
,  // measure 30
0000
0000
0000
0010
,  // measure 31
0000
0000
0000
1000
,  // measure 32
0000
0000
0000
0001
,  // measure 33
0000
0000
0000
0010
,  // measure 34
0000
0010
0000
0000
,  // measure 35
0000
0100
0000
0100
,  // measure 36
0000
0000
0000
1000
,  // measure 37
0000
0000
0000
0001
,  // measure 38
0000
0000
0000
1000
,  // measure 39
0000
0000
0000
0010
,  // measure 40
0000
0000
0000
0100
,  // measure 41
0000
0000
0000
0001
,  // measure 42
0000
0001
0000
0001
,  // measure 43
0000
0000
0000
0010
,  // measure 44
0000
0010
0000
0010
,  // measure 45
0000
0000
0000
0001
,  // measure 46
0000
0000
0000
0100
,  // measure 47
0000
0000
0000
0010
,  // measure 48
0000
0000
0000
1000
,  // measure 49
0000
0000
0000
0100
,  // measure 50
0000
0100
0000
0100
,  // measure 51
0000
0000
0000
1000
,  // measure 52
0000
1000
0000
1000
,  // measure 53
0000
0000
0000
0001
,  // measure 54
0000
0000
0000
0100
,  // measure 55
0000
0000
0000
0001
,  // measure 56
0000
0000
0000
1000
,  // measure 57
0000
0000
0000
1001
,  // measure 58
0000
0000
0000
0110
,  // measure 59
0000
0000
0000
0100
,  // measure 60
0000
0000
0000
0100
,  // measure 61
0000
0000
0000
0001
,  // measure 62
0000
0000
0000
1000
,  // measure 63
0000
0000
0000
0001
,  // measure 64
0000
0000
0000
0010
,  // measure 65
0000
0000
0000
0100
,  // measure 66
0000
0100
0000
0100
,  // measure 67
1000
0000
1000
0000
,  // measure 68
1000
0000
0000
0000
,  // measure 69
0010
0000
0000
0000
,  // measure 70
0100
0000
0000
0000
,  // measure 71
0110
0000
0000
0000
,  // measure 72
0000
0000
0000
0000
,  // measure 73
0001
0000
0001
0000
,  // measure 74
0001
0000
0000
0000
,  // measure 75
1000
0000
1000
0000
,  // measure 76
1000
0000
0000
0000
,  // measure 77
0100
0000
0000
0000
,  // measure 78
0010
0000
0000
0000
,  // measure 79
0100
0000
0000
0000
,  // measure 80
1000
0000
0000
0000
,  // measure 81
0001
0000
0001
0000
,  // measure 82
0001
0000
0000
0000
,  // measure 83
0100
0000
0010
0000
,  // measure 84
0100
0100
0000
0001
,  // measure 85
0001
0000
0000
0000
1000
0000
0001
0100
,  // measure 86
1001
0000
0000
0000
,  // measure 87
0010
0000
0000
0000
,  // measure 88
1000
0000
0000
0000
,  // measure 89
0001
0000
0000
0000
,  // measure 90
1000
0000
0100
0000
,  // measure 91
1000
0000
0000
0000
,  // measure 92
0010
0000
0000
0000
,  // measure 93
0100
0000
0001
0000
,  // measure 94
0100
0000
0000
0000
,  // measure 95
0001
0000
0001
0000
,  // measure 96
0000
0000
1000
0000
,  // measure 97
1000
0000
0000
0000
,  // measure 98
0010
0000
0000
0000
,  // measure 99
1000
0000
0000
0000
,  // measure 100
0001
0000
0000
0000
,  // measure 101
1000
0000
0000
0000
,  // measure 102
0000
0000
0100
0000
,  // measure 103
0100
0000
0000
0000
,  // measure 104
0010
0000
0000
0000
,  // measure 105
0001
0000
0000
0000
,  // measure 106
1000
0000
0001
0000
,  // measure 107
1000
0000
0000
0000
,  // measure 108
0010
0000
0000
0000
,  // measure 109
0100
0000
0001
0000
,  // measure 110
0100
0000
0000
0000
,  // measure 111
0001
0000
0000
0000
,  // measure 112
0010
0000
0000
0000
,  // measure 113
0001
0000
0000
0000
,  // measure 114
1000
0000
0010
0000
,  // measure 115
1000
0000
0000
0000
,  // measure 116
0100
0000
0000
0000
,  // measure 117
0010
0000
0001
0000
,  // measure 118
0010
0000
0100
0000
,  // measure 119
1000
0000
0000
0000
,  // measure 120
0000
0000
0000
0000
,  // measure 121
0001
0000
0000
0000
,  // measure 122
0000
0000
0000
0000
,  // measure 123
1000
0000
0000
0000
,  // measure 124
0100
0000
0000
0000
,  // measure 125
0010
0000
0000
0000
,  // measure 126
0100
0000
0000
0000
,  // measure 127
1000
0000
0000
0000
,  // measure 128
0000
0000
0000
0000
,  // measure 129
0001
0000
0000
0000
,  // measure 130
0000
0000
0000
0000
,  // measure 131
0110
0000
1001
0000
,  // measure 132
0010
0000
0000
0000
,  // measure 133
0010
0000
0000
0000
,  // measure 134
0100
0000
0000
0000
,  // measure 135
0100
0000
0000
0000
,  // measure 136
0001
0000
0000
0000
,  // measure 137
0000
0000
0000
0000
,  // measure 138
1000
0000
0000
0000
,  // measure 139
0000
0000
0000
0000
,  // measure 140
0001
0000
0000
0000
,  // measure 141
0000
0000
0000
0000
,  // measure 142
1000
0000
0000
0000
,  // measure 143
0000
0000
0000
0000
,  // measure 144
1001
0000
0000
0000
,  // measure 145
0000
0000
0000
0000
,  // measure 146
0000
0000
0000
0000
,  // measure 147
0000
0000
0000
0000
,  // measure 148
0000
0000
0000
0000
,  // measure 149
0000
0000
0000
0000
,  // measure 150
0000
0000
0000
0000
,  // measure 151
0000
0000
0000
0000
,  // measure 152
0000
0110
0000
0000
0000
0000
0000
0000
;
