#TITLE:666;
#SUBTITLE:;
#ARTIST:RoughSketch;
#TITLETRANSLIT:;
#SUBTITLETRANSLIT:;
#ARTISTTRANSLIT:;
#GENRE:;
#CREDIT:;
#BANNER:666-bn.png;
#BACKGROUND:666-bg.png;
#LYRICSPATH:;
#CDTITLE:;
#MUSIC:666.ogg;
#OFFSET:1.250000;
#SAMPLESTART:11.723000;
#SAMPLELENGTH:12.000000;
#LASTBEATHINT:0.671550;
#SELECTABLE:YES;
#DISPLAYBPM:167.000000;
#BPMS:0.000000=166.500000
;
#STOPS:
;
#BGCHANGES:;
#KEYSOUNDS:;
#ATTACKS:;

//---------------dance-single - ----------------
#NOTES:
     dance-single:
     :
     Hard:
     17:
     0.865203,1.042395,0.084234,0.185315,0.817069,719.000000,709.000000,10.000000,22.000000,0.000000,0.000000,0.865203,1.042395,0.084234,0.185315,0.817069,719.000000,709.000000,10.000000,22.000000,0.000000,0.000000:
0000
0000
0000
0000
,
0000
0000
0000
0000
,
0000
0000
0000
0000
,
0000
0000
0000
0000
,
0000
0000
0000
0000
,
0000
0000
0000
0000
,
0000
0000
0000
0000
,
0000
0000
0000
0000
,
0000
0000
0000
0000
,
0100
0000
0100
0000
1000
0001
0000
0001
1000
0001
0000
0001
1000
0001
0000
0001
,
0100
0000
0100
0000
0001
1000
0001
1000
0001
0000
0000
0000
0100
0010
0100
0000
,
0001
0000
1000
0100
1000
0000
0001
0100
0001
0000
0010
0000
0100
0000
1000
0000
,
0010
0100
0010
1000
0010
0100
0010
1000
0002
0000
0203
0000
0320
0000
2030
0000
,
3100
0000
1000
0010
1000
0000
0001
0010
0001
0000
0100
0010
0100
0000
0001
1000
,
0001
0000
0010
0100
0000
0010
0100
0000
1000
0000
1000
0000
1000
0000
1000
0001
,
0100
0000
0010
1000
0010
0000
0100
0001
0100
0000
0001
0000
1000
0010
0100
0001
,
0010
0000
0000
0000
0000
0000
0100
0000
0000
1000
0000
0000
0001
0000
0000
0000
0000
0000
0100
0000
0000
0000
0000
0000
0010
0000
0000
0000
0100
0000
0000
0000
0001
0000
0000
0000
0010
0000
0000
0000
0100
0000
0000
0000
1000
0000
0000
0000
,
0001
0000
0100
0010
0100
0001
0100
0010
1000
0000
0001
0000
1000
0100
0000
0010
,
0002
0000
0000
0000
0000
0000
0000
0000
1003
0000
0000
0000
0001
1000
0100
0000
,
0010
0010
0010
0010
0001
0001
0001
0001
,
0100
0100
0100
0100
1000
1000
1000
1000
,
0001
0000
0000
0001
0000
0000
0001
0000
0000
0001
0000
0000
1000
0000
0000
1000
0000
0000
1000
0000
0100
0000
0010
0000
,
0001
0000
0001
0000
0001
0000
0001
0100
0010
0000
0010
1000
0000
1000
0001
0000
,
0200
0000
0310
0010
1000
1000
0001
0001
,
1000
1000
0100
0100
0010
0010
0001
0001
,
0100
0100
0100
0100
0010
0010
0010
0010
,
1000
0000
0001
1000
0000
0001
0100
0000
0000
0000
0110
0000
1000
0000
0000
0000
,
0101
1000
0001
0000
0020
0000
0230
0000
,
1300
0001
1000
0001
1000
0001
1000
0001
0100
0000
0000
0000
0010
0000
0100
0000
,
1001
0000
0000
0000
0100
0001
0100
0000
0010
1000
0010
1000
0010
0000
0100
0000
,
0001
0010
0001
0010
0100
1000
0001
0000
0100
0010
0100
0010
0100
0000
0001
0000
,
1000
0000
0000
0000
0101
0000
0000
0000
0010
1000
0100
1000
0010
0000
0100
0000
,
0001
0010
0100
0010
0001
0000
1000
0000
0020
0000
0230
0000
0302
0000
2003
0000
,
3100
0000
0000
1100
0000
0000
0101
0000
1000
0010
1000
0001
0010
0000
0100
1000
,
0002
0000
0000
0000
0013
0001
0010
0100
2000
0000
0000
0000
3001
0100
0010
0100
,
0001
0000
1000
0000
0100
0010
0100
0010
0001
0000
0001
0000
1000
0000
1000
0000
,
0000
0000
0001
0000
1000
0100
1000
0100
0010
0000
0010
0000
0010
0000
0000
0000
,
0001
0000
1000
0100
1000
0000
0001
0000
1000
0000
0010
0100
0001
0000
0100
0000
,
0010
0000
1000
0001
1000
0000
0100
0000
0010
0000
0001
0100
0001
0000
1000
0000
,
0001
0000
0010
0100
1000
0000
0010
0000
0100
0000
0010
1000
0001
0000
0100
0000
,
0001
0000
1000
0010
0100
0000
0001
0000
0010
0000
0010
0000
0010
0000
0010
0000
,
0100
0000
1000
0001
0100
0000
0000
0000
0010
0000
1000
0001
1000
0000
0100
0000
,
0010
0000
0001
0100
0001
0000
0010
0000
0100
0000
1000
0001
1000
0000
0010
0000
,
0100
0000
0010
1000
0100
0000
0010
0000
0001
0000
1000
0001
1000
0000
0010
0000
,
0100
0000
0110
0000
0000
0000
0010
0000
1010
0000
0000
0000
0001
1000
0100
0000
,
0010
0000
0000
0000
0001
1000
0001
1000
0001
0000
0100
0000
0200
0000
0000
0000
,
0300
0000
0010
0000
1000
0100
1000
0100
1000
0000
0001
0000
0001
0000
0000
0000
,
0000
0000
0100
0000
0001
0010
0001
0010
0001
0000
1000
0000
0010
0000
0100
0000
,
0001
0010
0001
0100
1000
0010
1000
0100
,
0000
0000
0010
0000
0001
1000
0001
1000
0001
0000
0100
0000
0010
0000
1000
0000
,
0000
0000
0100
0000
1000
0010
1000
0010
1000
0000
0001
0000
0001
0000
0000
0000
,
0000
0000
0010
0000
0001
0100
0001
0100
0001
0000
1000
0000
0001
0000
0100
0000
,
0010
0010
1000
0001
0002
0000
0103
0010
,
1000
0000
1000
0000
0100
0010
0100
1000
0001
0000
0001
0000
0100
0010
1000
0001
,
0100
0000
0100
0000
0010
1000
0010
0100
0001
0000
0001
0000
0001
0000
0000
0000
,
0010
0000
0010
0000
0100
1000
0001
1000
0100
0000
0100
0000
1000
0010
0100
0001
,
1000
0000
1000
0000
0010
1000
0100
0010
0001
0000
0001
0000
0001
0000
0000
0000
,
1001
0000
0000
0000
1000
0100
1000
0100
1000
0000
0010
0000
0100
0000
0001
0000
,
0000
0000
0010
0000
0001
1000
0001
1000
0001
0000
0100
0000
0010
0000
1000
0000
,
0000
0000
0100
0000
1000
0010
1000
0010
1000
0000
0001
0000
1000
0000
0100
0000
,
0022
0000
0000
0030
,
1003
0000
0100
0000
1000
0000
0100
0000
1000
0000
0100
0000
1000
0001
0100
0000
,
0010
0000
1000
0000
0100
0010
0001
0100
0010
0000
1000
0000
0001
0000
1000
0000
,
0100
0000
0010
0000
0001
0100
0010
0100
0001
0000
1000
0000
0100
0000
0010
0001
,
1000
0000
0010
0000
1000
0001
0010
0100
1000
0000
0001
0000
0100
0000
0010
0000
,
0100
0000
0001
1000
0010
1000
0100
0000
0010
0000
0010
0000
0010
0000
0010
0000
,
0001
0000
0100
0010
0100
0000
0001
1000
0001
0000
0010
0000
0100
0000
1000
0000
,
0010
0000
0000
1000
0000
0000
0100
0000
0000
0010
0000
0000
0001
0000
0000
1000
0000
0000
0001
0000
0000
0000
0000
0000
0100
0000
0000
0010
0000
0000
0100
0000
0000
0010
0000
0000
1000
0000
0000
0000
0001
0000
0000
0000
0010
0000
0000
0000
,
0100
1000
0100
0010
0100
0000
1000
0000
0001
0000
0001
0000
0001
0000
0100
0010
,
1000
0000
0001
0000
1000
0000
0100
0000
0010
0001
0100
0000
0010
1000
0100
0000
,
0010
0000
0001
0000
1000
0000
0010
1000
0100
1000
0001
0100
0000
0000
0010
1000
,
0010
0000
1000
0001
1000
0000
0100
0010
0002
0000
0000
0000
2003
0000
0000
0000
,
3001
0100
0010
1000
0000
0100
0010
0000
0001
0000
1000
0001
0000
0010
0100
0000
,
1000
0000
0010
0100
0001
0000
0010
0000
0100
1000
0100
0000
1000
0001
0000
0001
,
0100
0000
0010
0000
0100
0001
0100
0000
0001
0010
0100
1000
0000
0000
0000
0000
,
0010
0000
1000
0001
1000
0100
0010
0001
0100
0010
0100
0000
0002
0000
0000
0000
,
1003
0000
0010
0100
0000
0100
0001
0000
0010
0000
0100
1000
0001
0000
0100
0010
,
0100
0000
0001
0000
1000
0100
1000
0000
0001
0000
0010
0000
0001
0100
0001
0000
,
1000
0100
1000
0100
1000
0100
1000
0100
1000
0100
1000
0100
1000
0100
1000
0100
,
1000
0100
1000
0100
1000
0100
1000
0100
0010
0000
0010
0000
0010
0000
0010
0000
,
0001
1000
0001
1000
0010
0100
0010
0100
0001
1000
0001
1000
0010
0100
0010
0100
,
0001
0000
0001
0000
1000
0100
0000
0100
1000
0100
0000
0100
1000
0100
0000
0100
,
0020
0000
0030
0000
;

//---------------dance-single - ----------------
#NOTES:
     dance-single:
     :
     Medium:
     13:
     0.605281,0.660183,0.067387,0.219008,0.080022,503.000000,495.000000,8.000000,26.000000,0.000000,0.000000,0.605281,0.660183,0.067387,0.219008,0.080022,503.000000,495.000000,8.000000,26.000000,0.000000,0.000000:
0000
0000
0000
0000
,
0000
0000
0000
0000
,
0000
0000
0000
0000
,
0000
0000
0000
0000
,
0000
0000
0000
0000
,
0000
0000
0000
0000
,
0000
0000
0000
0000
,
0000
0000
0000
0000
,
0000
0000
0000
0000
,
0100
0100
1000
0000
1000
0000
1000
0000
,
0100
0100
1000
0001
0100
0000
0100
0010
,
0000
1000
0010
1000
0001
0010
0100
1000
,
0010
0100
0010
1000
0001
0010
0100
1000
,
0001
1000
0100
1000
0010
0100
0010
1000
,
0001
0000
0000
0001
0000
0000
0001
0000
0010
0000
0001
0000
0010
0000
0100
0000
,
1000
0001
0100
0001
0010
0000
0100
1000
,
0001
0100
0001
0010
0100
1000
0001
1000
,
0100
0010
0001
0100
0001
0010
1000
0000
,
2200
0000
0300
0000
0001
0000
3100
1000
,
0010
0100
0010
0000
1000
0100
1000
0000
,
0001
0100
0001
0000
1000
0010
1000
0000
,
0001
0010
0100
0000
1000
0001
0100
0000
,
0010
0000
1000
0000
0010
0000
0100
0000
0001
0000
0000
1000
0000
0000
0001
0000
,
0020
0000
0031
1000
0001
0000
0100
0010
,
1000
0000
0100
1000
0001
0000
0100
0010
,
0000
1000
0001
1000
0000
0001
0010
0001
,
0100
0000
0000
0100
0000
0000
0100
0000
0000
0000
0010
0000
1000
0000
0000
0000
,
0102
2003
3200
0320
,
0031
1000
0001
1000
0010
0000
0110
0000
,
1001
0000
0100
0001
0010
0001
0010
0001
,
1000
0010
1000
0100
0010
0001
0100
0000
,
0020
0000
1030
0000
0100
1000
0001
0100
,
0010
1000
0010
1000
0001
0010
0100
1000
,
0001
0000
0000
1000
0000
0000
0001
0000
0200
0000
0000
0000
0310
0000
1000
0000
,
0002
0000
0013
0100
2000
0000
3001
0100
,
0000
0010
1000
0010
1000
0100
0010
0001
,
0000
0100
0001
0010
0001
1000
0200
0000
,
0310
0000
0001
0100
1000
0000
0001
1000
,
0100
0000
0010
0001
0100
0000
1001
0000
,
0010
0000
1000
0100
1000
0000
0001
0100
,
0010
0000
1000
0001
1000
0100
0010
0001
,
0100
0000
1010
0000
0001
1000
0001
0100
,
0010
0000
1000
0001
1000
0100
0010
0000
,
0001
0100
0010
1000
0100
0010
0100
1000
,
0010
0100
0010
1000
0002
0000
2003
0000
,
3100
0000
1000
0001
1000
0010
0100
0000
,
0000
0001
0010
0001
0010
0100
1000
0000
,
0000
0001
0100
0001
0100
0010
1000
0001
,
0010
0100
1000
0000
0010
0100
0001
0000
,
1000
0001
1000
0100
0010
0001
0100
0010
,
0000
1000
0100
1000
0010
0100
0001
1000
,
0000
0100
0010
0001
0010
0100
1000
0001
,
0100
0010
1000
0010
2000
0000
3001
0000
,
0010
0010
0002
0000
0103
0100
0020
0000
,
1030
0001
1000
0100
0010
0010
0010
0000
,
0001
0001
2000
0000
3010
0010
0200
0000
,
0301
0001
1000
0010
0100
0100
0100
0000
,
0110
0000
0001
0010
0001
1000
0100
0010
,
0000
0001
1000
0001
1000
0100
0010
0001
,
0000
0100
0010
1000
0001
1000
0100
0010
,
0022
0000
0000
0030
,
1000
0000
1000
0000
1003
0001
0100
0001
,
0000
1000
0100
1000
0010
0100
0001
1000
,
0001
0010
0001
0100
0010
1000
0010
0100
,
0001
0010
0001
0100
0010
1000
0001
0100
,
0010
1000
0010
1000
0001
0010
0001
0100
,
0000
0000
0001
1000
0001
0000
0100
0000
0010
0000
1000
0000
0100
0000
1000
0000
,
0001
0000
0000
0010
0000
0000
0001
0000
0000
0100
0000
0000
0010
0000
0000
1000
0000
0000
0100
0000
0010
0000
0100
0000
,
0010
0001
0100
0001
1000
0010
0100
0001
,
1000
0100
1000
0010
0200
0000
0301
0100
,
0001
0000
0010
0000
0001
0000
0100
0000
0010
0000
1000
0001
0000
1000
0001
0000
,
1000
0100
1000
0001
0200
0000
0320
0000
,
1030
0000
0000
0100
0000
0000
0010
0000
0001
0000
1000
0000
0010
0000
0100
0000
,
0001
0010
0001
0100
1000
0010
1000
0001
,
0100
0000
0001
0000
0010
0000
0100
0000
1000
0001
1000
0001
0000
0000
0000
0000
,
0100
0000
0001
0000
0010
0100
0010
0100
0010
0000
0001
0000
2000
0000
0000
0000
,
3001
0000
0100
0010
0000
0100
0010
0000
1000
0000
0001
0000
1000
0000
0100
0000
,
0010
0001
0100
0001
1000
0010
1000
0000
,
0001
0001
0001
0001
0001
0001
0001
0001
,
1000
1000
0001
1000
1000
0100
0010
0001
,
0100
0100
0100
0100
0100
0100
0100
0100
,
0010
0000
0010
0000
1000
0000
0000
0001
1000
0000
0000
0001
1000
0000
0000
0001
,
0020
0000
0030
0000
;

//---------------dance-single - ----------------
#NOTES:
     dance-single:
     :
     Easy:
     10:
     0.458473,0.521197,0.168468,0.320089,0.000000,381.000000,361.000000,20.000000,38.000000,0.000000,0.000000,0.458473,0.521197,0.168468,0.320089,0.000000,381.000000,361.000000,20.000000,38.000000,0.000000,0.000000:
0000
0000
0000
0000
,
0000
0000
0000
0000
,
0000
0000
0000
0000
,
0000
0000
0000
0000
,
0000
0000
0000
0000
,
0000
0000
0000
0000
,
0000
0000
0000
0000
,
0000
0000
0000
0000
,
0000
0000
0000
0000
,
0100
0100
0000
0000
0000
0000
0000
0000
,
0100
0100
0000
0000
1001
0000
0110
0000
,
0000
1000
0001
0000
0010
0000
0001
0000
,
0100
0000
0010
0000
1000
0001
1000
0100
,
0010
0001
0100
0010
,
1010
0000
0101
0000
1000
0001
1000
0100
,
0010
0000
0001
0100
0001
0000
1000
0010
,
1000
0100
1100
0011
,
0100
0000
0001
1000
0001
0000
0010
0100
,
2000
0000
0001
3100
,
0001
0001
1000
1000
,
0001
0001
1000
1000
,
0010
0010
0100
0100
,
0010
0010
0100
0100
,
0002
0000
1003
0100
1000
0000
0010
0000
,
0100
0001
1000
0001
,
0010
0010
0001
1000
,
0001
0000
1000
0100
0000
0010
0000
0000
,
0110
0000
0002
2003
,
3020
2030
3100
1100
,
1001
0020
2030
3002
,
2003
3200
0320
0032
,
0203
0301
2000
3002
,
2003
0000
3200
0000
0310
0001
0010
0001
,
1000
0000
1000
0100
0020
0000
0031
0000
,
0200
0310
2000
3001
,
1000
0100
0010
0000
0001
1000
0001
0000
,
0010
0001
0100
0000
0010
1000
0002
0000
,
1003
1100
0001
0101
,
1000
1010
0001
0011
,
0100
0110
0010
0110
,
1000
0000
1001
0000
0001
0100
0001
0100
,
0002
0000
2003
0000
3100
0000
0010
0001
,
0100
0000
1001
0000
0010
0100
0010
0000
,
1000
0000
0001
0100
0001
0000
1000
0010
,
0000
0010
0000
0100
0001
0000
1000
0000
,
1010
0001
0100
0001
,
0010
0100
1000
0000
0001
0100
0001
0000
,
1000
0010
1000
0001
,
0100
0010
1000
0000
0001
0010
0100
0000
,
1000
0000
0010
0000
1000
0001
1000
0100
,
0010
0000
0001
1000
0001
0000
0100
0000
,
0010
0000
1000
0100
1000
0000
0001
0100
,
0010
0010
2000
3000
,
0001
0001
0000
0000
1000
1000
0000
0000
,
0010
0010
0000
0000
1000
0001
0100
0000
,
0001
0001
0000
0000
0010
0010
0000
0000
,
0100
0100
0000
0000
1000
0001
0100
0000
,
0002
0010
1000
0103
,
2000
0010
0001
3100
,
0010
0001
0100
0000
0010
1000
0001
0000
,
0022
0000
0000
0030
,
1000
0000
1000
0000
1003
0001
1000
0001
,
0000
1000
0010
0000
1000
0001
0100
0000
,
0010
1000
0001
0000
0010
0100
1000
0000
,
0001
0100
0001
0000
0010
0100
1000
0000
,
0001
0100
0001
0100
0001
0100
0001
0000
,
0110
0000
1000
0010
1000
0001
0010
0000
,
0100
1000
0001
0000
1000
0100
0010
0000
,
0001
0100
0010
0100
0001
0000
1000
0100
,
0010
0001
0100
0000
0020
0000
0030
0000
,
1000
0010
1000
0000
0001
0010
0001
0000
,
0200
0320
2030
3002
,
0013
0001
1000
0000
1000
0001
0100
0000
,
0010
1000
0100
0000
2000
0000
3002
0000
,
0013
0001
0010
0100
1000
0001
0000
0000
,
0100
0001
0010
0001
1000
0100
0020
0000
,
0031
0100
0001
0000
1000
0001
0100
0000
,
0010
1000
0010
1000
0010
0000
0010
0000
,
0100
0010
0100
0010
0100
0010
0100
0010
,
0100
0010
0100
0010
0100
0000
0001
0000
,
1000
0100
1000
0100
1000
0100
1000
0000
,
0001
0001
0100
0000
0100
0000
0100
0000
,
0020
0000
0030
0000
;

//---------------dance-single - ----------------
#NOTES:
     dance-single:
     :
     Beginner:
     5:
     0.216602,0.312718,0.084234,0.016847,0.000000,180.000000,170.000000,10.000000,2.000000,0.000000,0.000000,0.216602,0.312718,0.084234,0.016847,0.000000,180.000000,170.000000,10.000000,2.000000,0.000000,0.000000:
0000
0000
0000
0000
,
0000
0000
0000
0000
,
0000
0000
0000
0000
,
0000
0000
0000
0000
,
0000
0000
0000
0000
,
0000
0000
0000
0000
,
0000
0000
0000
0000
,
0000
0000
0000
0000
,
0000
0000
0000
0000
,
0100
0000
0000
0000
,
0100
0000
0001
0000
,
1000
0000
0001
0000
,
0010
0010
0010
0000
,
0100
0000
1000
0000
,
0001
0001
0001
0000
,
0100
0000
0010
0000
,
0100
0000
0001
0001
,
0001
0000
1000
0000
,
0110
0000
1001
0000
,
0100
0000
0100
0000
,
0100
0000
0100
0000
,
0010
0000
0010
0000
,
0010
0000
0010
0000
,
1000
0000
1000
0000
,
0001
0000
0001
0000
,
1000
0000
1000
0000
,
0100
0100
0100
0000
,
0110
0000
1001
0000
,
0010
0010
0010
0000
,
1000
0000
0001
0000
,
1000
0000
0100
0000
,
0010
0010
0010
0000
,
0001
0000
0100
0100
,
0100
0000
0010
0000
,
1000
1000
1000
0000
,
0001
0000
0010
0000
,
0001
0000
0100
0100
,
0000
0010
0000
1000
,
0000
0001
0000
1000
,
0000
0100
0000
0010
,
0000
0001
0000
0100
,
0100
0100
0000
0010
,
0000
1000
0000
0100
,
0000
1000
0000
0001
,
0000
0100
0000
0001
,
0001
0000
0000
1000
,
1000
0000
0000
0000
,
0010
0000
0100
0000
,
0001
0000
1000
0000
,
0100
0000
0000
0010
,
0010
0000
0000
0000
,
0001
0000
1000
0000
,
0001
0000
0100
0000
,
0110
0000
0110
0000
,
0110
0000
1000
0000
,
1001
0000
1001
0000
,
1001
0000
0100
0100
,
0200
0000
0000
0000
,
0000
0000
0300
0000
,
0010
0000
0000
0000
,
0010
0000
0000
0000
,
1000
1000
1000
1000
,
0000
0001
0100
0001
,
0000
1000
0010
1000
,
0000
0010
0100
0010
,
1000
0000
0001
0000
,
0010
0001
0010
0100
,
0000
1000
0100
1000
,
0000
0001
1000
0001
,
0100
0100
0100
0000
,
0010
0000
1000
0000
,
0001
0001
1000
1000
,
0001
0000
0010
0000
,
0001
0000
0100
0000
,
0010
0010
0010
0000
,
0100
0100
0100
0000
,
0001
0000
1000
0000
,
0100
0100
0010
0000
,
0001
0001
0001
0001
,
0001
0001
0001
0000
,
1000
1000
1000
1000
,
0010
0000
0100
0000
,
0020
0000
0030
0000
;

//---------------dance-single - ----------------
#NOTES:
     dance-single:
     :
     Challenge:
     19:
     1.220189,1.459353,0.303242,0.117928,1.781548,1014.000000,978.000000,36.000000,14.000000,0.000000,0.000000,1.220189,1.459353,0.303242,0.117928,1.781548,1014.000000,978.000000,36.000000,14.000000,0.000000,0.000000:
// measure 0
0000
0000
0000
0000
,  // measure 1
0000
0000
0000
0000
,  // measure 2
0000
0000
0000
0000
,  // measure 3
0000
0000
0000
0000
,  // measure 4
0000
0000
0000
0000
,  // measure 5
0000
0000
0000
0000
,  // measure 6
0000
0000
0000
0000
,  // measure 7
0000
0000
0000
0000
,  // measure 8
0000
0000
0000
0000
,  // measure 9
0100
0000
0000
0000
0000
0000
0100
0000
0000
0000
0000
0000
1000
0000
0010
0000
0100
0000
0001
0000
0000
0010
0000
0000
0001
0000
0100
0000
0010
0000
1000
0000
0000
0100
0000
0000
1000
0000
0001
0000
0100
0000
0010
0000
0000
1000
0000
0000
,  // measure 10
0100
0000
0000
0000
0000
0000
0100
0000
0000
0000
0000
0000
0010
0000
0001
0000
1000
0000
0010
0000
0000
0100
0000
0000
0001
0000
0000
0000
0000
0000
0000
0000
0000
0000
0000
0000
1000
0000
0000
0100
0000
0000
0010
0000
0000
0000
0000
0000
,  // measure 11
0001
0000
0100
0010
0100
0001
1000
0100
0010
0001
0100
0001
0010
0100
1000
0001
,  // measure 12
0100
0010
0100
0001
0010
0100
1000
0001
0011
0000
0110
0000
1100
0000
0101
0000
,  // measure 13
1001
0000
0000
0000
0000
0000
0010
0000
0000
1000
0000
0000
0001
0000
0000
1000
0000
0000
0100
0000
0000
0010
0000
0000
0001
0000
0000
0100
0000
0000
0010
0000
0000
1000
0000
0000
0100
0000
0010
0000
0100
0000
0010
0000
0000
0001
0000
0000
,  // measure 14
1000
0000
0010
0000
1000
0000
0010
0000
0000
0100
0000
0000
0001
0000
0000
1000
0000
0000
0010
0000
0100
0000
0010
0000
1000
0000
0000
0000
0000
0000
1000
0000
0000
0000
0000
0000
1000
0000
0000
0000
0000
0000
1000
0000
0000
0100
0000
0000
,  // measure 15
0010
0000
0000
0000
0000
0000
0001
0000
0000
0100
0000
0000
0001
0000
0000
0010
0000
0000
0100
0000
0000
1000
0000
0000
0010
0000
1000
0000
0001
0000
1000
0000
0000
0100
0000
0000
0010
0000
0000
0001
0000
0000
0100
0000
0000
1000
0000
0000
,  // measure 16
0001
0000
0000
0010
0000
0000
0001
0000
0000
0100
0000
0000
1000
0000
0000
0010
0000
0000
1000
0000
0100
0000
0010
0000
0001
0000
0000
0000
0001
0000
0000
0000
0001
0000
0000
0000
1000
0000
0000
0000
1000
0000
0000
0000
1000
0000
0000
0000
,  // measure 17
0010
0000
0000
0000
0000
0000
1000
0000
0000
0001
0000
0000
1000
0000
0100
0000
0010
0000
0001
0000
0100
0000
0010
0000
1000
0000
0000
0001
0000
0000
0010
0000
0000
0001
0000
0000
0100
0000
0000
0100
0000
0000
0000
0000
0000
0010
0000
0000
,  // measure 18
1002
0000
0000
0000
0103
0000
0000
0000
0120
0000
0000
0000
1030
0100
0001
0000
,  // measure 19
0010
0000
0010
0000
0010
0000
0010
0000
0001
0000
0001
0000
0001
0000
0001
0100
,  // measure 20
1000
0000
1000
0000
1000
0000
1000
0000
0010
0000
0010
0000
0010
1000
0001
0000
,  // measure 21
0100
0000
0000
0100
0000
0000
0100
0000
0000
0100
0000
0000
0001
0000
0000
0001
0000
0000
1000
0000
0100
0000
0001
0000
,  // measure 22
1000
0000
0000
0000
0000
0000
0010
0000
0100
0000
0001
0000
1000
0000
0000
0100
0000
0000
0000
0000
0000
0100
0000
0000
0001
0000
0000
0000
0000
0000
0010
0000
0000
0001
0000
0000
0010
0000
0000
0100
0000
0000
1000
0000
0000
0001
0000
0000
,  // measure 23
0100
0000
0000
0001
0000
0000
1000
0000
0000
0001
0000
0000
0010
0000
0100
0000
1000
0000
0001
0000
0000
0000
0000
0000
0100
0000
0000
0000
0000
0000
0100
0000
0000
0000
0000
0000
0100
0000
0000
0000
0000
0000
0100
0000
0000
0010
0000
0000
,  // measure 24
1000
0000
1000
0000
1000
0000
1000
0000
0001
0010
0001
0100
0010
1000
0100
0010
,  // measure 25
0001
0011
0110
1100
0010
1010
1001
0101
,  // measure 26
0010
0000
0100
0001
0000
0001
1000
0000
0000
0000
0110
0000
1000
0000
0000
0000
,  // measure 27
0101
0000
0010
0000
1000
0000
0100
0000
1000
0010
0001
0100
0010
0001
1000
0010
,  // measure 28
0100
0000
0000
0010
0000
0000
1000
0000
0000
0010
0000
0000
0001
0000
0000
0100
0000
0000
0010
0000
0000
1000
0000
0000
0100
0000
0010
0000
0100
0000
0010
0000
0000
0000
0000
0000
0001
0000
0000
0000
0000
0000
1000
0000
0000
0000
0000
0000
,  // measure 29
1001
0000
0000
0000
1000
0010
0001
0100
1000
0010
0001
0100
1000
0010
0001
0100
,  // measure 30
1000
0010
0001
0100
1000
0010
0001
0100
1000
0010
0001
0100
1000
0010
0001
0100
,  // measure 31
1000
0000
0100
0000
0001
0000
0000
0000
0010
0001
0100
1000
0010
0001
0100
1000
,  // measure 32
0010
0001
0100
1000
0010
0001
0100
1000
1100
0000
0110
0000
0011
0000
0101
0000
,  // measure 33
1001
0000
0000
0110
0000
0000
1001
0000
0010
0200
0000
0000
1300
0100
0001
0010
,  // measure 34
2000
0000
0000
0000
3001
0010
0001
0100
0010
0000
1000
0001
1000
0100
0010
0001
,  // measure 35
0100
0000
0001
0000
0010
0001
0100
0010
1000
0000
0001
0000
1000
0000
0100
0000
,  // measure 36
0010
0000
0001
0000
0100
0010
1000
0001
0010
0000
0010
0000
0010
0000
0100
0000
,  // measure 37
1000
0010
0100
0001
0100
1000
0001
1000
0010
1000
0010
0100
0001
0100
0001
0010
,  // measure 38
0001
0100
1000
0010
1000
0010
1000
0100
0001
1000
0010
0001
0100
0010
0001
0100
,  // measure 39
0001
1000
0010
1000
0010
0100
0010
1000
0001
1000
0001
0100
0001
0100
0010
0100
,  // measure 40
0010
0100
0001
0100
0010
0100
1000
0010
0001
1000
0100
0001
1000
0001
1000
0010
,  // measure 41
1000
0010
0001
0010
0001
0100
0001
1000
0001
1000
0100
1000
0010
0100
0010
0100
,  // measure 42
0001
0010
1000
0100
0001
0100
0001
0010
1000
0010
1000
0001
0100
0010
0100
1000
,  // measure 43
0001
0010
0100
0001
0010
1000
0010
0001
1000
0001
1000
0100
0010
0100
1000
0100
,  // measure 44
0001
1000
0100
0010
1000
0001
1000
0010
0100
0010
0100
0001
0010
0001
1000
0100
,  // measure 45
1010
0000
0001
0000
1000
0100
0010
0001
0100
0000
0010
0000
1000
0000
0001
0000
,  // measure 46
0010
0000
0100
1000
0100
0010
0001
1000
0010
0000
0100
0000
0001
0010
0001
0100
,  // measure 47
1000
0000
0010
0100
0010
1000
0001
0010
0100
1000
0001
0000
0100
0000
0010
1000
,  // measure 48
0001
0000
0000
0000
0000
0000
0010
0000
0000
0001
0000
0000
0100
0000
0000
0000
0000
0000
0010
0000
0000
1000
0000
0000
0001
0000
0000
1000
0000
0000
0100
0000
0000
0000
0000
0000
0010
0000
0000
0001
0000
0000
1000
0000
0001
0000
0100
0000
,  // measure 49
0010
0000
1000
0001
1000
0100
0010
0100
1000
0001
0100
0010
1000
0001
0010
0000
,  // measure 50
0100
1000
0100
1000
0100
0010
0001
0100
0010
0100
0010
0000
1000
0001
1000
0100
,  // measure 51
0010
0001
0010
0001
1000
0010
1000
0010
0100
0001
0100
0001
1000
0100
1000
0100
,  // measure 52
0010
0001
0010
0100
1000
0000
1000
0000
2000
0000
0000
0000
3010
0000
0100
0000
,  // measure 53
0001
0000
0000
0000
0000
0000
0001
0000
0000
0000
0000
0000
1000
0000
0100
0000
0010
0000
0001
0000
0000
0100
0000
0000
0010
0000
0000
0000
0000
0000
0010
0000
0000
0000
0000
0000
1000
0000
0001
0000
0010
0000
0100
0000
0000
1000
0000
0000
,  // measure 54
0010
0000
0000
0000
0000
0000
0010
0000
0000
0000
0000
0000
0100
0000
0001
0000
1000
0000
0010
0000
0000
0100
0000
0000
0101
0000
0000
0000
0000
0000
1100
0000
0000
0000
0000
0000
0101
0000
0000
0000
0000
0000
0000
0000
0000
0000
0000
0000
,  // measure 55
1000
0000
0000
0000
0000
0000
1000
0000
0000
0000
0000
0000
0001
0000
0010
0000
0100
0000
1000
0000
0000
0010
0000
0000
0100
0000
0000
0000
0000
0000
0100
0000
0000
0000
0000
0000
0001
0000
1000
0000
0100
0000
0010
0000
0000
0001
0000
0000
,  // measure 56
0100
0000
0000
0000
0000
0000
0100
0000
0000
0000
0000
0000
0001
0000
1000
0000
0100
0000
0010
0000
0000
0001
0000
0000
0011
0000
0000
0000
0000
0000
0110
0000
0000
0000
0000
0000
1100
0000
0000
0000
0000
0000
0000
0000
0000
0000
0000
0000
,  // measure 57
1001
0000
0000
0000
0100
0001
0010
0001
0100
0000
0010
0000
1000
0000
0001
0000
,  // measure 58
0010
0000
0100
0000
1000
0010
1000
0001
1000
0000
0100
0000
0010
0001
0010
0100
,  // measure 59
1000
0100
0001
0010
0100
0001
0100
0001
1000
0010
1000
0010
0100
1000
0010
0001
,  // measure 60
0022
0000
0000
0030
,  // measure 61
1000
0000
0000
0000
0000
0000
0100
0000
0000
0000
0000
0000
1000
0000
0000
0000
0000
0000
0100
0000
0000
0000
0000
0000
1000
0000
0000
0000
0000
0000
0100
0000
0000
0000
0000
0000
1003
0000
0000
0001
0000
0000
0100
0000
0010
0000
1000
0000
,  // measure 62
0001
0000
0010
0001
0100
0010
1000
0001
0100
0000
0010
0000
1000
0000
0100
0000
,  // measure 63
0001
0000
0010
0001
1000
0001
0100
0010
1000
0000
0100
0000
0010
0000
0001
0100
,  // measure 64
1000
0000
0010
1000
0001
1000
0100
0010
0001
0000
0100
0000
0010
0000
1000
0000
,  // measure 65
0100
0000
0010
0001
0100
0010
1000
0000
1100
0000
0011
0000
0101
0000
1010
0000
,  // measure 66
0001
0000
0010
0100
1000
0010
0001
0100
0010
0000
1000
0000
0100
0000
1000
0000
,  // measure 67
0001
0000
0000
0010
0000
0000
0001
0000
0000
0100
0000
0000
0010
0000
0000
1000
0000
0000
0100
0000
0000
0010
0000
0000
0001
0000
0000
1000
0000
0000
0100
0000
0000
1000
0000
0000
0010
0000
0000
0000
0010
0000
0000
0000
0010
0000
0000
0000
,  // measure 68
0010
0000
0000
0100
0000
0000
0001
0000
0000
0010
0000
0000
1000
0000
0000
0100
0000
0000
0010
0000
0000
0001
0000
0000
0100
0000
0000
0000
0000
0000
0100
0000
0000
0000
0000
0000
0100
0000
0000
0000
0000
0000
0001
0000
0010
0000
0100
0000
,  // measure 69
1000
0000
0000
0000
0000
0000
0010
0000
0000
0000
0000
0000
1000
0000
0000
0000
0000
0000
0001
0000
0000
0000
0000
0000
0100
0000
0000
0010
0000
0000
1000
0000
0000
0000
0000
0000
0001
0000
1000
0000
0100
0000
0010
0000
0000
0000
0000
0000
,  // measure 70
0001
0100
0010
0100
0001
0010
1000
0010
0001
0100
0010
0100
0001
0010
0100
1000
,  // measure 71
0010
0000
1000
0000
0001
0000
1000
0000
0100
0000
0010
0000
0001
0000
0100
0000
0010
1000
0010
1000
0010
0000
0100
0000
0001
0010
0001
0010
0001
0000
1000
0000
,  // measure 72
0100
0010
0100
1000
0001
0100
0010
0100
0001
0010
0001
1000
0100
0010
0001
0100
,  // measure 73
0010
0000
0000
1000
0000
0000
0010
0000
0000
0100
0000
0000
0001
0000
0000
0010
0000
0000
1000
0000
0000
0000
0000
0000
0100
0000
0000
0100
0000
0000
0100
0000
0000
0000
0000
0000
1000
0000
0001
0000
0010
0000
0100
0000
1000
0000
0001
0000
,  // measure 74
0100
0010
0100
0001
0010
0100
1000
0001
0100
0010
0100
0001
1000
0100
1000
0100
,  // measure 75
0010
0000
0001
0000
0010
0000
0100
0000
1000
0000
0001
0000
0100
0000
0010
0000
1000
0100
1000
0100
1000
0000
0000
0000
0002
0000
0000
0000
0203
0000
0000
0000
,  // measure 76
0301
0000
0010
0000
0100
0000
1000
0000
0000
0001
0000
0000
1000
0000
0000
0010
0000
0000
0100
0000
0000
0001
0000
0000
0010
0000
0000
0001
0000
0000
1000
0000
0000
0100
0000
0000
0010
0000
0000
0001
0000
0000
0100
0000
0000
1000
0000
0000
,  // measure 77
0001
0010
0001
0010
0001
0000
0100
0000
0010
1000
0010
1000
0010
0000
0100
0000
0001
0000
0000
0000
0010
0000
0000
0000
0001
0000
0100
0000
1000
0000
0000
0000
,  // measure 78
0010
1000
0100
0010
0001
0100
0010
1000
0100
0010
0001
0100
0010
1000
0100
0010
0001
0100
0010
1000
0100
0010
0001
0100
,  // measure 79
0010
1000
0100
0010
0001
0100
0010
1000
0100
0010
0001
0100
0020
0000
0000
2030
0000
0000
3002
0000
0000
0203
0000
0000
,  // measure 80
0301
0010
0100
1000
0100
0010
0001
0010
0100
1000
0100
0010
0001
0010
0100
1000
0100
0010
0001
0010
0100
1000
0100
0010
,  // measure 81
0001
0000
0000
0000
0000
0000
0001
0000
0000
0000
0000
0000
1000
0000
0010
0000
0001
0000
0100
0000
0000
1000
0000
0000
0010
0000
1000
0000
0100
0000
0001
0000
0000
0010
0000
0000
0001
0000
0100
0000
1000
0000
0010
0000
0000
0100
0000
0000
,  // measure 82
0020
0000
0030
0000
;
