#VERSION:0.83;
#TITLE:45 rotations;
#SUBTITLE:;
#ARTIST:sampling masters AYA;
#TITLETRANSLIT:;
#SUBTITLETRANSLIT:;
#ARTISTTRANSLIT:;
#GENRE:;
#ORIGIN:;
#CREDIT:;
#BANNER:45 rotations-bn.png;
#BACKGROUND:45 rotations-bg.png;
#PREVIEWVID:;
#JACKET:45 rotations-jacket.png;
#CDIMAGE:;
#DISCIMAGE:;
#LYRICSPATH:;
#CDTITLE:;
#MUSIC:45 rotations.ogg;
#OFFSET:0.000000;
#SAMPLESTART:11.615999;
#SAMPLELENGTH:20.000000;
#SELECTABLE:YES;
#DISPLAYBPM:165.000000;
#BPMS:0.000=165.000;
#STOPS:;
#DELAYS:;
#WARPS:;
#TIMESIGNATURES:0.000=4=4;
#TICKCOUNTS:0.000=4;
#COMBOS:0.000=1;
#SPEEDS:0.000=1.000=0.000=0;
#SCROLLS:0.000=1.000;
#FAKES:;
#LABELS:0.000=Song Start;
#BGCHANGES:;
#KEYSOUNDS:;
#ATTACKS:
;

//---------------dance-single - ----------------
#NOTEDATA:;
#CHARTNAME:;
#STEPSTYPE:dance-single;
#DESCRIPTION:;
#CHARTSTYLE:;
#DIFFICULTY:Hard;
#METER:15;
#RADARVALUES:0.860896,0.845753,0.378897,0.018043,0.640517,668.000000,626.000000,42.000000,2.000000,0.000000,0.000000,0.000000,0.000000,0.000000,0.860896,0.845753,0.378897,0.018043,0.640517,668.000000,626.000000,42.000000,2.000000,0.000000,0.000000,0.000000,0.000000,0.000000;
#CREDIT:;
#DISPLAYBPM:165.000000;
#NOTES:
0000
0000
0000
0000
,
0000
0000
0000
0000
,
0000
0000
0000
0000
,
0000
0000
0000
0000
,
0001
0100
1000
0001
0010
1000
0000
0100
,
0010
0010
0001
0001
0100
0100
1000
1000
,
0101
0000
0000
0001
1000
0000
1000
0000
0000
0000
0010
0000
0010
0000
0010
0000
,
0100
0000
0001
0000
1000
0000
0000
0000
1100
0000
0000
0010
0001
0000
0100
0000
,
0001
0010
1000
0001
0100
1000
0000
0010
,
0100
0100
0001
0001
0010
0010
1000
1000
,
0101
0000
0000
0010
0100
0000
0100
0000
0000
0000
0001
0000
0001
0000
1000
0000
,
1100
0011
0101
1010
,
0001
0010
1000
0001
0100
1000
0000
0010
,
1000
1000
0100
0100
0001
0001
0010
0010
,
1001
0000
0000
0100
0010
0000
1000
0000
0000
0000
0001
0000
0001
0000
0100
0000
,
0010
0000
1000
0000
0100
0000
0000
0000
0011
0000
0000
0000
0001
1000
0001
0000
,
0110
0000
0000
0010
0000
0010
1000
0000
0100
0000
0010
0001
0000
0001
1000
0000
,
0001
0000
0100
0010
0000
0010
1000
0000
0100
0000
0010
0001
0000
0001
1000
0000
,
0001
0000
0000
1000
0000
1000
0010
0000
0100
0000
0001
1000
0000
1000
0100
0000
,
0010
0000
0000
0001
0000
0001
1000
0000
0001
0000
0100
0010
0000
0010
1000
0000
,
0200
0000
0000
0000
1300
0001
1000
0000
0010
0000
0100
0001
0000
0001
1000
0000
,
0010
0000
1000
0100
0000
0100
0010
0000
0001
0000
1000
0010
0000
0010
0100
0000
,
0001
0000
0010
0001
0000
0001
1000
0000
0010
0000
1000
0100
0000
0100
0010
0000
,
0012
0000
0000
0000
1003
0001
1000
0000
0010
0000
0100
0001
0000
0001
0010
0000
,
1100
0000
0000
0000
1000
0001
0100
0000
0010
0000
1000
0100
0000
0100
0010
0000
,
0001
0100
1000
0100
0001
0010
1000
0010
,
0001
0000
1000
0010
0000
0010
0100
0000
0010
0000
1000
0001
0000
0001
0100
0000
,
0001
0010
1000
0010
0001
0100
1000
0100
,
0001
0000
0010
0100
0000
0100
1000
0000
0100
0000
1000
0001
0000
0001
0010
0000
,
0001
0100
1000
0100
0001
0010
1000
0010
,
0001
0000
0100
0000
1000
0000
0100
0000
0001
0010
0000
0010
0100
0000
1000
0000
,
0001
0100
0000
0100
0000
0010
1000
0000
1001
0000
0000
0000
1010
0000
0000
0000
,
0101
0000
0001
0100
0010
0000
0010
0000
1000
0000
1000
0000
0100
0000
0100
0000
,
0110
0000
0000
0001
1000
0000
0001
0000
0010
0000
0010
0000
0010
0000
0010
0000
,
0100
1000
0001
1000
0100
0000
0010
0000
0001
0000
0001
0000
1000
0000
1000
0000
,
1010
0000
0000
0000
0101
0000
0000
0000
0011
0000
0000
0000
0100
1000
0001
1000
,
0010
0000
1000
0000
0100
0010
0001
0000
1000
0000
0010
0000
1000
0000
0100
0000
,
0010
0000
1000
0000
0010
0000
0001
0000
0010
0100
1000
0000
0001
0000
0100
0000
,
0010
0000
0100
0000
0001
0010
0100
0000
1000
0000
0010
0000
1000
0000
0100
0000
,
0001
0000
0100
0000
1000
0000
0100
0000
0010
0001
1000
0001
0100
0000
0000
0000
,
0010
0000
1000
0000
0001
1000
0100
0000
0010
0000
0001
0000
0010
0000
1000
0000
,
0010
0000
0001
0100
0010
0000
1000
0000
0100
1000
0001
0000
0100
0000
0010
0000
,
1000
1000
0001
0001
0010
0010
0100
0100
,
1000
0000
0010
0000
0100
0001
0010
0100
1000
0000
0001
0100
0001
0000
1000
0000
,
1001
0000
0010
0000
1000
0100
0001
0000
0010
0000
0100
0000
0010
0000
0001
0000
,
1000
0000
0010
0100
0001
0000
0100
0000
0010
1000
0001
1000
0010
0000
0100
0000
,
0001
0000
0010
0001
0100
0010
1000
0000
0100
0000
0001
0000
0100
0000
1000
0000
,
0001
0000
0001
0000
1000
0000
1000
0000
0010
1000
0100
0010
0001
0000
0000
0000
,
0100
0000
0010
0000
0100
0001
1000
0000
0010
0000
0001
0000
0010
0000
0100
0000
,
0010
0000
1000
0100
0010
0000
0001
0000
1000
0010
0100
0001
0010
0000
0100
0000
,
1000
1000
0001
0001
0100
0100
0010
0010
,
0100
0000
0001
0000
1000
0001
0010
0100
1000
0000
0001
0100
0001
0000
1000
0000
,
0110
0000
0000
0010
1000
0000
1000
0000
0100
0000
0100
0000
0010
0000
0001
0000
,
1000
0001
0010
0001
1000
0000
0100
0000
0010
0000
0010
0000
0001
0000
1000
0000
,
1010
0010
0110
0100
0101
0001
1001
1000
,
1100
0000
0100
0000
0110
0000
0010
0000
0001
1000
0001
0000
0110
0000
1000
0000
,
0001
0000
0100
0010
0000
0010
1000
0000
0100
0000
0010
0001
0000
0001
1000
0000
,
0010
0000
1000
0100
0000
0100
0010
0000
0001
0000
1000
0001
0000
0001
0100
0000
,
0010
0000
0100
0001
0000
0001
0010
0000
0100
0000
1000
0010
0000
0010
0100
0000
,
0001
0000
1000
0001
0000
0001
0100
0000
0010
0000
1000
0100
0000
0100
0010
0001
,
1000
0000
0001
0100
0000
0010
1000
0000
0100
0010
0100
0010
0000
0001
1000
0000
,
0001
0100
0010
0100
0000
0010
1000
0000
0100
1000
0001
1000
0000
0010
0100
0000
,
0001
0000
0010
0000
0001
0000
1000
0000
0010
0100
0000
0100
0001
0000
1000
0000
,
0001
0100
0000
0100
0000
0010
1000
0001
0100
0000
0000
0000
1001
0000
0000
0000
,
0011
0000
0100
0000
1000
0000
0001
0000
1000
0010
0100
0010
1000
0000
0001
0000
,
1010
0000
0000
0000
0000
0000
0100
0000
0000
0001
0000
0000
0000
0000
0000
0100
0000
0000
0010
0000
0000
0000
0000
0000
1000
0000
0000
0000
0100
0000
0000
0000
0010
0000
0000
0000
0001
0000
0000
0000
0100
0000
0000
0000
0010
0000
0000
0000
,
1000
0000
0001
0010
0000
0100
1000
0000
0001
0100
0010
1000
0100
0010
0001
0000
,
1000
0100
0001
1000
0010
0001
0000
0100
,
0001
0001
0010
0010
1000
1000
0100
0100
,
0101
0000
0000
1000
0001
0000
0100
0000
0000
0000
0010
0000
0010
0000
1000
0000
,
1001
0011
1100
0101
,
1100
0000
0010
0001
0100
0000
0100
0000
0001
0000
0001
0000
1000
0000
1000
0000
,
0110
0000
0001
0010
1000
0000
0100
0000
0010
0000
0010
0000
0001
0000
0001
0000
,
0011
0000
1000
0000
1010
0000
0001
0000
0100
0010
1000
0000
0001
0000
0001
0000
,
0100
0010
0100
0001
0000
1000
0100
0010
0001
0000
0000
0000
1010
0000
0000
0000
,
0101
0000
0000
0000
;

//---------------dance-single - ----------------
#NOTEDATA:;
#CHARTNAME:;
#STEPSTYPE:dance-single;
#DESCRIPTION:;
#CHARTSTYLE:;
#DIFFICULTY:Medium;
#METER:12;
#RADARVALUES:0.605720,0.608942,0.234555,0.126299,0.085703,470.000000,444.000000,26.000000,14.000000,0.000000,0.000000,0.000000,0.000000,0.000000,0.605720,0.608942,0.234555,0.126299,0.085703,470.000000,444.000000,26.000000,14.000000,0.000000,0.000000,0.000000,0.000000,0.000000;
#CREDIT:;
#DISPLAYBPM:165.000000;
#NOTES:
0000
0000
0000
0000
,
0000
0000
0000
0000
,
0000
0000
0000
0000
,
0000
0000
0000
0000
,
0001
0010
0001
0010
0001
0010
0000
0100
,
1000
0000
0001
0000
1000
0010
0100
0001
,
0010
0000
0001
1000
0000
0001
0100
0010
,
1000
0100
1000
0000
1100
0000
0000
0000
,
0001
1000
0001
1000
0001
1000
0000
0010
,
1000
0000
0100
0000
1000
0010
0100
0001
,
0010
0000
0001
1000
0000
0001
0100
0010
,
2000
3200
0320
0032
,
0103
0010
0100
0010
0100
0010
0000
1000
,
0001
0000
0010
0000
0001
1000
0010
0100
,
0001
0000
1000
0100
0000
1000
0010
0100
,
0001
0010
0001
0000
0011
0000
0000
0000
,
0100
0000
0000
1000
0000
0000
0001
0000
1000
0000
0000
0010
0000
0000
0100
0000
,
0001
0000
0000
0010
0000
0000
0001
0000
1000
0000
0000
0010
0000
0000
1000
0000
,
0100
0000
0000
0100
0000
0000
0010
0000
0001
0000
0000
1000
0000
0000
0010
0000
,
0100
0000
0000
0001
0000
0000
0010
0000
0001
0000
0000
0100
0000
0000
1000
0000
,
0002
0000
1003
0010
2000
0000
3100
0010
,
0001
0000
0000
1000
0000
0000
1000
0000
0010
0000
0000
0100
0000
0000
0001
0000
,
1000
0000
0000
0001
0000
0000
0100
0000
0001
0000
0000
0010
0000
0000
1000
0000
,
1020
0100
0001
0130
,
0101
0000
0000
0000
1000
0000
0001
0000
1000
0000
0000
0100
0000
0000
0010
0000
,
0000
0001
0100
1000
0000
0001
0010
1000
,
0000
0100
0010
0001
0000
0100
0010
1000
,
0000
0001
1000
0100
0000
0010
0001
0100
,
0000
0010
1000
0010
0000
1000
0100
0001
,
0000
0010
0001
1000
0000
0001
0010
0100
,
0000
1000
0010
1000
0000
0001
0100
0001
,
0000
1000
0100
0010
0000
0001
1000
0001
,
0200
0000
0310
1000
0100
0010
0001
1000
,
0002
0000
0203
0000
0301
1000
0001
1000
,
0001
0000
0001
0010
0001
0100
0010
1000
,
1100
0101
1010
0011
,
0100
1000
0010
1000
0001
0010
0001
1000
,
0010
0000
0100
0001
0010
0000
0001
1000
,
0000
0010
1000
0100
1000
0010
0100
0001
,
0010
1000
0010
0001
0010
0100
1000
0000
,
0001
0100
0010
0100
0001
1000
0100
0010
,
0001
0000
1000
0001
0100
0000
0010
1000
,
0100
0010
0001
0000
0100
0010
1000
0000
,
0001
0100
0001
0010
1000
0010
0001
0000
,
1000
0010
0100
0010
1000
0001
0100
0001
,
0010
0000
0001
1000
0001
0100
0010
1000
,
0000
0100
0010
0001
0100
0001
1000
0100
,
1000
0010
0001
0010
1000
0100
0010
0000
,
0001
1000
0001
0100
0010
0100
1000
0100
,
0001
0000
0010
0001
1000
0010
1000
0100
,
0010
0001
0100
0000
0010
1000
0100
0000
,
1000
0001
1000
0001
0010
0100
1000
0000
,
1001
0000
1000
0010
1000
0001
0100
0010
,
0110
0000
1000
0001
1000
0100
0010
0001
,
0011
1010
0101
1100
,
0001
0010
0001
0100
0010
1000
0001
0000
,
1000
0000
0000
1000
0000
0000
0010
0000
0100
0000
0000
0001
0000
0000
0010
0000
,
0001
0000
0000
0000
0100
0000
0010
0000
1000
0000
0000
0001
0000
0000
0100
0000
,
0000
0001
0010
1000
0000
0100
0010
0001
,
0000
0100
0010
1000
0000
0001
0100
1000
,
0020
0000
1030
0001
2000
0000
3100
0010
,
0001
0000
0000
0100
0000
0000
0100
0000
0001
0000
0000
0010
0000
0000
1000
0000
,
0100
0010
0001
0000
1000
0001
0100
0010
,
1000
0100
1000
0010
0001
0000
0101
0000
,
1100
1000
0001
0000
0100
0010
1000
0001
,
0011
0000
0100
1000
0002
0000
2003
0000
,
3001
0000
0000
0100
0000
0000
0010
0000
1000
0000
0100
0000
1000
0000
0001
0000
,
1000
0010
1000
0010
1000
0010
0000
0100
,
0001
0000
0010
0000
0001
0100
0010
1000
,
1100
0000
1000
0001
0000
1000
0010
0100
,
0110
1001
0011
1100
,
1001
0000
0010
1000
0010
0100
0001
1000
,
0110
0000
1000
0010
1000
0100
0010
0001
,
0100
0001
0100
0001
1000
0010
1000
0010
,
1000
0001
0010
0100
1000
0000
1010
0000
,
0101
0000
0000
0000
;

//---------------dance-single - ----------------
#NOTEDATA:;
#CHARTNAME:;
#STEPSTYPE:dance-single;
#DESCRIPTION:;
#CHARTSTYLE:;
#DIFFICULTY:Easy;
#METER:8;
#RADARVALUES:0.447202,0.575112,0.451068,0.324769,0.000000,347.000000,297.000000,50.000000,36.000000,0.000000,0.000000,0.000000,0.000000,0.000000,0.447202,0.575112,0.451068,0.324769,0.000000,347.000000,297.000000,50.000000,36.000000,0.000000,0.000000,0.000000,0.000000,0.000000;
#CREDIT:;
#DISPLAYBPM:165.000000;
#NOTES:
0000
0000
0000
0000
,
0000
0000
0000
0000
,
0000
0000
0000
0000
,
0000
0000
0000
0000
,
0001
0010
1000
1001
,
1001
0100
0001
0110
,
0110
1000
0100
0001
,
1000
0100
1000
0000
1100
0000
0000
0000
,
0001
0010
0001
0100
,
0010
1000
0100
0001
,
1000
0001
0010
0100
,
1100
0101
1100
0101
,
1000
0010
1000
0100
,
0010
0001
0100
1000
,
0001
0010
0001
1000
,
0010
0100
0010
0000
1001
0000
0000
0000
,
0001
0010
1000
0010
,
0001
0010
0100
1000
,
0010
0001
0010
1000
,
0100
0100
0010
0010
,
0200
0300
0020
0030
,
0001
0100
1000
0100
,
0001
0010
0001
1000
,
1020
0100
0001
0130
,
0000
1000
0000
1000
0000
0002
0000
1003
,
0000
0010
0000
1000
0000
0100
0000
0001
,
0000
1000
0000
0010
0000
2000
0000
3100
,
0000
2000
0000
3001
0000
0200
0000
0310
,
0000
0100
0000
0001
0000
0020
0000
0031
,
0000
1000
0000
1000
0000
0001
0000
0001
,
0000
1000
0000
0010
0000
2000
0000
3100
,
1000
0001
1000
0001
0100
0000
0110
0000
,
0001
0000
0001
0000
1000
0010
1000
0000
,
0002
0000
0103
0000
0010
1000
0010
1000
,
0010
0000
0100
0000
0010
1000
0001
0000
,
1100
0101
1100
0101
,
0001
0010
0001
0100
,
1000
0010
1000
0100
,
0000
1000
0001
0000
0010
0000
0100
0000
,
1000
0010
1000
0000
0001
0010
0001
0000
,
0100
0010
0100
0001
,
1000
0010
1000
0001
,
0010
0001
0100
1000
,
0001
0000
1000
0100
1000
0000
0001
0000
,
1020
0130
2000
3100
,
0002
0010
1000
0013
,
0012
1003
0020
0130
,
0002
1000
0100
1003
,
1200
0310
0002
0103
,
2000
0010
0001
3010
,
0102
1003
0020
1030
,
0002
0103
1001
0000
,
0110
0000
1000
0000
0100
0010
0001
0000
,
1001
0000
0100
0000
0010
1000
0001
0000
,
0101
1100
0101
1100
,
1001
0110
1001
0110
,
0000
1000
0000
0010
0000
0200
0000
0301
,
0000
0010
0000
0010
0000
0100
0000
0100
,
0000
1000
0000
0001
0000
2000
0000
3010
,
0000
0200
0000
0301
0000
0200
0000
0301
,
0000
1000
0000
0001
0000
0020
0000
0130
,
0000
1000
0000
1000
0000
0001
0000
0001
,
1001
0000
0100
0000
0001
0010
1000
0000
,
0200
0320
0032
1003
,
0110
0000
0001
0000
1000
0000
0100
1000
,
1001
0010
2000
3002
,
2003
3200
0320
0032
,
0103
0001
0010
1001
,
1001
0010
1000
0110
,
0110
0001
1000
0100
,
1010
1010
0101
0101
,
0011
0000
1000
0000
0010
0100
0010
0000
,
1010
0000
0001
0000
1000
0100
1000
0000
,
1001
0110
1001
0110
,
1000
0001
0100
1010
,
0101
0000
0000
0000
;

//---------------dance-single - ----------------
#NOTEDATA:;
#CHARTNAME:;
#STEPSTYPE:dance-single;
#DESCRIPTION:;
#CHARTSTYLE:;
#DIFFICULTY:Beginner;
#METER:5;
#RADARVALUES:0.216513,0.269739,0.090214,0.027064,0.000000,168.000000,158.000000,10.000000,3.000000,0.000000,0.000000,0.000000,0.000000,0.000000,0.216513,0.269739,0.090214,0.027064,0.000000,168.000000,158.000000,10.000000,3.000000,0.000000,0.000000,0.000000,0.000000,0.000000;
#CREDIT:;
#DISPLAYBPM:165.000000;
#NOTES:
0000
0000
0000
0000
,
0000
0000
0000
0000
,
0000
0000
0000
0000
,
0000
0000
0000
0000
,
0001
0000
0000
1000
,
1000
0000
0000
0100
,
0100
0000
0010
0000
,
0001
0001
0001
0000
,
0100
0000
0010
0000
,
0100
0000
0001
0000
,
1000
1000
0000
0000
,
0001
0001
0001
0001
,
0001
0000
0100
0000
,
0010
0000
0100
0000
,
0001
0001
0001
0000
,
1000
1000
1000
0000
,
0010
0000
0010
0000
,
0100
0000
0100
0000
,
0001
0000
0001
0000
,
1000
0000
1000
0000
,
0100
0000
0010
0000
,
0100
0000
0010
0000
,
0001
0000
1000
0000
,
0001
0000
1000
0000
,
1001
0000
0100
0000
,
0010
0000
1000
0000
,
0100
0000
0100
0000
,
0010
0000
0001
0000
,
1000
0000
0001
0000
,
1000
0000
0010
0000
,
0100
0000
0100
0000
,
0010
0010
0010
0000
,
0110
0000
0000
1000
,
1000
0000
0001
0001
,
0001
0000
0000
0010
,
0010
0010
0010
0010
,
0010
0000
0001
0000
,
0100
0000
1000
0000
,
0001
0000
0010
0000
,
1000
1000
1000
0000
,
0100
0000
0010
0000
,
0100
0000
1000
0000
,
0001
0000
0001
0000
,
0100
0100
0100
0000
,
0010
0000
1000
0000
,
0002
0000
0003
0000
,
0010
0000
0100
0000
,
2000
0000
3000
0000
,
0010
0000
1000
0000
,
0200
0000
0300
0000
,
1000
0000
0001
0000
,
0010
0000
1001
0000
,
0110
0000
0001
0001
,
0001
0000
1000
1000
,
1000
0000
0010
0000
,
0100
0000
0001
0000
,
0010
0000
0010
0000
,
0100
0000
0100
0000
,
1000
0000
0001
0000
,
1000
0000
0001
0000
,
0100
0000
0010
0000
,
0100
0000
0010
0000
,
1001
0000
0100
0000
,
0001
0001
0001
0000
,
0110
0000
1000
0000
,
1001
0000
0100
0000
,
0110
0000
0001
0001
,
0001
0000
0000
1000
,
1000
0000
0000
0010
,
0010
0000
0000
0100
,
0100
0100
0100
0100
,
0100
0000
0001
0001
,
0001
0000
1000
1000
,
1000
0000
0001
0000
,
1001
0000
0000
0110
;

//---------------dance-single - ----------------
#NOTEDATA:;
#CHARTNAME:;
#STEPSTYPE:dance-single;
#DESCRIPTION:;
#CHARTSTYLE:;
#DIFFICULTY:Challenge;
#METER:17;
#RADARVALUES:1.090296,1.127558,0.586389,0.000000,1.195331,846.000000,781.000000,65.000000,0.000000,0.000000,0.000000,0.000000,0.000000,0.000000,1.090296,1.127558,0.586389,0.000000,1.195331,846.000000,781.000000,65.000000,0.000000,0.000000,0.000000,0.000000,0.000000,0.000000;
#CREDIT:;
#DISPLAYBPM:165.000000;
#NOTES:
// measure 0
0000
0000
0000
0000
,  // measure 1
0000
0000
0000
0000
,  // measure 2
0000
0000
0000
0000
,  // measure 3
0000
0000
0000
0000
,  // measure 4
0001
0010
1000
0001
0100
1000
0110
0001
,  // measure 5
0110
1000
0100
0010
0001
0100
1001
0010
,  // measure 6
1001
0000
0100
1000
0010
0000
0001
0000
0110
0000
1000
0000
1000
0000
0001
0000
,  // measure 7
0011
0000
0001
0000
0101
0000
0000
0000
1001
0000
0000
0010
0100
0000
0100
0000
,  // measure 8
0001
0000
0010
0000
1000
0000
0001
0000
0100
0000
1000
0010
1000
0000
0001
0000
,  // measure 9
0100
0100
0010
0010
1000
1000
0001
0001
,  // measure 10
0010
0001
0010
0100
1000
0000
0001
0000
0100
0000
1000
0000
0100
0000
0001
0000
,  // measure 11
0011
1010
1100
0101
,  // measure 12
0001
0000
0010
0000
1000
0000
0001
0000
0100
0000
1000
0010
1000
0000
0001
0000
,  // measure 13
0010
0010
0100
0100
1000
1000
0001
0001
,  // measure 14
0110
0000
1000
0001
0100
0000
0010
0000
1001
0000
0100
0000
0100
0000
0001
0000
,  // measure 15
0011
0000
0001
0000
0101
0000
0000
0000
1001
0000
0000
0000
1000
0100
1000
0000
,  // measure 16
0001
0010
0100
1000
0000
1000
0001
0000
0100
0000
0001
0010
0000
0010
1000
0000
,  // measure 17
0100
0000
1000
0010
0000
0010
0100
0000
0001
0010
0001
1000
0000
0010
0100
0000
,  // measure 18
0001
0010
0001
1000
0000
1000
0100
0000
0010
0000
0100
0010
0000
0010
0001
0000
,  // measure 19
1000
0000
0001
0100
0000
0100
0010
0000
1000
0100
0000
0010
0000
0010
0000
0001
,  // measure 20
1000
0010
0100
0010
0100
0010
1000
0000
0001
0010
0001
1000
0001
0100
0001
0000
,  // measure 21
1000
0010
1000
0001
0000
0100
0010
0000
1000
0100
0010
0001
0000
0001
0100
0000
,  // measure 22
0010
1000
0001
1000
0000
0100
0010
0000
0001
0100
0010
1000
0000
1000
0100
0000
,  // measure 23
1010
0000
0100
0001
0000
0001
0010
0000
0001
1000
0010
1000
0000
1000
0100
0010
,  // measure 24
0001
0000
0100
0010
0100
0001
1000
0010
0100
0000
0001
0010
0000
0100
1000
0000
,  // measure 25
0001
0000
1000
0010
0000
0010
0001
0000
0100
0010
1000
0001
0000
1000
0100
0000
,  // measure 26
0010
0001
0100
0001
0000
1000
0010
0000
0100
0000
0010
1000
0000
1000
0001
0000
,  // measure 27
0010
0001
0100
0010
0000
1000
0001
0000
1000
0100
0010
0001
0000
0100
0010
0100
,  // measure 28
0001
1000
0010
1000
0010
1000
0001
0000
0100
0010
1000
0010
1000
0001
0100
0000
,  // measure 29
0001
0010
0100
0010
0000
0001
1000
0000
0010
0100
0010
1000
0000
0001
1000
0000
,  // measure 30
0100
0000
0010
0000
0001
0000
1000
0010
1000
0001
0010
0100
1000
0000
0001
0000
,  // measure 31
0100
0000
0010
0000
1000
0000
0100
0000
0010
0000
0001
0000
1000
0000
0000
0010
0000
0000
0001
0000
0000
0000
0000
0000
,  // measure 32
0110
0000
0001
0100
1000
0000
0010
0000
0100
0000
0100
0000
1010
0000
1010
0000
,  // measure 33
1000
0001
0010
0100
1000
0010
0100
0000
0101
0000
0011
0000
0110
0000
1100
0000
,  // measure 34
0001
0010
0001
0100
1000
0000
0010
0000
0100
0000
0001
0000
0011
0000
0011
0000
,  // measure 35
1001
0000
0100
0001
0010
0000
0000
0000
0001
0100
0001
0100
0010
1000
0010
1000
,  // measure 36
0100
0000
0010
0000
0001
0100
1000
0000
0010
0000
0100
0000
0001
0000
0010
0000
,  // measure 37
1000
0000
0100
1000
0001
0000
0100
0000
0010
1000
0001
0010
0100
0000
1000
0000
,  // measure 38
0010
0000
0100
0001
1000
0001
0010
0000
0100
0000
1000
0000
0001
0100
0001
0000
,  // measure 39
1000
0000
0010
0000
1000
0000
0001
0000
0010
0001
0100
1000
0010
0000
0100
0001
,  // measure 40
0010
0000
0100
0000
1000
0001
1000
0000
0010
0000
0100
0000
0001
0010
0001
0000
,  // measure 41
1000
0000
0100
0010
0001
0000
0100
0000
0001
0010
0100
1000
0001
0100
0010
0000
,  // measure 42
1000
0000
0100
0000
0001
0000
0100
0000
1000
0000
0010
0100
0001
0000
1000
0000
,  // measure 43
0001
0000
0100
0000
0001
0010
1000
0100
0001
0000
1000
0010
0100
0010
1000
0000
,  // measure 44
0001
0010
0001
0010
0001
0010
0001
0010
0100
1000
0100
1000
0100
1000
0100
1000
,  // measure 45
0001
0100
0001
0100
0001
0100
0001
0100
0001
0100
0001
0100
0001
0000
0000
0000
,  // measure 46
1000
0010
1000
0010
1000
0010
1000
0010
0100
0001
0100
0001
0100
0001
0100
0001
,  // measure 47
0010
0100
0010
0100
0010
0100
0010
0100
0010
0100
0010
0100
0010
0000
0000
0000
,  // measure 48
0001
1000
0001
1000
0001
1000
0001
1000
0010
0100
0010
0100
0010
0100
0010
0100
,  // measure 49
0010
1000
0010
1000
0010
1000
0010
1000
0010
1000
0010
1000
0010
0000
0000
0000
,  // measure 50
1000
0100
1000
0100
1000
0100
1000
0100
0010
0001
0010
0001
0010
0001
0010
0001
,  // measure 51
1000
0001
0100
0010
1000
0001
0100
0010
1000
0001
0100
0010
1000
0001
0100
0010
,  // measure 52
1000
0000
0010
0100
0001
1000
0001
0010
0100
0000
1100
0000
0101
0000
0010
0000
,  // measure 53
1000
0001
0010
0001
0100
0010
1000
0001
0100
0000
0110
0000
1001
0000
0100
0000
,  // measure 54
0101
0010
1100
0010
0101
0010
1100
0010
,  // measure 55
0101
0000
1010
0000
1100
0000
0011
0000
1000
0010
0001
0000
0100
0001
1000
0000
,  // measure 56
0001
0010
0100
1000
0000
1000
0001
0000
0100
0000
0010
1000
0000
1000
0001
0000
,  // measure 57
0010
0001
1000
0010
0100
0001
0010
0000
0100
1000
0010
0100
0001
0010
1000
0000
,  // measure 58
0100
0000
0010
0001
0000
1000
0010
0000
0100
0000
0001
1000
0000
0100
0010
0000
,  // measure 59
0001
0100
0010
1000
0000
0100
1000
0000
0001
1000
0010
0100
0000
0001
0010
0100
,  // measure 60
1000
0001
1000
0001
0100
0010
0100
0010
1000
0001
1000
0001
0100
0010
0100
0010
,  // measure 61
1000
0100
0010
0001
0000
0100
0010
0000
1000
0001
0010
0100
0000
1000
0001
0000
,  // measure 62
0011
0000
0110
0000
1100
0000
0001
0000
1000
0010
1000
0001
0010
0100
1000
0000
,  // measure 63
0001
0000
0100
0000
1000
0000
0001
0000
0010
0000
1000
0000
0100
0000
0000
0010
0000
0000
0001
0000
0000
0000
0000
0000
,  // measure 64
1001
0000
0110
0000
1001
0000
0010
0000
1000
0001
0010
0001
0100
0010
1000
0000
,  // measure 65
0001
0000
0000
0000
0000
0000
0010
0000
0000
0100
0000
0000
0000
0000
0000
0100
0000
0000
1000
0000
0000
0000
0000
0000
0010
0000
0000
0000
1000
0000
0000
0000
0001
0000
0000
0000
0010
0000
0000
0000
1000
0000
0000
0000
0001
0000
0000
0000
,  // measure 66
1000
0010
0100
0001
0010
0001
0010
0100
1000
0100
0001
1000
0010
0001
0100
1000
,  // measure 67
0001
0010
1000
0001
0100
1000
0110
0001
,  // measure 68
0110
1000
0100
0001
0010
0100
1001
0010
,  // measure 69
1001
0000
0100
0001
0010
0000
1000
0000
0100
0000
0001
0000
0100
0000
1000
0000
,  // measure 70
1100
0001
0101
1000
1010
0001
0011
1000
,  // measure 71
0110
0000
0001
0100
1000
0000
0010
0000
1010
0000
1001
0000
1010
0000
0100
0000
,  // measure 72
0001
0010
0100
1000
0100
0010
0001
0000
0101
0000
1010
0000
1100
0000
0001
0000
,  // measure 73
0011
0000
1000
0000
1010
0000
0001
0000
1000
0010
0100
0001
1000
0001
0010
0000
,  // measure 74
0100
1000
0010
0100
0001
0010
0100
1000
0001
0000
0000
0000
1010
0000
0000
0000
,  // measure 75
0101
1000
0001
1000
;
