#TITLE:22DUNK;
#SUBTITLE:;
#ARTIST:SLAKE;
#TITLETRANSLIT:;
#SUBTITLETRANSLIT:;
#ARTISTTRANSLIT:;
#GENRE:;
#CREDIT:;
#BANNER:22DUNK-bn.png;
#BACKGROUND:22DUNK-bg.png;
#LYRICSPATH:;
#CDTITLE:;
#MUSIC:22DUNK.ogg;
#OFFSET:0.000000;
#SAMPLESTART:5.333000;
#SAMPLELENGTH:20.000000;
#SELECTABLE:YES;
#DISPLAYBPM:135.000000;
#BPMS:0.000000=135.000000
;
#STOPS:
;
#BGCHANGES:14.500=22DUNK.mp4=1.000=1=0=0=StretchNoLoop==CrossFade==,
99999=-nosongbg-=1.000=0=0=0 // don't automatically add -songbackground-
;
#KEYSOUNDS:;
#ATTACKS:;

//---------------dance-single - ----------------
#NOTES:
     dance-single:
     :
     Hard:
     12:
     0.524239,0.768757,0.455361,0.013393,0.595987,274.000000,240.000000,34.000000,1.000000,0.000000,0.000000,0.524239,0.768757,0.455361,0.013393,0.595987,274.000000,240.000000,34.000000,1.000000,0.000000,0.000000:
0000
0000
0000
0000
,
0000
0000
0000
0000
,
0000
0000
0000
0000
,
1000
0000
0000
0001
0000
0000
0010
0000
0001
0000
0000
0100
0000
0000
1000
0000
,
0010
0000
0000
1000
0000
0000
0100
0000
0010
0000
0000
0001
0000
0000
1000
0000
,
1001
0000
0000
0001
0000
0000
0010
0000
0001
0000
0000
1000
0000
0000
0100
0000
,
0010
0000
0000
0010
0000
0000
0001
0000
0100
0000
0000
0001
0000
0000
1000
0000
,
1001
0000
0000
0001
0000
0000
0100
0000
0010
0000
0000
1000
0000
0000
0001
0000
,
0010
0000
0000
0100
0000
0000
0010
0000
0001
0000
0000
0100
0000
0000
1000
0000
,
1001
0000
0000
1000
0000
0000
0100
0000
0010
0000
0000
0001
0000
0000
1000
0000
,
1100
0101
1010
0101
,
0000
1000
0000
0000
1000
0000
0000
0000
0001
0000
0000
0001
0000
0000
0100
0000
,
0110
0000
0000
0000
1000
0000
1010
0000
0000
0000
0001
0000
0100
0000
0010
1000
,
0000
0001
0000
0000
0001
0000
0000
0000
1000
0000
0000
1000
0000
0000
0001
0000
,
0011
0000
0000
0000
0100
0000
1100
0000
0000
0000
1000
0000
0001
0000
0100
0010
,
0000
0100
0000
0000
0001
0000
0000
0000
1000
0000
0000
1000
0000
0000
0001
0000
,
0101
0000
0000
0000
0010
0000
1001
0000
0000
0000
1000
0000
0100
0000
0010
0001
,
0000
0100
0000
0000
0100
0000
0000
0000
0010
0000
0000
0010
0000
0000
1000
0000
,
1001
0000
0000
0000
0100
0000
0011
0000
0000
0000
1000
0000
0000
0001
0000
0001
,
0100
0000
0010
0000
0100
0000
0000
0000
0001
0000
0010
0000
0001
1000
0000
1000
,
0010
0000
0100
0000
0001
0000
0000
0000
0001
0000
1000
0000
0100
0010
0000
0010
,
0001
0000
0100
0000
0001
0000
0000
0000
1000
0000
0100
0000
1000
0010
0000
0010
,
0100
0000
0001
0000
0100
0000
0000
0000
0001
0000
1000
0000
0010
0100
0000
0100
,
0001
0000
0000
1010
0000
1010
0000
1010
0000
1010
0000
1010
0000
1010
0000
0000
,
0100
0000
0000
0011
0000
0011
0000
0011
0000
0011
0000
0011
0000
0011
0000
0000
,
1000
0000
0000
0101
0000
0101
0000
0101
0000
0101
0000
0101
0000
0101
0000
0000
,
0010
0000
0100
0000
0010
0000
1000
0000
0001
0000
1000
0100
0000
0010
0000
0001
,
0000
0000
0100
0000
0100
0010
0000
0000
1000
0000
0000
0001
0000
0001
0000
0001
,
0000
0000
1000
0000
1000
0100
0000
0000
0010
0000
0000
0001
0000
1000
0000
0000
,
0000
0000
0001
0000
0001
0100
0000
0000
0010
0000
0000
1000
0000
1000
0000
1000
,
0000
0000
0100
0000
0100
1000
0000
0000
0001
0000
0000
0100
0000
0010
0000
0000
,
0000
0000
1000
0000
1000
0001
0000
0000
0010
0000
0000
0100
0000
0100
0000
0100
,
0000
0000
0010
0000
0010
0001
0000
0000
1000
0000
0000
0010
0000
0100
0000
0000
,
0000
0000
0001
0000
0001
0010
0000
0000
0100
0000
0000
1000
0000
1000
0000
1000
,
0000
0000
0010
0000
0010
0100
0000
0000
0001
0000
0000
1000
0000
0010
0000
0000
,
1001
0100
0001
0100
0001
0100
0001
1000
,
0100
0010
0001
0010
0001
0010
0001
1000
,
0010
1000
0001
1000
0001
1000
0001
0100
,
0000
0000
0010
1000
0000
0010
1000
0000
0001
0000
0000
0100
0000
0100
0000
0010
,
0200
0000
0000
0000
,
0000
0000
0000
0000
,
0300
0000
0000
0000
;

//---------------dance-single - ----------------
#NOTES:
     dance-single:
     :
     Medium:
     9:
     0.357784,0.384378,0.214288,0.013393,0.200895,187.000000,171.000000,16.000000,1.000000,0.000000,0.000000,0.357784,0.384378,0.214288,0.013393,0.200895,187.000000,171.000000,16.000000,1.000000,0.000000,0.000000:
0000
0000
0000
0000
,
0000
0000
0000
0000
,
0000
0000
0000
0000
,
1000
0001
1000
0100
,
0010
0001
0100
0010
,
1001
0100
0010
1000
,
0100
0010
0100
1000
,
1001
0010
0100
0010
,
0100
0001
0010
1000
,
1001
0100
0001
1000
,
1100
0101
1010
0101
,
0000
1000
0000
0000
1000
0000
0000
0000
0001
0000
0000
0001
0000
0000
0000
0000
,
0011
0000
0000
0000
0000
0000
1100
0000
0000
0000
0000
0000
0000
0000
0000
0100
,
0000
0010
0000
0000
0010
0000
0000
0000
0001
0000
0000
0001
0000
0000
0000
0000
,
0101
0000
0000
0000
0000
0000
0110
0000
0000
0000
0000
0000
0000
0000
0000
1000
,
0000
0001
0000
0000
0001
0000
0000
0000
0100
0000
0000
0100
0000
0000
0000
0000
,
0110
0000
0000
0000
0000
0000
1001
0000
0000
0000
0000
0000
0000
0000
0000
0010
,
0000
1000
0000
0000
1000
0000
0000
0000
0100
0000
0000
0100
0000
0000
0000
0000
,
1100
0000
0000
0000
0000
0000
0101
0000
0000
0000
0001
0000
0000
1000
0000
0000
,
0001
0010
0001
0000
0001
0010
0001
0000
,
1000
0010
1000
0000
1000
0010
1000
0000
,
1000
0100
1000
0000
1000
0100
1000
0000
,
0001
0100
0001
0000
0001
0100
0001
0000
,
0100
0010
0100
0000
0100
0010
0100
0000
,
0001
1000
0001
0000
0001
1000
0001
0000
,
0010
0100
0010
0000
0001
1000
0001
0000
,
0000
0100
0000
0100
0010
0000
0100
0001
,
0000
0000
1000
0000
0001
0000
0000
0000
0001
0000
0000
0100
0000
0000
0000
0010
,
0000
0000
1000
0000
0100
0000
0000
0000
0010
0000
0000
0001
0000
1000
0000
0000
,
0000
0000
0010
0000
1000
0000
0000
0000
0100
0000
0000
0010
0000
0000
0000
0001
,
0000
0000
0100
0000
0001
0000
0000
0000
1000
0000
0000
0010
0000
0100
0000
0000
,
0000
0000
0001
0000
1000
0000
0000
0000
0001
0000
0000
0010
0000
0000
0000
0100
,
0000
0000
1000
0000
0010
0000
0000
0000
1000
0000
0000
0001
0000
0010
0000
0000
,
0000
0000
0010
0000
0100
0000
0000
0000
0010
0000
0000
0001
0000
0000
0000
1000
,
0000
0000
0010
0000
0100
0000
0000
0000
0010
0000
0000
1000
0000
0001
0000
0000
,
1001
0000
0100
0000
0100
0001
0100
0001
,
0000
0000
1000
0000
1000
0100
1000
0100
,
0010
0000
0010
0000
0010
0001
0010
0001
,
0000
0000
1000
0000
0000
0000
0001
0000
1000
0000
0000
0010
0000
0010
0000
0000
,
0200
0000
0000
0000
,
0000
0000
0000
0000
,
0300
0000
0000
0000
;

//---------------dance-single - ----------------
#NOTES:
     dance-single:
     :
     Easy:
     6:
     0.246813,0.302012,0.267860,0.013393,0.000000,129.000000,109.000000,20.000000,1.000000,0.000000,0.000000,0.246813,0.302012,0.267860,0.013393,0.000000,129.000000,109.000000,20.000000,1.000000,0.000000,0.000000:
0000
0000
0000
0000
,
0000
0000
0000
0000
,
0000
0000
0000
0000
,
1000
0000
0001
0000
,
0010
0000
0001
0000
,
0100
0000
0010
0000
,
1000
0000
0100
0000
,
1000
0000
0001
0000
,
1000
0000
0010
0000
,
0100
0000
0010
0000
,
0100
0100
0001
1000
,
0000
0001
0010
1000
,
1001
0000
0000
1001
0000
0000
0000
0000
,
0000
0100
0001
0010
,
0110
0000
0000
0110
0000
0000
0000
0000
,
0000
1000
0001
0010
,
1001
0000
0000
1001
0000
0000
0000
0000
,
0000
0010
1000
0100
,
0110
0000
0000
0110
0000
0000
0000
0000
,
0001
0010
0001
0010
,
0100
1000
0100
1000
,
0010
1000
0010
1000
,
0001
0100
0001
0100
,
0110
1000
1000
1000
,
0100
0001
0001
0001
,
1001
0010
0010
0010
,
1000
0001
1000
0010
,
0000
1010
0001
0100
,
0000
0101
1000
0100
,
0000
1100
0010
0001
,
0000
0011
1000
0010
,
0000
1010
1000
0100
,
0000
0011
0001
0100
,
0000
0101
0010
1000
,
0000
1100
0001
0010
,
1001
0100
0100
0100
,
0000
0010
1000
0001
,
0110
0001
0100
1000
,
0010
0000
1000
0001
,
0200
0000
0000
0000
,
0000
0000
0000
0000
,
0300
0000
0000
0000
;

//---------------dance-single - ----------------
#NOTES:
     dance-single:
     :
     Beginner:
     2:
     0.110970,0.156698,0.107144,0.000000,0.000000,58.000000,50.000000,8.000000,0.000000,0.000000,0.000000,0.110970,0.156698,0.107144,0.000000,0.000000,58.000000,50.000000,8.000000,0.000000,0.000000,0.000000:
0000
0000
0000
0000
,
0000
0000
0000
0000
,
0000
0000
0000
0000
,
1000
0000
0000
0000
,
0001
0000
0000
0000
,
0100
0000
0000
0000
,
0010
0000
0000
0000
,
1000
0000
0000
0000
,
0100
0000
0000
0000
,
0010
0000
0000
0000
,
0001
0000
0001
0000
,
1000
0000
0001
0000
,
0100
0000
0100
0000
,
0010
0000
1000
0000
,
0001
0000
0001
0000
,
0010
0000
0100
0000
,
1000
0000
1000
0000
,
0001
0000
1000
0000
,
0010
0000
0010
0000
,
0100
0000
0000
0000
,
0001
0000
0000
0000
,
1000
0000
0000
0000
,
0010
0000
0000
0000
,
1000
0000
1000
0000
,
0001
0000
0001
0000
,
0010
0000
0010
0000
,
0100
0000
0000
0000
,
0000
0110
0000
0000
,
0000
1001
0000
0000
,
0000
0110
0000
0000
,
0000
1001
0000
0000
,
0000
0110
0000
0000
,
0000
1001
0000
0000
,
0000
0110
0000
0000
,
0000
1001
0000
0000
,
0010
0000
0000
0000
,
1000
0000
0000
0000
,
0001
0000
0000
0000
,
1000
0000
0010
0000
,
0100
0000
0000
0000
;

//---------------dance-single - ----------------
#NOTES:
     dance-single:
     :
     Challenge:
     14:
     0.788272,0.878579,0.937508,0.013393,1.272333,412.000000,342.000000,70.000000,1.000000,0.000000,0.000000,0.788272,0.878579,0.937508,0.013393,1.272333,412.000000,342.000000,70.000000,1.000000,0.000000,0.000000:
// measure 0
0000
0000
0000
0000
,  // measure 1
0000
0000
0000
0000
,  // measure 2
0000
0000
0000
0000
,  // measure 3
1000
0010
0000
0100
0000
0010
1000
0000
0001
0100
0000
0010
0000
0100
0001
0000
,  // measure 4
1000
0001
0000
0010
0000
0001
1000
0000
0100
1000
0000
0001
0000
1000
0100
0000
,  // measure 5
0010
0001
0000
0100
0000
0001
0010
0000
0100
1000
0000
0001
0000
1000
0100
0000
,  // measure 6
0010
0100
0000
1000
0000
0100
0010
0000
0001
1000
0000
0010
0000
1000
0001
0000
,  // measure 7
0010
0100
0000
0010
0000
0001
1000
0000
0010
0100
0000
0001
0000
1000
0100
0000
,  // measure 8
1000
0001
0000
0010
0000
0001
0100
0000
0010
0100
0000
0001
0000
1000
0100
0000
,  // measure 9
1000
0100
0000
0010
0000
0001
0100
0000
0010
1000
0000
0001
0000
1000
0100
0000
,  // measure 10
0010
0000
0001
0100
0010
0000
1000
0001
0010
0000
0100
1000
0001
0000
0100
0010
,  // measure 11
0000
0000
0000
1010
0000
0000
0000
0000
0000
0000
0000
0000
0101
0000
0000
0000
0000
0000
0000
0000
0000
0000
0000
0000
0011
0000
0000
0000
0000
0000
0000
0000
0000
0001
0000
0000
0010
0000
0000
0000
0100
0000
0000
0000
1000
0000
0000
0000
,  // measure 12
0001
0000
0100
0000
0010
0000
0110
0000
0000
0000
1000
0000
0001
0010
0001
0100
,  // measure 13
0000
0000
0000
0101
0000
0000
0000
0000
0000
0000
0000
0000
1100
0000
0000
0000
0000
0000
0000
0000
0000
0000
0000
0000
0011
0000
0000
0000
0000
0000
0000
0000
0000
1000
0000
0000
0001
0000
0000
0000
0100
0000
0000
0000
0010
0000
0000
0000
,  // measure 14
1000
0000
0100
0000
0010
0000
1001
0000
0000
0000
0100
0000
0001
1000
0010
0100
,  // measure 15
0000
0000
0000
0110
0000
0000
0000
0000
0000
0000
0000
0000
0101
0000
0000
0000
0000
0000
0000
0000
0000
0000
0000
0000
1100
0000
0000
0000
0000
0000
0000
0000
0000
0001
0000
0000
1000
0000
0000
0000
0010
0000
0000
0000
0100
0000
0000
0000
,  // measure 16
0001
0000
1000
0000
0010
0000
0110
0000
0000
0000
0010
0000
1000
0001
1000
0100
,  // measure 17
0000
0000
0000
1100
0000
0000
0000
0000
0000
0000
0000
0000
0011
0000
0000
0000
0000
0000
0000
0000
0000
0000
0000
0000
1001
0000
0000
0000
0000
0000
0000
0000
0000
0010
0000
0000
1000
0000
0000
0000
0001
0000
0000
0000
0010
0000
0000
0000
,  // measure 18
0100
0000
1000
0000
0010
0000
0110
0000
0000
0000
0001
0000
0000
1000
0000
1000
,  // measure 19
0010
1000
0000
0100
0000
0010
0001
0000
1000
0000
1000
0000
0001
0100
0010
1000
,  // measure 20
0100
0010
0000
0001
0000
1000
0010
0000
0100
0000
0100
0000
0001
1000
0010
0100
,  // measure 21
0001
1000
0000
0001
0000
0010
0100
0000
1000
0000
1000
0000
0010
0100
0001
1000
,  // measure 22
0100
0010
0000
0100
0000
1000
0001
0000
0100
0000
0100
0000
0001
0010
0100
1000
,  // measure 23
0010
0100
0001
1000
0000
0011
0000
1100
0000
0101
0000
1100
0000
0001
1000
0010
,  // measure 24
1000
0100
0010
0001
0000
1001
0000
0011
0000
0110
0000
1100
0000
0010
0100
0001
,  // measure 25
1000
0100
1000
0001
0000
0110
0000
1001
0000
0101
0000
0110
0000
1000
0001
0100
,  // measure 26
0010
0000
0100
0000
0010
0000
1000
0000
0001
0000
0010
0100
0000
1100
0000
0101
,  // measure 27
0000
1000
0100
0010
0100
1000
0000
0000
1001
0000
0000
0011
0000
0011
0000
0011
,  // measure 28
0000
0001
1000
0100
1000
0001
0000
0000
1001
0000
0000
1010
0000
1010
0000
0000
,  // measure 29
0000
0010
0100
0001
0100
0010
0000
0000
0110
0000
0000
0101
0000
0101
0000
0101
,  // measure 30
0000
1000
0001
0010
0001
1000
0000
0000
0110
0000
0000
1001
0000
1001
0000
0000
,  // measure 31
0000
0010
1000
0100
1000
0001
0000
0000
0011
0000
0000
1100
0000
0101
0000
1100
,  // measure 32
0000
1000
0100
0010
0001
0100
0000
0000
0110
0000
0000
1010
0000
0101
0000
0000
,  // measure 33
0000
0001
0010
0100
1000
0010
0000
0000
1001
0000
0000
1010
0000
0101
0000
0011
,  // measure 34
0000
0010
0100
0010
0001
1000
0000
0000
0110
0000
0000
1001
0000
0110
0000
0000
,  // measure 35
0001
0010
0100
1000
0000
1010
0000
0101
0000
0011
0000
1100
0000
0001
0100
0010
,  // measure 36
1000
0001
1000
0100
0000
0110
0000
0011
0000
1001
0000
1010
0000
0010
0100
0010
,  // measure 37
1000
0001
0010
0100
0000
1100
0000
0110
0000
0011
0000
1010
0000
0010
0100
0001
,  // measure 38
1000
0000
0100
0010
0000
0010
0001
0000
0100
0000
0010
1000
0000
1000
0000
0001
,  // measure 39
0200
0000
0000
0000
,  // measure 40
0000
0000
0000
0000
,  // measure 41
0300
0000
0000
0000
;
