#TITLE:2002;
#ARTIST:Anne-Marie;
#BANNER:2002-bn.png;
#BACKGROUND:2002-bg.png;
#JACKET:2002-jacket.png;
#MUSIC:2002.ogg;
#OFFSET:1.125;
#SAMPLESTART:51.375;
#SAMPLELENGTH:20;
#LASTBEATHINT:0.187;
#DISPLAYBPM:96;
#BPMS:0=96;
#BGCHANGES:;

//---------------dance-single - ----------------
#NOTES:
     dance-single:
     :
     Beginner:
     3:
     :
0000
0000
0000
0000
,
0000
0000
0000
0000
,
0000
0000
0000
0000
,
0000
0000
0000
0000
,
0000
0000
0000
0000
,
0010
0000
1000
0000
,
0000
0000
0001
0000
,
1000
0000
0000
0010
,
0010
0000
0000
0100
,
0100
0000
0000
0000
,
0001
0000
0010
0000
,
0001
0000
0000
0000
,
1000
0000
0010
0000
,
1000
0000
0001
0000
,
0000
0000
1000
0000
,
0100
0000
0000
0010
,
0010
0000
0001
0000
,
0100
0000
0010
0000
,
1000
1000
1000
0000
,
0001
0001
0001
0000
,
1001
0000
0110
0000
,
1000
1000
1000
0000
,
0100
0100
0100
0000
,
1000
0000
0001
0000
,
0010
0010
0010
0000
,
0001
0000
0001
0000
,
0100
0000
0100
0000
,
0001
0000
1000
0000
,
0100
0000
1000
0000
,
1001
0000
0100
0000
,
0100
0000
1000
0000
,
1001
0000
0100
0000
,
0100
0000
0001
0000
,
0010
0000
0000
0000
,
0001
0000
0001
0000
,
1000
0000
0010
0000
,
0100
0000
0000
0000
,
0001
0000
0001
0000
,
0100
0100
0100
0000
,
0010
0000
1000
0000
,
0001
0001
0001
0000
,
0010
0000
0010
0000
,
0001
0000
1000
0000
,
0010
0000
1000
0000
,
0001
0000
0100
0000
,
1001
0000
0000
0000
;

//---------------dance-single - ----------------
#NOTES:
     dance-single:
     :
     Easy:
     7:
     :
0000
0000
0000
0000
,
0000
0000
0000
0000
,
0000
0000
0000
0000
,
0000
0000
0000
0000
,
0000
0000
0000
0000
,
0010
0000
0000
1000
0000
0000
0000
0000
,
0001
0000
0000
0100
0000
0000
0000
0000
,
0001
0000
0000
0010
0000
0000
0001
0000
,
1000
0000
0000
0010
0000
0000
0100
0000
,
0001
0100
1000
0010
,
1000
0001
0010
0001
,
0100
0010
0100
0001
,
0010
0100
1000
0010
,
1000
0010
1000
0001
,
0010
0001
0100
0010
,
0100
0001
0010
1000
,
0010
1000
0001
1001
,
0010
1000
0100
0001
,
1000
0100
1000
0000
0001
0100
0001
0000
,
0010
0000
0001
0000
0100
0010
0000
0110
,
0000
0000
0000
0000
1000
0001
1000
0000
,
0101
1100
0101
0010
,
1000
0000
0100
0000
0001
0000
0100
0010
,
1000
0001
0010
0100
,
1000
0010
1000
0010
1000
0000
1001
0000
,
0020
1030
0200
0301
,
1001
0100
0010
0110
,
1000
1000
0001
0001
,
0100
0000
0010
1000
,
1001
0020
1030
0200
,
0301
0010
0001
1000
,
0010
2000
3010
0002
,
0103
0010
1000
1001
,
0010
0000
0000
1000
0000
0000
0000
0000
,
0001
0000
0000
0100
0000
0000
0000
0000
,
0001
0100
1000
0100
,
0001
0000
0001
1000
,
1100
0101
1100
0010
,
1000
0000
0100
0000
0001
0000
0100
0010
,
1000
0010
0100
0001
,
1000
0010
1000
0010
1000
0000
0000
0000
,
0002
0013
2000
3100
,
1001
0010
0100
0110
,
1000
1000
0001
0001
,
0100
0000
0010
1000
,
1001
0000
0000
0000
;

//---------------dance-single - ----------------
#NOTES:
     dance-single:
     :
     Medium:
     9:
     :
0000
0000
0000
0000
,
0000
0000
0000
0000
,
0000
0000
0000
0000
,
0000
0000
0000
0000
,
0000
0000
0000
0000
,
0010
0100
0000
0001
1000
0100
0000
0000
,
0000
0000
0000
1000
0020
0000
1030
0100
,
1000
0001
0000
1000
0001
0000
0020
0000
,
0031
1000
0000
0001
1000
0000
1000
0100
,
1000
0010
0000
0100
0001
0000
0110
0000
,
0001
0000
0001
1000
0010
0000
1000
0100
,
1000
0001
0000
0100
0010
0000
0110
0000
,
1000
0000
0010
1000
0100
0000
0010
0001
,
0100
0010
0000
1000
0001
1000
0000
0000
,
0001
0010
0000
0001
2000
0000
3010
1000
,
0100
0010
0000
0001
1000
0000
0020
0000
,
1030
0010
0000
0100
0001
0000
0110
0000
,
0001
0010
1000
0000
0100
1000
0001
0000
,
0100
0100
0100
0000
0010
0010
0010
0000
,
1000
0010
1000
0010
0100
0001
0000
0011
,
0000
0000
0000
1000
0001
0001
0001
0100
,
0010
0000
1010
0000
0101
0000
0001
1000
,
0010
1000
0010
0100
0001
0000
0010
0010
,
0001
0100
0001
0100
0010
1000
0010
0000
,
1000
0100
0001
0100
1000
0000
1001
0000
,
0010
1000
0010
0000
1000
0001
0100
0000
,
0110
0000
0001
0100
2000
0000
3010
0000
,
1000
0010
0100
0001
1000
0100
0010
0001
,
0100
0000
0000
0000
0000
0000
0001
1000
0001
0000
0000
0100
0000
0000
0010
0000
,
1001
0000
2000
0100
3001
0000
2000
0100
,
3001
0000
0000
0000
0000
0000
1000
0100
1000
0000
0000
0010
0000
0000
0100
0000
,
1001
0000
0002
0100
1003
0000
0002
0100
,
1003
0000
0010
0100
0001
1000
0110
0000
,
0001
0100
1000
0010
,
0100
0010
0100
0000
0100
0010
0100
0000
,
0001
0000
0010
0000
0001
1000
0000
1010
,
0000
0000
0002
2003
,
3100
0000
1100
0000
0011
0000
0100
0001
,
0010
0000
0001
0100
1000
0000
0010
0010
,
1000
0001
1000
0001
0010
0100
1000
0000
,
0001
0100
0010
1000
1010
0000
0000
0000
,
0001
0100
0010
0000
1000
0100
0010
0000
,
0110
0000
0001
0010
2000
0001
3001
0000
,
0010
0100
0001
1000
0010
0100
0001
1000
,
0100
0000
0000
0000
0000
0000
1000
0001
1000
0000
0000
0010
0000
0000
0100
0000
,
2002
0000
0000
0000
,
0000
0000
0000
0000
,
3003
0000
0000
0000
;

//---------------dance-single - ----------------
#NOTES:
     dance-single:
     :
     Hard:
     11:
     :
0000
0000
0000
0000
,
0000
0000
0000
0000
,
0000
0000
0000
0000
,
0000
0000
0000
0000
,
0000
0000
0000
0000
,
0010
0100
0001
1000
0000
0000
0010
0100
0001
1000
0000
0000
0000
0000
0000
0000
,
0100
0010
0001
1000
0000
0000
0100
0010
0001
1000
0000
0000
0000
0000
0000
0000
,
0001
0010
0100
1000
0000
0000
0001
0010
0100
1000
0000
0000
0010
0000
0100
0000
,
0001
0010
0100
1000
0000
0000
0001
0010
0100
1000
0000
0000
0001
0000
1000
0000
,
0001
0100
0010
1000
0000
0000
0001
0100
0010
1000
0000
0000
0110
0000
0000
0000
,
0001
0001
1000
0010
0010
0100
0001
1000
,
0100
1000
0001
0010
0000
0000
0100
1000
0001
0010
0000
0000
0110
0000
0000
0000
,
0001
0100
0010
0100
0001
1000
0100
0010
,
0001
1000
0010
0100
0000
0000
0001
1000
0010
0100
0000
0000
0110
0000
0000
0000
,
0010
0100
0001
1000
0000
0000
0010
0100
0001
1000
0000
0000
0110
0000
0000
0000
,
1000
0100
0010
0001
0000
0000
1000
0100
0010
0001
0000
0000
0010
0000
0100
0000
,
1000
0010
0100
0001
0000
0000
1000
0010
0100
0001
0000
0000
0110
0000
0000
0000
,
0010
0000
1000
0000
0010
0000
0100
0000
0001
1000
0001
1000
0001
0000
0100
0000
,
0010
1010
0101
0000
0010
0011
1100
0000
,
0001
0100
0010
1000
1100
0101
0000
1001
,
0000
0000
0000
0000
0000
0000
1000
0010
1000
0000
0100
0000
0010
0000
0001
0000
,
0011
0000
0000
0000
0110
0000
0000
0000
1100
0000
0000
0000
0001
0100
0001
0000
,
1000
0010
0100
0100
0100
0000
0001
0010
,
0001
1000
0001
1000
0001
0000
0100
0000
0010
0000
0110
0000
0110
0000
0100
0000
,
0001
0010
0001
0010
0001
0000
1000
0000
1100
0000
0000
0000
1001
0000
0000
0000
,
0010
1000
0010
0100
0001
0010
0001
1000
,
0010
0000
0000
1000
0100
0000
1000
0000
0002
0000
0000
0000
0103
0000
0000
0000
,
0010
0010
1000
1000
0100
0100
0001
0001
,
0010
0001
1000
0100
0000
0000
1000
0010
1000
0000
0001
1000
0000
0001
1000
0000
,
1001
0000
0000
0000
0001
0100
0001
0000
1000
0000
0000
0000
1000
0100
1000
0000
,
0001
0000
0000
0000
0000
0000
0001
0100
0001
0000
1000
0001
0000
1000
0001
0000
,
1001
0000
0000
0000
0001
0010
0001
0000
1000
0000
0000
0000
1000
0010
1000
0000
,
0001
0000
0000
0000
0000
0000
1000
0010
0100
0001
0000
0000
0110
0000
0000
0000
,
0010
1000
0100
0000
0010
0001
0100
0000
,
0001
0001
0001
0000
1000
1000
1000
0000
,
0010
1000
0010
0100
0001
1000
0000
1010
,
0000
0000
0002
1003
,
1100
0000
0110
0000
0011
0000
1000
0001
,
1000
0010
0100
0100
0100
0000
0001
0010
,
0001
1000
0001
0100
0010
1010
1010
0100
,
0010
1000
0010
1000
0010
0000
0100
0000
0101
0000
0000
0000
0000
0000
0000
0000
,
0001
0010
0001
0100
1000
0010
0100
0001
,
0010
0000
0000
0001
1000
0000
0100
0000
2000
0000
0000
0000
3010
0100
0010
0000
,
1000
1000
0100
0100
0001
0001
0010
0010
,
1000
0001
0100
0010
0000
0000
1000
0100
1000
0000
0001
1000
0000
0001
1000
0000
,
2002
0000
0000
0000
,
0000
0000
0000
0000
,
3003
0000
0000
0000
;

//---------------dance-single - ----------------
#NOTES:
     dance-single:
     :
     Challenge:
     12:
     :
0000
0000
0000
0000
,
0000
0000
0000
0000
,
0000
0000
0000
0000
,
0000
0000
0000
0000
,
0000
0000
0000
0000
,
0010
0100
0001
1000
0000
0000
0010
0100
0001
1000
0000
0000
0000
0000
0000
0000
,
0001
1000
0010
0100
0000
0010
1000
0000
0101
0000
0000
0000
1000
0100
0000
1000
,
0001
0010
0100
1000
0000
0000
0001
0010
0100
1000
0000
0000
0010
0100
0010
0000
,
1000
0100
0010
0001
0000
0000
1000
0100
0010
0001
0100
0010
0100
0000
0001
1000
,
0001
0010
0100
1000
0010
0000
1000
0100
0010
0001
0000
0000
0110
0000
0000
1000
,
0001
0000
0100
0000
0100
0000
0001
0000
0010
0000
0100
1000
0001
0000
0100
0001
,
1000
0010
0100
0001
0010
0000
0001
0100
0010
1000
0000
0000
0110
0000
0001
0000
,
0001
0000
0100
0000
1000
0000
0010
0000
0100
0000
0001
0010
0100
0000
1000
0010
,
0100
0010
1000
0001
0010
0000
0100
0010
0001
1000
0010
0000
0110
0000
0000
0000
,
1000
0001
0100
0010
0000
0010
1000
0000
2100
0000
0000
0000
3001
0100
0000
0010
,
1000
0100
0010
0001
0100
0000
0001
0010
0100
1000
0000
0000
0010
0100
0010
0000
,
1000
0001
0100
0010
1000
0000
0010
0100
0001
1000
0000
0000
1001
0000
0000
0010
,
0000
0010
1000
0100
0010
0000
0001
0100
1000
0100
0001
0100
0010
0000
1000
0100
,
0010
0011
1200
0010
1300
0101
1010
0000
,
0110
0000
0001
0100
0000
0010
1000
0000
0100
1000
0001
0000
0100
0000
1010
0000
,
0001
1000
0001
1000
0000
0000
0010
0100
0001
0000
0001
0000
0001
0000
1000
0000
,
1100
0000
0000
0000
0101
0000
0010
0000
1100
0000
0000
0000
0001
0100
0010
0000
,
1000
0100
0001
0100
1000
0000
1000
0000
1010
0000
0000
0000
0101
0000
0010
0000
,
1000
0100
0001
0100
1000
0100
0001
0100
0010
0000
1001
0000
0110
0000
1000
0010
,
1000
0100
0001
0100
1000
0000
0110
0000
0011
0000
0000
0000
1001
0000
0000
0000
,
0110
0000
0000
0000
0000
0000
0010
0000
0000
1000
0000
0000
0000
0000
0000
0100
0000
0000
0000
0000
0000
1000
0000
0000
0010
0000
0000
0100
0000
0000
0000
0000
0000
0001
0000
0000
0000
0000
0000
0000
0010
0000
0000
0000
0100
0000
0000
0000
,
1000
0000
0001
0000
1000
0010
0100
0010
1000
0001
0100
0000
0110
0000
0000
0000
,
0010
1000
0000
0010
0000
0100
0000
0101
0000
0011
0000
0110
0000
1000
0001
0000
,
1000
0010
0100
0001
0000
0000
0010
0100
1000
0000
0001
0100
0000
1000
0010
0000
,
1001
0000
0000
0000
0001
0100
1000
0100
0001
0000
0000
0000
0001
0100
1000
0100
,
0001
0010
0100
1000
0000
0000
0010
0100
0010
0000
1000
0010
0000
0001
0100
0000
,
0001
0010
0100
1000
0001
0100
1000
0100
0001
0000
0000
0000
0001
0100
1000
0100
,
0001
0010
0100
1000
0010
0100
0010
1000
0001
0100
0010
0000
0110
0000
0000
0000
,
0001
0000
0100
0000
0010
0000
1000
0000
0100
0010
0100
0010
0100
0000
1000
0000
,
0001
0101
1100
0000
0010
0101
1010
0000
,
0001
0000
1000
0010
0000
0010
0100
0000
0101
0000
1001
0000
0000
0000
1000
0100
,
0020
0000
0000
0000
0030
0000
0000
0000
0002
0000
0000
0000
1003
0100
0000
0000
,
1100
0000
0000
0000
0101
0000
0000
0000
1100
0000
0000
0000
0001
1000
0001
0000
,
1000
0010
0001
0010
1000
0000
1100
0000
0011
0000
0000
0000
0100
0000
0010
0000
,
1000
0100
1000
0100
0010
0001
0010
0001
0100
0000
0100
0000
0100
0000
0001
1000
,
0001
0010
1000
0010
0001
0000
0101
0000
1010
0000
0000
0000
0000
0000
0000
0000
,
1001
0000
0000
0000
0000
0000
0010
0000
0000
1000
0000
0000
0000
0000
0000
0100
0000
0000
0000
0000
0000
1000
0000
0000
0001
0000
0000
0100
0000
0000
0000
0000
0000
0010
0000
0000
0000
0000
0000
0000
1000
0000
0000
0000
0001
0000
0000
0000
,
0100
0000
0010
1000
0001
0100
0000
0010
1000
0100
0010
0100
0001
0100
0010
0000
,
0001
1000
0000
0010
0000
0100
0000
0110
0000
0101
0000
1001
0000
1000
0100
0000
,
1000
0010
0100
0001
0010
0000
0001
0100
0010
0000
1000
0010
0000
0001
0100
0000
,
2002
0000
0000
0000
,
0000
0000
0000
0000
,
3003
0000
0000
0000
;
