#TITLE:1,2,3,4, 007;
#SUBTITLE:;
#ARTIST:NI-NI;
#TITLETRANSLIT:;
#SUBTITLETRANSLIT:;
#ARTISTTRANSLIT:;
#GENRE:;
#CREDIT:;
#BANNER:1,2,3,4, 007-bn.png;
#BACKGROUND:1,2,3,4, 007-bg.png;
#LYRICSPATH:;
#CDTITLE:;
#MUSIC:1,2,3,4, 007.ogg;
#OFFSET:0.000000;
#SAMPLESTART:44.563000;
#SAMPLELENGTH:20.000000;
#SELECTABLE:YES;
#DISPLAYBPM:140.000000;
#BPMS:0.000000=139.998001
;
#STOPS:
;
#BGCHANGES:19.000=1,2,3,4, 007.mp4=1.000=1=0=0=StretchNoLoop==CrossFade==,
99999=-nosongbg-=1.000=0=0=0 // don't automatically add -songbackground-
;
#KEYSOUNDS:;
#ATTACKS:;

//---------------dance-couple - ----------------
#NOTES:
     dance-couple:
     :
     Challenge:
     3:
     0.232702,0.412732,0.231130,0.000000,0.044025,148.000000,127.000000,21.000000,0.000000,0.000000,0.000000,0.232702,0.440247,0.231130,0.000000,0.044025,148.000000,127.000000,21.000000,0.000000,0.000000,0.000000:
00000000
00000000
00000000
00000000
,
00000000
00000000
00000000
00000000
,
00000000
00000000
00000000
00000000
,
10000001
00000000
10000001
00000000
,
00011000
00000000
00011000
00000000
,
10011001
00000000
00000000
00000000
,
00100000
01000000
00100000
01000000
,
00000010
00000100
00000010
00000100
,
00000000
00000000
00100000
01000000
00000000
00000000
00000000
00000000
00010000
00000000
00000000
10000000
00000000
00000000
01000000
00000000
,
00000000
00000000
00000010
00000100
00000000
00000000
00000000
00000000
00000001
00000000
00000000
00001000
00000000
00000000
00000100
00000000
,
00000000
00010001
00000000
10000001
,
00010000
00000000
10000001
00000000
00010000
10000000
00010001
00000000
,
00000000
00000000
01000001
00000000
00100000
01000000
00100001
00000000
,
10100000
00110001
11000000
00000001
,
00000000
10000001
00000000
10001000
,
00000001
00000000
10001000
00000000
00000001
00001000
10000001
00000000
,
00000000
00000000
10000100
00000000
00000010
00000100
10000010
00000000
,
00001010
10000011
00001100
10000000
,
00010001
00010001
01000100
00000000
,
00011000
00011000
00100010
00000000
,
00100010
00000000
01000100
00000000
,
00010000
00010000
00001000
00001000
,
00100010
00100010
10001000
00000000
,
01000100
01000100
00010001
00000000
,
01000100
00000000
01000100
00000000
,
10000000
01000000
00100000
00010000
00001000
00000100
00000010
00000001
,
10001000
00100010
00010001
10001000
,
10011001
10011001
01000100
00000000
,
00010000
10000000
00010000
10000000
,
00000001
00001000
00000001
00001000
,
00100000
10010000
00000010
00001001
,
00000000
00100010
01000100
00000000
,
00100000
00100000
00100000
00100000
,
00000100
00000100
00000100
00000100
,
10101010
00110011
01010101
11001100
,
10100011
10100011
01011100
00000000
,
00100000
01000000
00100000
00000000
10010000
00000000
00000000
00000000
,
00000010
00000100
00000010
00000000
00001001
00000000
00000000
00000000
,
00000010
00001001
00100000
10010000
,
00000000
10100011
01011100
00000000
,
10001000
00010001
10001000
00000000
01100110
00000000
00000000
00000000
,
00100010
01000100
00100010
00010001
10011001
00000000
00000000
00000000
,
00100000
01000000
00100000
01000000
,
00000010
00000100
00000010
00000100
,
00000000
00000000
00100000
01000000
00000000
00000000
00000000
00000000
00010000
00000000
00000000
10000000
00000000
00000000
01000000
00000000
,
00000000
00000000
00000010
00000100
00000000
00000000
00000000
00000000
00000001
00000000
00000000
00001000
00000000
00000000
00000100
00000000
,
10000000
00100000
10000000
00000000
00010000
01000000
00010000
00000000
,
00000001
00000010
00000001
00000000
00001000
00000100
00001000
00000000
,
00000000
00000000
01000100
00010001
00000000
00000000
00000000
00000000
00100010
00000000
00000000
01000100
00000000
00000000
10001000
00000000
,
00000000
00000000
01000100
10001000
00000000
00000000
00000000
00000000
00100010
00000000
00000000
01000100
00000000
00000000
00010001
00000000
,
01010101
00000000
00000000
00000000
;

//---------------dance-solo - ----------------
#NOTES:
     dance-solo:
     :
     Easy:
     1:
     0.091194,0.137577,0.000000,0.000000,0.000000,58.000000,58.000000,0.000000,0.000000,0.000000,0.000000,0.091194,0.137577,0.000000,0.000000,0.000000,58.000000,58.000000,0.000000,0.000000,0.000000,0.000000:
000000
000000
000000
000000
,
000000
000000
000000
000000
,
000000
000000
000000
000000
,
000100
000000
000000
000000
,
000000
000000
000000
000000
,
000100
000000
000000
000000
,
000001
000000
000000
000000
,
000001
000000
000000
000000
,
000100
000000
000000
000000
,
000100
000000
000000
000000
,
000001
000000
000000
000000
,
000001
000000
000000
000000
,
100000
000000
000000
000000
,
100000
000000
100000
000000
,
100000
000000
000000
000000
,
010000
000000
000000
000000
,
000010
000000
000000
000000
,
001000
000000
001000
000000
,
000100
000000
000000
000000
,
000100
000000
000000
000000
,
100000
000000
100000
000000
,
000000
000000
000000
000000
,
000001
000000
000000
000000
,
000001
000000
000000
000000
,
001000
000000
001000
000000
,
000000
000000
000000
000000
,
000100
000000
000000
000000
,
000100
000000
000100
000000
,
001000
000000
000000
000000
,
001000
000000
000000
000000
,
000001
000000
000000
000000
,
000000
001000
000100
000000
,
000010
000000
000000
000000
,
010000
000000
000000
000000
,
000100
000000
000000
000000
,
000100
000000
001000
000000
,
000100
000000
000000
000000
,
100000
000000
000000
000000
,
000001
000000
000001
000000
,
000000
010000
000010
000000
,
000001
000000
000000
000000
,
001000
000000
000000
000000
,
100000
000000
000000
000000
,
100000
000000
000000
000000
,
100000
000000
100000
000000
,
000001
000000
000001
000000
,
010000
000000
000000
000000
,
010000
000000
000000
000000
,
000100
000000
001000
000000
,
000100
000000
001000
000000
,
001000
000000
000000
000000
;

//---------------dance-solo - ----------------
#NOTES:
     dance-solo:
     :
     Medium:
     3:
     0.207545,0.302670,0.077043,0.000000,0.000000,132.000000,125.000000,7.000000,0.000000,0.000000,0.000000,0.207545,0.302670,0.077043,0.000000,0.000000,132.000000,125.000000,7.000000,0.000000,0.000000,0.000000:
000000
000000
000000
000000
,
000000
000000
000000
000000
,
000000
000000
000000
000000
,
000001
000000
000000
000000
,
000100
000000
000000
000000
,
100001
000000
000000
000000
,
000001
000000
000001
000000
,
010000
000000
000010
000000
,
000010
010000
000010
000000
,
000100
001000
000100
000000
,
000100
000100
000000
000010
,
000000
000001
000000
100000
,
000000
010000
000000
010000
,
100000
001000
000001
000000
,
000000
000001
000000
010000
,
000000
010000
000000
100000
,
000000
001000
000000
000100
,
100000
001000
000100
000010
,
000001
000001
001000
000000
,
010000
010000
000100
000000
,
000100
000000
001000
000000
,
000001
000001
100000
100000
,
000010
000010
000001
000000
,
001000
001000
100000
000000
,
001000
000000
001000
000000
,
010000
100000
000100
000010
,
000001
000100
000010
010000
,
100001
100001
001000
000000
,
000010
000000
000010
000000
,
010000
000000
100000
000000
,
000100
100000
010000
100000
,
000000
000100
001000
000000
,
010000
010000
010000
000000
,
000010
000000
000001
000000
,
000100
010000
000100
000010
,
010010
010010
100001
000000
,
000001
000000
100000
000000
,
100000
000001
100000
000001
,
000010
000010
000100
010000
,
000000
000100
001000
000000
,
000001
000001
010000
000000
,
001000
001000
001000
000000
,
100000
000000
100000
000000
,
000010
000000
000010
000000
,
100000
000001
100000
000000
,
000100
001000
000100
000000
,
000010
000000
000010
000000
,
100000
000000
100000
000000
,
000100
001000
000100
000000
,
100000
000001
100000
000000
,
010010
000000
000000
000000
;

//---------------dance-solo - ----------------
#NOTES:
     dance-solo:
     :
     Hard:
     6:
     0.374210,0.440247,0.297167,0.000000,0.132074,238.000000,211.000000,27.000000,0.000000,0.000000,0.000000,0.374210,0.440247,0.297167,0.000000,0.132074,238.000000,211.000000,27.000000,0.000000,0.000000,0.000000:
000000
000000
000000
000000
,
000000
000000
000000
000000
,
000000
000000
000000
000000
,
001000
000000
001000
000000
,
000100
000000
000100
000000
,
010010
000000
000000
000000
,
000010
010000
000010
010000
,
000100
001000
000100
001000
,
000000
000000
000100
001000
000000
000000
000000
000000
000001
000000
000000
100000
000000
000000
000010
000000
,
000000
000000
100000
000100
000000
000000
000000
000000
001000
000000
000000
000001
000000
000000
010000
000000
,
000000
000100
000000
000100
,
000001
000000
010000
000000
100000
000001
100000
000000
,
000000
000000
000010
000000
000100
001000
000100
000000
,
010100
000110
001001
000000
,
000000
000000
100000
000000
001000
100000
001000
000000
,
000010
000000
000010
000000
000001
001000
000001
000000
,
001000
000000
000100
000000
010000
000001
000100
000000
,
000010
010000
000010
010000
000010
010000
000100
000000
,
001000
000000
001000
000000
100000
001000
000001
000000
,
000001
000100
010000
000000
100000
000000
100000
000000
,
000101
000000
000000
001000
100000
000000
000000
000000
,
000100
001000
000100
000000
000010
000100
000010
000000
,
000001
000000
000001
000000
000010
100000
001000
000000
,
000100
001000
000001
000000
000010
000000
000010
000000
,
010100
000000
000000
000100
000001
000000
000000
000000
,
100000
001000
000100
000010
100000
001000
000100
000000
,
000100
000000
000000
001000
000100
000000
000000
001000
000100
000000
000000
001000
000100
000000
000000
000000
,
000110
000110
101000
000000
,
000100
001000
000100
000000
010010
000000
000000
000000
,
010000
000100
010000
000000
101000
000000
000000
000000
,
000001
000000
000000
100000
000001
000000
000000
100000
000001
000000
000000
100000
000001
000000
000000
000000
,
000000
010100
001001
000000
,
000001
100000
000001
000000
001100
000000
000000
000000
,
000100
001000
000100
100000
100001
000000
000000
000000
,
000100
000000
000000
001000
000100
000000
000000
001000
000100
000000
000000
001000
000100
000000
000000
000000
,
010100
010100
001001
000000
,
000100
001000
000100
000000
010010
000000
000000
000000
,
010000
000010
010000
000000
001100
000000
000000
000000
,
010000
000000
000000
000010
010000
000000
000000
000010
010000
000000
000000
000010
010000
000000
000000
000000
,
000000
000011
110000
000000
,
100000
000001
100000
000000
001100
000000
000000
000000
,
000100
001000
000100
000000
010010
000000
000000
000000
,
100000
000001
100000
000000
000010
010000
000010
000000
,
010000
000010
010000
000000
000001
100000
000001
000000
,
000000
000000
000100
001000
000000
000000
000000
000000
000001
000000
000000
100000
000000
000000
000010
000000
,
000000
000000
100000
000100
000000
000000
000000
000000
001000
000000
000000
000001
000000
000000
010000
000000
,
100000
001000
100000
000000
001100
000000
000010
000000
,
000010
000100
000010
000000
001100
000000
100000
000000
,
000000
000000
001000
000001
000000
000000
000000
000000
000100
000000
000000
001000
000000
000000
010000
000000
,
000000
000000
001000
100000
000000
000000
000000
000000
000100
000000
000000
001000
000000
000000
000001
000000
,
001001
000000
000000
000000
;

//---------------dance-single - ----------------
#NOTES:
     dance-single:
     :
     Challenge:
     16:
     0.836470,0.968269,0.550309,0.022012,0.693390,532.000000,482.000000,50.000000,2.000000,0.000000,0.000000,0.836470,0.968269,0.550309,0.022012,0.693390,532.000000,482.000000,50.000000,2.000000,0.000000,0.000000:
0000
0000
0000
0000
,
0000
0000
0000
0000
,
0000
0000
0000
0000
,
1000
0100
1000
0100
1000
0100
1000
0100
1000
0100
1000
0100
1000
0100
1000
0100
,
0010
0001
0010
0001
0010
0001
0010
0001
0010
0001
0010
0001
0010
0001
0010
0001
,
0200
0000
0000
0000
0000
0000
0301
1000
0001
1000
0001
1000
0001
1000
0001
1000
0001
1000
0001
0000
0000
0000
0000
0000
,
0110
0000
0001
0000
1000
0100
0010
0000
0001
0000
1000
0000
0010
0100
0001
0000
,
1000
0100
0010
0000
0001
1000
0010
0000
0100
0000
0001
0000
0010
0100
1000
0000
,
0001
0000
1010
0000
0101
0000
0011
0000
1010
0000
0100
0001
0000
0001
1000
0000
,
0100
0000
0011
0000
1001
0000
0110
0000
1010
0000
1000
0001
0000
0001
0100
0000
,
0110
0000
1000
0010
1000
0000
0001
0000
0010
0000
0100
0000
0001
0000
1000
0000
,
0001
0001
1000
0010
1000
0001
0001
0100
,
0001
0100
1000
0001
1000
0001
0010
0100
,
0001
1000
0001
1000
0100
0010
0001
1000
,
0010
0000
0100
0001
0100
0000
0010
0000
1000
0000
0001
0000
0010
0100
1000
0000
,
0001
0100
0010
1000
0100
0010
0001
0100
,
1000
0001
0010
0001
0100
1000
0010
0001
,
0100
0000
0010
0000
0100
0000
0001
0000
0010
0001
1000
0000
0100
0000
0001
0000
,
0011
0000
0001
0100
1000
0000
0010
1000
0100
0000
0010
0000
0001
0000
1000
0000
,
0100
0010
0001
0100
0001
0010
1000
0100
,
1000
0010
0100
0010
1000
0000
0001
0000
0001
0010
0100
0010
0001
0000
1000
0000
,
0010
0110
1010
0101
0011
0110
1100
1001
,
1010
0000
0001
0100
1000
0000
0010
1000
0100
0000
0010
0000
0001
0000
1000
0000
,
0010
0100
0010
1000
0100
0001
0010
0100
,
1000
0001
0010
0001
1000
0000
0100
0000
0100
0010
0001
0010
0100
0000
1000
0000
,
0010
0000
0000
1000
0000
0000
0100
0000
0000
0010
0000
0000
0001
0000
0000
0000
0000
0000
0100
0000
0000
0000
0000
0000
0010
0000
1000
0000
0010
0000
1000
0000
0010
0000
1000
0000
0010
0000
1000
0000
0010
0000
1000
0000
0010
0000
1000
0000
,
0010
0000
0100
0001
1000
0000
0100
0010
0001
0000
1000
0010
0100
0000
0000
0000
,
0001
0010
0100
1000
0001
0000
0000
0000
1010
0000
0101
0000
1000
0001
1000
0000
,
0010
0100
0001
0100
0010
0000
1000
0000
0001
0000
0110
0000
1000
0000
0000
0000
,
0100
0010
0100
1000
0001
0000
0100
0000
0010
0000
1001
0000
0100
0010
1000
0000
,
0001
0000
0100
0010
1000
0000
0000
0000
0011
0000
1001
0000
0110
0000
0000
0000
,
1000
0100
0011
0100
1010
0100
0001
0000
,
1000
0100
0010
0001
0100
0000
0010
0000
1000
0000
0001
0100
0001
0000
0000
0000
,
0010
0001
1000
0001
0100
0000
0010
0000
1000
0000
0100
0000
0001
1000
0001
0000
,
0010
0000
0001
0100
0010
0000
1000
0001
0010
0000
0100
1000
0001
0000
0000
0000
,
1000
0100
0001
0100
1000
0000
0000
0000
0110
0000
1001
0000
0100
0001
0010
0000
,
0100
1000
0010
0001
0100
0000
0010
0000
1000
0000
0101
0000
0010
0000
0000
0000
,
1000
0001
0010
0100
1000
0000
0001
0000
0100
0000
1010
0000
0001
0100
1000
0000
,
0010
0000
1000
0001
0100
0000
0000
0000
1001
0000
1100
0000
0011
0000
0000
0000
,
0100
0010
0101
0010
1100
0010
0001
0000
,
1000
0001
0010
0100
1000
0000
0001
0000
0100
0000
1001
0000
0010
0000
0000
0000
,
0100
0000
0000
0001
0000
0000
0100
0000
0000
0010
0000
0000
1000
0000
0000
0000
0000
0000
0001
0000
0000
0000
0000
0000
1000
0000
0100
0000
1000
0000
0100
0000
1000
0000
0100
0000
1000
0000
0100
0000
1000
0000
0100
0000
1000
0000
0100
0000
,
1000
0000
0001
0010
0100
0000
1000
0000
0010
0100
0001
0000
0010
0100
1000
0000
,
0001
1000
0010
0000
0100
0000
0001
0000
1000
0000
0100
0000
0010
0001
0100
0000
,
0001
0000
0110
0000
0101
0000
1100
0000
0011
0000
0100
1000
0000
1000
0001
0000
,
0100
0000
1001
0000
0011
0000
1100
0000
0101
0000
0010
1000
0000
1000
0001
0000
,
0100
0001
1000
0001
0100
0000
0010
0000
1000
0100
0001
0000
0010
0001
0100
0000
,
0001
0010
1000
0000
0100
0000
0001
0000
0010
0000
0100
0000
1000
0001
0010
0000
,
0100
0000
0110
0000
0011
0000
1100
0000
1001
0000
0010
1000
0000
1000
0001
0000
,
1000
0100
0010
0001
0000
0000
0100
0000
0000
0010
0000
0000
1000
0000
0000
0001
0100
0001
0100
0001
0100
0001
0100
0001
,
0200
0000
0000
0000
,
0000
0000
0000
0300
;

//---------------dance-single - ----------------
#NOTES:
     dance-single:
     :
     Hard:
     13:
     0.641503,0.655006,0.374210,0.088049,0.214621,408.000000,374.000000,34.000000,8.000000,0.000000,0.000000,0.641503,0.655006,0.374210,0.088049,0.214621,408.000000,374.000000,34.000000,8.000000,0.000000,0.000000:
0000
0000
0000
0000
,
0000
0000
0000
0000
,
0000
0000
0000
0000
,
1000
0100
1000
0100
1000
0000
0001
0000
0100
0000
0010
0000
1000
0000
0000
0000
,
0001
0010
0001
0010
0001
0000
0100
0000
0010
0000
1000
0000
0001
0000
1000
0000
,
0200
0000
0000
0000
1300
0001
1000
0001
1000
0001
1000
0001
1000
0000
0000
0000
,
0110
0000
1000
0010
1000
0000
0001
0000
0010
0000
0100
0000
1000
0000
0001
0000
,
0100
0010
0100
0000
0001
0000
1000
0000
0010
0000
0100
0000
0001
0000
0010
0000
,
0000
0000
1100
0000
0101
0000
0010
0000
1000
0000
0001
0100
0000
0001
0100
0000
,
0010
0000
0110
0000
1001
0000
0100
0000
0001
0000
1000
0010
0000
1000
0010
0000
,
0100
0000
0001
1000
0001
0000
0000
0000
0010
0000
0100
0000
1000
0000
0010
0000
,
0001
0010
1000
0010
0100
0001
0101
0000
,
0010
1000
0100
1000
0010
0100
0001
0010
,
1000
0010
0100
0010
0001
1000
0010
0100
,
0001
0000
1000
0100
1000
0000
0000
0000
0010
0000
0100
0000
0010
0000
1000
0000
,
0001
0010
0100
1000
0100
0001
0100
0010
,
0100
1000
0010
1000
0001
0010
0001
0100
,
0010
0001
0010
1000
0200
0010
0310
0000
,
1001
0100
1001
0000
0100
0001
0010
0100
,
1000
0010
0001
0010
1000
0100
0001
0000
,
2000
0010
3010
0100
0002
1000
1003
0000
,
0001
0010
0001
0100
0010
1000
0001
0010
,
0110
1000
0110
0000
0001
0100
0010
1000
,
0100
0010
0001
0100
0001
0010
1000
0000
,
0200
0010
0310
0001
2000
0010
3010
0000
,
0100
0001
0100
0000
0010
0000
1000
0000
0100
0000
0010
0000
0010
0000
0000
0000
,
0001
0100
0010
1000
0100
0010
0001
0000
,
1000
0010
0100
0010
1000
0000
0000
0000
0101
0000
1100
0000
0001
0000
0000
0000
,
1000
0000
0100
0010
0001
0000
0100
0000
0010
0000
1001
0000
0100
0000
0000
0000
,
0010
0000
1000
0001
0100
0000
0010
0000
1000
0000
0110
0000
0001
0000
0000
0000
,
1000
0100
0010
0001
0100
0010
1000
0000
,
0001
0010
1100
0000
0101
0010
1000
0000
,
0001
0000
0010
0001
0100
0000
0010
0000
1000
0000
1100
0000
0001
0000
0000
0000
,
0100
0000
0001
0010
0100
0000
1000
0000
0010
0000
0001
0000
0010
0000
1000
0000
,
0100
0010
0001
0100
0001
1000
0010
0000
,
0100
0001
0010
0001
0100
0000
0000
0000
1010
0000
0011
0000
1000
0000
0000
0000
,
0100
0000
1000
0001
0100
0000
0010
0000
1000
0000
0110
0000
0001
0000
0000
0000
,
0010
0000
0100
0010
0001
0000
1000
0000
0010
0000
1001
0000
0100
0000
0000
0000
,
0001
0010
0001
0100
1000
0010
0001
0000
,
0100
0010
0101
0000
1100
0010
0001
0000
,
1000
0000
0001
1000
0010
0000
0100
0000
0001
0000
1010
0000
0100
0000
0000
0000
,
0001
0000
0010
0100
1000
0000
0001
0000
0100
0000
0010
0000
1000
0000
0000
0000
,
1001
0000
0100
0001
1000
0000
0010
0000
0001
0000
0010
0000
0100
0000
0010
0000
,
0001
0010
1000
0100
0010
0001
0100
0010
,
0000
0000
1010
0000
0101
0000
1000
0000
0100
0000
0010
0001
0000
0010
0001
0000
,
0100
0000
1001
0000
0110
0000
1000
0000
0001
0000
0010
0100
0000
0010
0100
0000
,
1000
0000
0001
0100
0001
0000
0010
0000
1000
0000
0010
0000
0001
0000
0100
0000
,
0010
0001
0010
1000
0100
0010
0001
1000
,
0000
0000
0110
0000
1010
0000
0001
0000
1000
0000
0100
0010
0000
0010
0001
0000
,
0100
0000
1001
0000
1010
0000
0001
0000
1000
0000
0100
0010
0000
0010
0001
0000
,
0202
0000
0000
0000
,
0000
0000
0000
0303
;

//---------------dance-single - ----------------
#NOTES:
     dance-single:
     :
     Medium:
     9:
     0.419807,0.484135,0.418235,0.176099,0.033019,267.000000,229.000000,38.000000,16.000000,0.000000,0.000000,0.419807,0.484135,0.418235,0.176099,0.033019,267.000000,229.000000,38.000000,16.000000,0.000000,0.000000:
0000
0000
0000
0000
,
0000
0000
0000
0000
,
0000
0000
0000
0000
,
1000
0000
0010
0100
0000
0001
0000
0000
,
0010
0000
0100
1000
0000
0000
0000
0000
,
2002
0000
0003
0000
0001
0001
3001
0000
,
0010
1000
0001
1000
0100
0010
0001
0000
,
0100
0001
1000
0010
1000
0100
0001
0000
,
0000
0000
0010
0000
0010
0000
0001
0000
1000
0000
0000
0001
0000
0000
0100
0000
,
0000
0000
0010
0000
0010
0000
1000
0000
0001
0000
0000
1000
0000
0000
0100
0000
,
0110
0000
1001
0000
0100
0010
0000
1000
,
0000
0001
0000
1000
0000
0100
0100
0000
,
0000
0000
0010
0001
0010
0100
0000
1000
,
0000
0001
0000
1000
0000
0000
0000
0000
,
0000
0000
0101
0000
1000
0001
0000
1100
,
0000
0110
0000
0011
0000
0100
0010
1000
,
0000
0000
0001
0100
0001
0010
0000
0100
,
0000
1000
0010
0100
0001
1000
0001
0000
,
1001
0000
0110
0000
1000
0000
0010
0100
,
0000
0001
0000
0010
0000
0001
1000
0000
,
0002
0000
0103
0010
2000
0000
3000
0000
,
0000
0001
1000
0010
1000
0100
0010
0001
,
0101
0000
1100
0000
0010
0000
0001
1000
,
0000
0010
0000
1000
0100
0010
0001
0000
,
0200
0000
0310
1000
0002
0000
0003
0000
,
1000
0010
1000
0010
1000
0100
0001
0000
,
0011
1100
0101
1010
,
1001
0000
0110
0000
1000
1000
0000
0000
,
0002
0000
0103
0010
0000
0110
0000
0000
,
2000
0000
3100
0010
0000
0110
0000
0000
,
1001
0000
0101
0000
1000
0100
0001
0000
,
1000
0011
1100
0000
,
0020
0000
1030
0001
0000
1001
0000
0000
,
0200
0000
0310
1000
0000
0000
0000
0000
,
1100
0011
0101
1010
,
0110
0000
1001
0000
0100
0100
0000
0000
,
0002
0000
0013
0100
0000
1100
0000
0000
,
2000
0000
3010
0100
0000
0101
0000
0000
,
1001
0000
0110
0000
0001
0010
1000
0000
,
0100
1010
0101
0000
,
0020
0000
1030
0100
0000
0110
0000
0000
,
0002
0000
0103
0001
0000
0000
0000
0000
,
1000
0001
0010
0001
0100
0010
1000
0000
,
0100
0010
0001
0100
0001
0010
1000
0000
,
0000
0000
0100
0000
0100
0000
0010
0000
0001
0000
0000
1000
0000
0000
0001
0000
,
0000
0000
0010
0000
0010
0000
0100
0000
1000
0000
0000
0001
0000
0000
1000
0000
,
0001
0100
0010
1000
0100
0010
0001
0000
,
1000
0001
0010
0100
0010
0100
1000
0000
,
0000
0000
0001
0000
0001
0000
0100
0000
0010
0000
0000
1000
0000
0000
0100
0000
,
0000
0000
1000
0000
1000
0000
0010
0000
0100
0000
0000
0001
0000
0000
0010
0000
,
2002
0000
0000
0000
,
0000
0000
0000
3003
;

//---------------dance-single - ----------------
#NOTES:
     dance-single:
     :
     Easy:
     6:
     0.270438,0.341742,0.220124,0.187105,0.000000,172.000000,152.000000,20.000000,17.000000,0.000000,0.000000,0.270438,0.341742,0.220124,0.187105,0.000000,172.000000,152.000000,20.000000,17.000000,0.000000,0.000000:
0000
0000
0000
0000
,
0000
0000
0000
0000
,
0000
0000
0000
0000
,
1000
1000
1000
1000
,
0001
0001
0001
0001
,
2002
0000
0000
3003
,
0200
0300
0001
1000
,
0020
0030
0200
0300
,
0000
0001
0010
1000
,
0000
0100
1000
0001
,
0000
0100
0010
1000
,
0100
0100
0010
0001
,
0000
1000
0001
1000
,
0100
0010
0100
0000
,
0000
1000
0010
1000
,
0001
0001
0100
0010
,
0000
1000
0001
1000
,
0100
0010
0001
0001
,
0110
0110
0100
0010
,
1000
0001
1000
0010
,
2000
3000
0002
0003
,
0010
0001
0100
1000
,
1001
1001
0010
1000
,
0100
0010
0001
0100
,
0020
0030
0200
0300
,
0001
0001
1000
1000
,
0010
1000
0100
0001
,
1100
0101
1100
0000
,
0001
0010
1000
0110
,
1000
0010
0001
0000
,
0100
0001
0010
1000
,
0000
1001
0110
0000
,
1000
0010
1000
0110
,
0010
0001
0001
0000
,
0100
1000
0010
0001
,
0101
1100
0101
0000
,
0010
1000
0100
1001
,
0010
0001
0100
0000
,
0001
0010
1000
0100
,
0000
1001
0110
0000
,
1000
0010
1000
0110
,
0001
1000
0010
0000
,
2000
3000
0100
0010
,
0002
0003
2000
3000
,
0000
0010
1000
0001
,
0000
1000
0100
0010
,
0002
0003
0010
0001
,
0200
0300
0020
0030
,
0000
1000
0100
0001
,
0000
0010
0001
0100
,
2020
0000
0000
0000
,
0000
0000
0000
3030
;

//---------------dance-single - ----------------
#NOTES:
     dance-single:
     :
     Beginner:
     2:
     0.138363,0.220124,0.110062,0.088049,0.000000,88.000000,78.000000,10.000000,8.000000,0.000000,0.000000,0.138363,0.220124,0.110062,0.088049,0.000000,88.000000,78.000000,10.000000,8.000000,0.000000,0.000000:
// measure 0
0000
0000
0000
0000
,  // measure 1
0000
0000
0000
0000
,  // measure 2
0000
0000
0000
0000
,  // measure 3
1000
0000
0000
0000
,  // measure 4
0001
0000
0000
0000
,  // measure 5
1001
0000
0000
0000
,  // measure 6
0010
0000
0010
0000
,  // measure 7
0100
0000
0100
0000
,  // measure 8
0000
0001
0001
0000
,  // measure 9
0000
1000
1000
0000
,  // measure 10
0000
0000
0010
0000
,  // measure 11
1000
0000
0100
0000
,  // measure 12
0000
0000
0010
0000
,  // measure 13
0001
0000
0100
0000
,  // measure 14
0000
0000
0001
0000
,  // measure 15
1000
0000
0001
0000
,  // measure 16
0000
0000
0100
0000
,  // measure 17
0010
0000
1000
0000
,  // measure 18
0000
0001
0001
0000
,  // measure 19
0010
0000
0100
0000
,  // measure 20
1000
0000
1000
0000
,  // measure 21
0000
0000
0000
0000
,  // measure 22
0000
0010
0010
0000
,  // measure 23
1000
0000
0001
0000
,  // measure 24
0100
0000
0100
0000
,  // measure 25
0000
0000
0000
0000
,  // measure 26
0110
0000
1001
0000
,  // measure 27
0100
0100
0100
0000
,  // measure 28
0002
0000
0003
0000
,  // measure 29
2000
0000
3000
0000
,  // measure 30
1001
0000
0110
0000
,  // measure 31
0000
1000
1000
0000
,  // measure 32
0020
0000
0030
0000
,  // measure 33
0200
0000
0300
0000
,  // measure 34
0110
0000
1001
0000
,  // measure 35
0010
0010
0010
0000
,  // measure 36
2000
0000
3000
0000
,  // measure 37
0200
0000
0300
0000
,  // measure 38
1001
0000
0110
0000
,  // measure 39
0000
0001
0001
0000
,  // measure 40
0020
0000
0030
0000
,  // measure 41
0002
0000
0003
0000
,  // measure 42
1000
0000
1000
0000
,  // measure 43
0001
0000
0001
0000
,  // measure 44
0000
0100
0100
0000
,  // measure 45
0000
0010
0010
0000
,  // measure 46
1000
0000
1000
0000
,  // measure 47
0010
0000
0010
0000
,  // measure 48
0000
0100
0100
0000
,  // measure 49
0000
0001
0001
0000
,  // measure 50
0110
0000
0000
0000
;
