#TITLE:0/1 ANGEL;
#ARTIST:V.C.O. Featuring Alt;
#BANNER:01 ANGEL-bn.png;
#BACKGROUND:01 ANGEL-bg.png;
#JACKET:01 ANGEL-jacket.png;
#MUSIC:01 ANGEL.ogg;
#SAMPLESTART:44.572;
#SAMPLELENGTH:20;
#DISPLAYBPM:140;
#BPMS:0=140;
#BGCHANGES:;

//---------------dance-single - ----------------
#NOTES:
     dance-single:
     :
     Beginner:
     3:
     :
0000
0000
0000
0000
,
0000
0000
0000
0000
,
0000
0000
0000
0000
,
0000
0000
0000
0000
,
0010
0000
0000
0000
,
1000
0000
0000
0000
,
0001
0000
0000
0000
,
1000
0000
0100
0000
,
1000
0000
0000
0000
,
0100
0000
0000
0000
,
0010
0000
0000
0000
,
0001
0000
0010
0000
,
0100
0000
0000
0000
,
0100
0000
0000
0000
,
1000
0000
0000
0000
,
1000
0000
0001
0000
,
0100
0000
0100
0000
,
0010
0000
0010
0000
,
2000
0000
0000
0000
,
0000
0000
3000
0000
,
0001
0000
0001
0000
,
1000
0000
1000
0000
,
0020
0000
0000
0000
,
0030
0000
0100
0000
,
0002
0000
0003
0000
,
0200
0000
0300
0000
,
0010
0010
0010
0000
,
1000
0000
0001
0000
,
1000
0000
0100
0000
,
0010
0000
0001
0000
,
0100
0100
0100
0000
,
0001
0000
0010
0000
,
0001
0000
0100
0000
,
0010
0000
1000
0000
,
0001
0001
0001
0000
,
1000
0000
0001
0000
,
0010
0000
0100
0000
,
0010
0000
0001
0000
,
1000
0000
0000
0001
,
0000
0000
0000
0000
,
0100
0000
0000
0010
,
0000
0000
0000
0100
,
0100
0000
0000
0000
,
0001
0000
1000
0000
,
0001
0000
0010
0000
,
0100
0000
1000
0000
,
0010
0000
0010
0000
,
1000
0000
0100
0000
,
0100
0000
0010
0000
,
0001
0000
1000
0000
,
0100
0000
0000
0000
;

//---------------dance-single - ----------------
#NOTES:
     dance-single:
     :
     Easy:
     7:
     :
0000
0000
0000
0000
,
0000
0000
0000
0000
,
0000
0000
0000
0000
,
0000
0000
0000
0000
,
0010
0000
1000
0001
,
0100
0000
0001
0010
,
0001
0000
1000
0100
,
1000
0010
0100
0001
,
0010
0000
0100
1000
,
0001
0000
1000
0010
,
1000
0000
0001
0010
,
0100
1000
0010
1000
,
0001
0000
1000
0100
,
1000
0000
0010
0100
,
0001
0000
0010
0100
,
0010
0100
1000
0001
,
0100
0010
0100
0010
,
1000
0100
1000
0001
,
0200
0000
0010
0010
,
1000
0001
1000
0301
,
1000
0100
1000
0100
,
0010
0001
0100
0001
,
0020
0000
0100
0000
,
1000
1000
0001
0130
,
0002
0000
0100
0000
,
2000
3003
0010
0100
,
0110
0001
0010
1000
,
0100
1000
0010
0100
,
0001
0001
1000
1000
,
0001
0100
1000
0000
,
1001
0010
1000
0001
,
1000
0100
0010
0001
,
0100
0100
0010
0010
,
0100
0001
1000
0010
,
0110
1000
0100
0010
,
1000
0100
1000
0001
,
1000
1000
0001
0001
,
0010
0001
0100
0010
,
2000
0000
0000
3002
0000
0000
0203
0000
,
0010
0010
1000
0301
,
2000
0000
0000
3002
0000
0000
0023
0000
,
0000
0000
0100
0000
0030
0000
0100
0010
,
0001
0100
0010
1000
,
0100
1000
0010
0100
,
1000
0100
0010
0100
,
0001
0010
0001
1000
,
1001
0000
0010
1000
,
0100
0000
1000
0010
,
1000
0001
0010
0001
,
0100
0010
1000
0001
,
0100
0000
0000
0000
;

//---------------dance-single - ----------------
#NOTES:
     dance-single:
     :
     Medium:
     10:
     :
0000
0000
0000
0000
,
0000
0000
0000
0000
,
0000
0000
0000
0000
,
0000
0000
0000
0000
,
0010
0000
1000
0002
0000
0013
0001
0100
,
0010
0000
1000
0200
0000
1300
0001
0010
,
0100
0000
1000
0002
0000
1003
0010
0100
,
0002
0000
0013
0100
0000
1000
0001
1000
,
0001
0000
0100
0010
1000
0001
0010
0100
,
1000
0000
0001
0010
0001
1000
0100
0010
,
0100
0000
1000
0002
0000
0013
0100
1000
,
0020
0000
1030
0001
0000
1000
0001
0100
,
0001
0000
0010
0001
0100
0010
1000
0001
,
1000
0000
0010
1000
0100
0010
0001
0100
,
0001
0000
1000
0010
1000
0001
0010
0100
,
0010
0000
0001
1000
0000
1000
0100
0000
,
2000
3020
0230
0302
,
0013
0100
0000
1000
0000
0001
0100
0001
,
0010
0100
1000
0000
0001
0100
1000
0000
,
0020
0000
2030
0000
3001
0100
1000
0000
,
0002
0023
0230
2300
,
3010
1000
0000
0100
0000
1000
0001
0010
,
0100
1000
0001
1000
0020
0000
0230
0000
,
0301
0010
0001
0100
1000
0002
0000
2003
,
0000
3010
1000
0000
0100
1000
0001
0200
,
0000
0000
0000
0000
0000
0000
0310
0000
0000
0010
0000
0000
1000
0000
0001
0000
,
2000
0000
3100
0010
0002
0000
1003
0001
,
0000
1000
0100
0000
1000
0000
0010
0100
,
0010
1000
0001
0000
0011
0000
0100
1000
,
0001
1000
0010
0100
0002
0000
2003
0000
,
3200
0000
1300
0001
0200
0000
0310
1000
,
0000
0001
0010
0000
0001
0000
0100
0010
,
1000
0100
0001
0000
1010
0000
0100
0010
,
1000
0001
0010
0100
2000
0000
3001
1000
,
0020
0000
1030
0100
2000
0000
3001
0010
,
0000
0100
1000
0000
0010
0000
1000
0001
,
1000
0100
0010
0000
1001
0000
0100
0001
,
0100
0010
1000
0001
0000
0001
0010
0000
,
2100
0000
3001
0200
0000
0310
2000
0000
,
0001
0000
0100
0000
3001
1000
0010
0000
,
0201
0000
0310
2000
0000
3001
0200
0000
,
1000
0000
0001
0000
0310
0000
0100
0010
,
1000
0100
0010
0001
0100
0010
1000
0000
,
0010
1000
0001
0010
0001
0100
1000
0000
,
0001
0010
0100
0010
0001
0100
1000
0000
,
0100
1000
0010
1000
0100
0010
0001
0000
,
0110
0000
0001
0100
0001
0010
1000
0100
,
0010
0001
0100
0001
1000
0100
0010
0000
,
0001
0010
0001
0100
1000
0010
1000
0000
,
0001
1000
0100
0010
0001
1000
0001
0010
,
0100
0000
0000
0000
;

//---------------dance-single - ----------------
#NOTES:
     dance-single:
     :
     Hard:
     13:
     :
0000
0000
0000
0000
,
0000
0000
0000
0000
,
0000
0000
0000
0000
,
0000
0000
0000
0000
,
0010
0000
1000
0100
1000
0000
0002
0000
0000
0000
0013
0000
0001
0000
0100
0000
,
0010
0000
1000
0001
1000
0000
0200
0000
0000
0000
0310
0000
0001
0000
0100
0000
,
0001
0010
0100
2000
0000
3010
1000
0001
,
1000
0000
0100
0000
0010
0000
0002
0000
0000
0000
0103
0000
0010
1000
0010
1000
,
0010
0000
0100
0001
0100
0000
0010
0000
1000
0000
0100
0000
1000
0000
0001
0000
,
0010
0000
0001
0100
0001
0000
1000
0000
0010
0000
0100
0000
0001
0000
1000
0000
,
0100
0000
0010
0001
0010
0000
0100
0000
1000
0000
0001
0000
0010
0000
0100
0000
,
1000
0000
0100
0000
0001
0000
0010
0000
0000
0000
0100
0000
1000
0001
1000
0001
,
1000
0010
0100
0001
0010
0100
1000
0001
,
1000
0000
0010
0100
0010
0000
1000
0000
0001
0000
0010
0000
0001
0000
0100
0000
,
1000
0000
0001
0010
0001
0000
0100
0000
0010
0000
1000
0000
0100
0000
1000
0000
,
0001
0010
0001
0100
0000
1000
0010
0000
,
0200
0000
0000
0000
0302
0000
0000
0000
1003
0010
0000
0100
0001
0000
0000
0000
,
0010
0100
1000
0001
0000
1000
0010
0001
,
0100
0000
0010
0000
2000
0000
0000
0000
3001
0000
0100
0010
0200
0000
0000
0000
,
0302
0000
0000
0000
1003
0000
0000
0010
1000
0020
0000
0000
0130
0000
0001
0000
,
0020
0000
0000
0000
0230
0000
0000
0000
1300
0000
0001
0100
0001
0000
0000
1000
,
0001
0010
0001
0100
0000
1000
0010
0100
,
0001
0010
0001
0100
1000
0010
1000
0001
,
0100
0010
1000
0001
0100
0020
0000
2030
,
0000
3100
0010
0001
1000
0001
0100
0010
,
0000
0000
1000
0000
0001
0000
1000
0100
0000
0100
0010
0000
0001
0000
1000
0000
,
1020
0000
0130
0001
2000
0000
3100
0010
,
0001
0000
0100
0000
2000
0000
0000
0000
3001
0010
0000
0100
1000
0000
0001
0000
,
0100
0000
0010
0000
1000
0000
0001
0010
0002
0000
0000
0000
0103
0000
0010
0000
,
1000
0000
0001
0000
0010
0000
0100
0000
1000
0010
1000
0000
0001
0000
0000
0100
,
0020
0000
1030
0001
0020
0000
0130
1000
,
0010
0000
1000
0000
0002
0000
0000
0103
0010
0100
0000
0000
0001
0000
1000
0000
,
0100
0000
0010
0000
0001
0000
1000
0100
2000
0000
0000
0000
3010
0000
0100
0000
,
0010
0000
1000
0000
0001
0000
0010
0100
0010
0000
0001
0000
1000
0000
0100
0000
,
1200
0000
0310
0100
2000
0000
3001
0100
,
0001
0000
0010
0000
2000
0000
0000
0000
3100
0010
0000
0010
0001
0000
1000
0000
,
0001
0000
0010
0000
0001
1000
0000
1000
0020
0000
0000
0000
0130
0000
0001
0000
,
0010
0000
0100
0000
1000
0000
0010
0000
1000
0000
0001
0000
0100
0000
0000
0010
,
1000
0100
0001
0010
0001
0100
2000
0000
,
3010
0000
0100
0000
0001
0000
0000
1000
0100
0000
0000
1000
0001
0000
0100
0000
,
0010
1000
0001
0010
0001
1000
0200
0000
,
1300
0000
0001
0000
0010
0001
0000
0000
1000
0010
0000
0000
0100
0000
0001
0000
,
0010
0000
0100
0000
1000
0000
0001
0100
0001
0100
0001
0000
0010
0000
0100
0000
,
1000
0000
0001
0010
0001
0000
0100
0000
0010
1000
0010
0000
0100
0000
0001
0000
,
1000
0000
0001
0010
0001
0000
1000
0000
0100
0010
0100
0000
1000
0000
0001
0000
,
0100
0000
0010
0000
1000
0000
0001
0000
0010
0100
0010
0100
0010
0000
0001
0000
,
1000
0000
0010
0100
0010
0000
1000
0000
0001
0010
0000
0100
1000
0000
0001
0000
,
0100
0000
0010
0000
1000
0000
0001
0000
1000
0100
1000
0100
1000
0000
0010
0000
,
0100
0000
0001
0010
0001
0000
1000
0000
0010
0100
0010
0100
0010
0000
1000
0000
,
0100
0000
0010
0000
0001
0000
1000
0000
0010
0100
0010
0100
0001
1000
0001
1000
,
0100
0000
0000
0000
;
