#TITLE:What Doesn't Kill You Makes You Stronger;
#SUBTITLE:;
#ARTIST:Natalia;
#TITLETRANSLIT:;
#SUBTITLETRANSLIT:;
#ARTISTTRANSLIT:;
#GENRE:;
#CREDIT:;
#MUSIC:What Doesn't Kill You Makes You Stronger.mp3;
#BANNER:;
#BACKGROUND:;
#CDTITLE:;
#SAMPLESTART:42.000;
#SAMPLELENGTH:12.000;
#SELECTABLE:YES;
#OFFSET:1.667;
#BPMS:0.000=116.000;
#STOPS:84.000=1.552
,193.000=1.552
;
#BGCHANGES:;
#FGCHANGES:;

//--------------- dance-single - RaverAce ----------------
#NOTES:
     dance-single:
     RaverAce:
     Beginner:
     2:
     0,0,0,0,0:
0000
0000
0000
0000
,
0000
0000
0000
0000
,
0000
0000
0000
0000
,
0000
0000
0000
0000
,
0000
0000
0000
0000
,
0001
0000
0000
0000
,
0001
0000
0000
0000
,
1000
0000
0000
0000
,
1000
0000
0000
0000
,
0010
0000
0000
0000
,
0010
0000
0000
0000
,
0100
0000
0000
0000
,
0100
0000
0000
0000
,
1001
0000
0000
0000
,
0100
0000
0000
0000
,
0010
0000
0000
0000
,
0100
0000
0000
0000
,
1000
0000
0000
0000
,
0001
0000
0000
0000
,
1000
0000
0000
0000
,
0001
0000
0000
0000
,
0010
1001
0000
0100
,
0000
0010
0000
0100
,
0000
0001
0000
1000
,
0000
0001
0000
1000
,
0000
1001
0000
0001
,
0000
1000
0000
0001
,
0000
0010
0000
0100
,
0000
0010
0000
0100
,
0000
1001
0000
1000
,
0000
0010
0000
0100
,
0000
0001
0000
1000
,
0000
0100
0000
1000
,
0000
1001
0000
0001
,
0000
0100
0000
1000
,
0000
0100
0000
0001
,
0000
1000
0000
0001
,
0000
1000
0000
1000
,
0000
1000
0000
1000
,
0000
1000
0000
1000
,
0000
0100
0000
0010
,
0000
0001
0000
0001
,
0000
0001
0000
0001
,
0000
0001
0000
0001
,
0000
0100
0000
0010
,
0000
1001
0000
0000
,
0000
0100
0000
0000
,
0000
0010
0000
0001
,
0000
1000
1001
0000
,
0100
0000
0010
0000
,
0100
0000
0001
0000
,
1000
0000
0001
0000
,
1000
0000
1001
0000
,
0001
0000
1000
0000
,
0001
0000
0010
0000
,
0100
0000
0010
0000
,
0100
0000
1001
0000
;

//--------------- dance-single - RaverAce ----------------
#NOTES:
     dance-single:
     RaverAce:
     Easy:
     5:
     0,0,0,0,0:
0000
0000
0000
0000
,
0000
0000
0000
0000
,
0000
0000
0000
0000
,
0000
0000
0000
0000
,
0000
0000
0000
0000
,
1000
0000
1000
0000
,
0100
0000
0100
0000
,
1000
0000
0010
0000
,
0100
0000
0001
1000
,
0001
0000
0001
0000
,
0100
0000
0100
0000
,
0001
0000
0010
0000
,
0100
0000
1000
0001
,
1001
1000
0010
0000
,
1000
0001
0010
0000
,
0001
1000
0100
0000
,
1000
0001
0100
0001
,
1000
0001
0010
0000
,
0001
1000
0010
0000
,
1000
0001
0100
0000
,
0001
1000
0100
1000
,
0002
0003
1001
0000
1000
0000
0010
0000
,
0100
0001
0001
0010
,
0100
1000
0010
0100
,
0001
0100
1000
0100
,
0001
1001
1000
0100
,
0010
0001
0001
0100
,
0010
1000
0100
0010
,
0001
0010
1000
0010
,
0001
0101
0100
0010
,
0100
0001
0010
1000
,
0010
0100
1000
0010
,
0100
0001
1000
0100
,
1000
1001
0001
0100
,
0010
0100
0100
0001
,
1000
0100
0001
0100
,
0010
0001
0100
0010
,
1000
0001
0000
0001
,
0000
1000
0000
1000
,
0010
0100
0000
0100
,
0001
1000
0100
0010
,
0001
1000
0000
1000
,
0000
0001
0000
0001
,
0010
0100
0000
0100
,
1000
0001
0100
0010
,
1000
1001
0001
0100
,
0001
1000
0100
1000
,
0010
1000
0001
0100
,
0001
0000
2000
3000
1001
0000
0001
0000
,
0010
0100
1000
1000
,
0010
0100
0001
0010
,
0100
1000
0100
0001
,
0100
1000
1001
0001
,
0100
0010
1000
1000
,
0100
0010
0001
0100
,
0010
1000
0010
0001
,
0010
1000
1001
0000
;

//--------------- dance-single - RaverAce ----------------
#NOTES:
     dance-single:
     RaverAce:
     Medium:
     8:
     0,0,0,0,0:
0000
0000
0000
0000
,
0000
0000
0000
0000
,
0000
0000
0000
0000
,
0000
0000
0000
0000
,
0000
0000
0000
0000
,
0001
0100
0001
0010
,
0001
0100
0010
1000
,
0010
0100
0001
1000
,
0100
0000
0001
0000
0100
0000
1000
0001
,
1000
0100
1000
0010
,
1000
0100
0010
0001
,
0010
0100
1000
0001
,
0100
0000
1000
0000
0100
0000
0001
1000
,
1001
0000
0001
0000
0100
0001
1000
0000
,
0010
0000
1000
0000
0100
1000
0001
0000
,
0010
0000
0100
0000
1000
0000
0010
0100
,
0001
0000
1000
0000
0001
0100
1000
0100
,
0001
0000
1000
0000
0100
1000
0001
0000
,
0010
0000
0001
0000
0100
0001
1000
0000
,
0010
0000
0100
0000
0001
0000
0010
0100
,
1000
0000
0001
0000
1000
0100
0001
0100
,
2000
3000
1002
0000
0103
0000
0001
1000
,
0010
1000
0002
0000
0013
0000
0001
0100
,
0010
1000
0200
0000
1300
0010
0100
0001
,
1000
0000
0100
1000
0100
0010
0100
1000
,
0010
1000
2001
0000
3100
0000
1000
0001
,
0010
0001
2000
0000
3010
0000
1000
0100
,
0010
0001
0200
0000
0301
0010
0100
1000
,
0001
0000
0100
0001
0100
0010
1000
0001
,
0010
0001
1002
0000
0010
0000
0203
0000
,
0301
0020
0000
0000
0130
0000
0010
0000
,
0001
0000
2000
0000
3001
2000
0000
3010
,
1000
0100
1000
0001
0010
0001
1000
0001
,
0010
0001
0201
0000
0310
0000
0010
0100
,
0001
1000
0200
0000
0310
0000
0010
0100
,
1000
0001
0100
0000
0001
1000
0100
0010
,
0001
0000
1000
0001
1000
0001
1000
0001
,
1000
0001
0100
1000
,
0100
0010
1000
0001
,
0010
1000
0010
0100
,
1000
0010
0100
0001
,
1000
0001
1000
0000
0100
0000
0001
0000
,
0100
0010
0001
1000
,
0010
0001
0010
0100
,
0001
0010
0100
1000
,
0001
1000
1001
0000
0001
0000
0100
0001
,
0010
0000
0100
0000
0010
0000
0001
1000
,
0100
1000
0010
0100
,
0010
1000
0002
0003
2001
0000
3100
0000
,
1000
0001
0010
0001
2000
0000
3010
0000
,
1000
0100
0010
0001
0200
0000
0301
0010
,
0100
1000
0001
0000
0100
0001
0100
0010
,
0100
0001
0010
0001
1002
0000
0103
0000
,
0001
1000
0010
1000
0002
0000
0013
0000
,
0001
0100
0010
1000
0200
0000
1300
0010
,
0100
0001
1000
0000
0100
1000
0100
0010
,
0001
1000
0010
1000
1001
0000
0000
0000
;

//--------------- dance-single - RaverAce ----------------
#NOTES:
     dance-single:
     RaverAce:
     Hard:
     11:
     0,0,0,0,0:
0000
0000
0000
0000
,
0000
0000
0000
0000
,
0000
0000
0000
0000
,
0000
0000
0000
0000
,
0000
0000
0000
0000
,
1000
0100
1000
0010
1000
0200
0000
1000
,
0000
0010
0000
1000
0000
0010
0000
1300
,
0001
0020
0000
1000
0000
0100
0000
0001
,
0000
0001
0000
0100
0000
0001
0000
1030
,
0001
0100
0001
0010
0001
0200
0000
0001
,
0000
0010
0000
0001
0000
0010
0000
0301
,
2000
0000
3100
0020
0000
0032
0000
1003
,
0010
0100
0010
0001
0010
1000
0001
0000
,
1001
0000
1000
0100
1000
0000
0010
0000
0100
0000
0001
0000
0010
0000
0000
0000
,
0001
0000
1000
0010
1000
0000
0001
0000
0010
0000
0100
0000
0010
0000
0000
0000
,
0001
0000
0100
0010
0100
0000
0001
0000
1000
0000
0100
0000
0001
0000
0000
0000
,
0001
0100
2000
0000
0010
0000
3001
0000
,
1001
0000
0001
0100
0001
0000
0010
0000
0100
0000
1000
0000
0010
0000
0000
0000
,
1000
0000
0001
0010
0001
0000
1000
0000
0010
0000
0100
0000
0010
0000
0001
0000
,
0010
0000
0100
0010
0100
0000
0001
0000
1000
0000
0100
0000
0010
0000
0001
0000
,
0200
0000
2300
0000
3100
0001
0010
0002
,
2000
3003
1020
0000
0001
0000
0031
0010
,
0100
0001
0020
0000
1000
0000
1030
0010
,
0100
1000
0002
0000
0103
1000
0100
0010
,
1000
0100
1000
0010
0001
1000
0100
0001
,
1000
0001
0021
0000
1000
0000
1030
0010
,
0100
1000
0020
0000
0001
0000
0031
0010
,
0100
0001
2000
0000
3100
0001
0100
0010
,
0001
0100
0001
0010
1000
0001
0100
1000
,
0001
0000
0010
0100
2000
0000
0000
0000
0100
0000
0000
0000
3010
0000
1000
0000
,
0001
0000
0100
0001
0020
0000
0000
0000
0031
0000
0000
0000
0001
0000
1000
0000
,
0010
0000
1000
0100
1000
0010
1000
0100
,
1000
0000
0010
0100
0001
0000
1000
0000
0001
0000
0100
0000
1000
0000
0001
0000
,
0010
1000
0200
0000
0001
0000
0301
0100
,
1000
0010
0200
0000
1000
0000
1300
0100
,
0010
1000
0002
0000
0013
1000
0010
0100
,
1000
0010
0100
0001
0100
0010
0100
0001
,
0010
0000
0001
1000
0001
0000
0100
0000
0001
0000
0010
0000
0001
0000
0100
0000
,
0001
1000
0001
0010
0001
1000
0001
0010
,
0001
0000
1000
0100
1000
0010
0100
0001
,
0010
0000
0100
1000
0001
0000
0100
0000
0010
0000
1000
0000
0010
0000
0100
0000
,
0001
0000
1000
0100
1000
0010
1000
0100
,
1000
0001
1000
0010
1000
0001
1000
0010
,
1000
0000
0001
0100
0001
0010
0100
1000
,
0010
0000
0100
0010
0100
0000
0001
0000
1000
0000
0001
0000
0010
0000
0100
0000
,
1000
0000
1001
0001
0100
1000
0100
0010
,
1000
0000
0001
1000
0100
0001
0100
0010
,
0001
0000
1000
0010
0001
0010
0100
0010
,
1000
0002
2000
3003
0021
0000
1000
0000
,
1030
0010
0100
1000
0020
0000
0001
0000
,
0031
0010
0100
0001
2000
0000
3100
0001
,
0100
0010
0001
0100
0001
0010
1000
0001
,
0100
1000
0001
1000
1020
0000
0001
0000
,
0031
0010
0100
0001
0020
0000
1000
0000
,
1030
0010
0100
1000
0002
0000
0103
1000
,
0100
0010
1000
0100
1000
0010
0001
1000
,
0100
0000
0001
0000
1000
0000
0001
1000
0001
0000
0000
0000
0000
0000
0000
0000
;
