#TITLE:Walk Like An Egyptian;
#SUBTITLE:;
#ARTIST:The Bangles;
#TITLETRANSLIT:;
#SUBTITLETRANSLIT:;
#ARTISTTRANSLIT:;
#GENRE:;
#CREDIT:;
#BANNER:;
#BACKGROUND:;
#LYRICSPATH:;
#CDTITLE:;
#MUSIC:Walk Like An Egyptian.mp3;
#OFFSET:0.031;
#SAMPLESTART:47.386;
#SAMPLELENGTH:12.000;
#SELECTABLE:YES;
#BPMS:0.000=206.000,195.000=210.440,196.000=206.000,258.000=207.840,259.000=206.000;
#DISPLAYBPM:206;
#STOPS:;
#BGCHANGES:0.031=Walk Like An Egyptian.mp4=1.000=1=0=0=StretchNoLoop==CrossFade==,;
#KEYSOUNDS:;

//---------------dance-single - J. Frederick----------------
#NOTES:
     dance-single:
     J. Frederick:
     Beginner:
     1:
     0.062,0.000,0.045,0.000,0.000: // measure 1
0000
0000
0000
0000
,  // measure 2
0000
0000
0000
0000
,  // measure 3
0000
0000
0000
0000
,  // measure 4
0000
0000
0000
0000
,  // measure 5
0000
0000
0000
1000
,  // measure 6
0000
0000
0000
0000
,  // measure 7
0000
0000
0000
0001
,  // measure 8
0000
0000
0000
0000
,  // measure 9
0000
0000
0000
0010
,  // measure 10
0000
0000
0000
0000
,  // measure 11
0000
0000
0000
0100
,  // measure 12
0000
0000
0000
0000
,  // measure 13
0000
0000
0000
1001
,  // measure 14
0000
0000
0000
0000
,  // measure 15
0000
0000
0000
0100
,  // measure 16
0000
0000
0000
0000
,  // measure 17
0000
0000
0000
0010
,  // measure 18
0000
0000
0000
0000
,  // measure 19
0000
0000
0000
1000
,  // measure 20
0000
0000
0000
0000
,  // measure 21
0000
0000
0000
0001
,  // measure 22
0000
0000
0000
0000
,  // measure 23
0000
0000
0000
0010
,  // measure 24
0000
0000
0000
0000
,  // measure 25
0000
0000
0000
0001
,  // measure 26
0000
0000
0000
0000
,  // measure 27
0000
0000
0000
1000
,  // measure 28
0000
0000
0000
0000
,  // measure 29
0000
0000
0000
0010
,  // measure 30
0000
0000
0000
0010
,  // measure 31
0000
0000
0000
0010
,  // measure 32
0000
0000
0000
0000
,  // measure 33
0000
0000
0000
0100
,  // measure 34
0000
0000
0000
0000
,  // measure 35
0000
0000
0000
0100
,  // measure 36
0000
0000
0000
0000
,  // measure 37
0000
0000
0000
0110
,  // measure 38
0000
0000
0000
0000
,  // measure 39
0000
0000
0000
0000
,  // measure 40
0000
0000
0000
0000
,  // measure 41
0000
0000
0000
1001
,  // measure 42
0000
0000
0000
0000
,  // measure 43
0000
0000
0000
1000
,  // measure 44
0000
0000
0000
0000
,  // measure 45
0000
0000
0000
0001
,  // measure 46
0000
0000
0000
0000
,  // measure 47
0000
0000
0000
0010
,  // measure 48
0000
0000
0000
0000
,  // measure 49
0000
0000
0000
0100
,  // measure 50
0000
0000
0000
0000
,  // measure 51
0000
0000
0000
1000
,  // measure 52
0000
0000
0000
0000
,  // measure 53
0000
0000
0000
0001
,  // measure 54
0000
0000
0000
0000
,  // measure 55
0000
0000
0000
0100
,  // measure 56
0000
0000
0000
0000
,  // measure 57
0000
0000
0000
0010
,  // measure 58
0000
0000
0000
0000
,  // measure 59
0000
0000
0000
1000
,  // measure 60
0000
0000
0000
0000
,  // measure 61
0000
0000
0000
0001
,  // measure 62
0000
0000
0000
0000
,  // measure 63
0000
0000
0000
0010
,  // measure 64
0000
0000
0000
0000
,  // measure 65
0000
0000
0000
0100
,  // measure 66
0000
0000
0000
0000
,  // measure 67
0000
0000
0000
1000
,  // measure 68
0000
0000
0000
0001
,  // measure 69
0000
0000
0000
1000
,  // measure 70
0000
0000
0000
0000
,  // measure 71
0000
0000
0000
0000
,  // measure 72
0000
0000
0000
0000
,  // measure 73
0000
0000
0000
1001
;

//---------------dance-single - J. Frederick----------------
#NOTES:
     dance-single:
     J. Frederick:
     Easy:
     4:
     0.216,0.000,0.034,0.112,0.000: // measure 1
0000
0000
0000
0000
,  // measure 2
0000
0000
0000
0000
,  // measure 3
0000
0000
0000
0000
,  // measure 4
0000
0000
0000
0000
,  // measure 5
0000
0000
0000
1000
,  // measure 6
0000
0001
0000
1000
,  // measure 7
0000
1000
0000
0001
,  // measure 8
0000
1000
0000
0001
,  // measure 9
0000
0000
0000
0100
,  // measure 10
0000
0010
0000
0100
,  // measure 11
0000
0100
0000
0010
,  // measure 12
0000
0100
0000
0010
,  // measure 13
0000
0000
0000
1000
,  // measure 14
0000
0001
0000
0010
,  // measure 15
0000
0100
0000
1000
,  // measure 16
0000
0001
0000
1000
,  // measure 17
0001
1000
0000
0001
,  // measure 18
0000
0100
0000
0010
,  // measure 19
0000
1000
0000
0001
,  // measure 20
0000
0010
0000
0100
,  // measure 21
0010
0100
0000
1000
,  // measure 22
0000
0001
0000
0100
,  // measure 23
0000
0010
0000
1000
,  // measure 24
0000
0001
0000
0010
,  // measure 25
0001
0010
0000
0100
,  // measure 26
0000
0010
0000
1000
,  // measure 27
0000
0001
1000
0001
,  // measure 28
0000
0010
0000
0100
,  // measure 29
0000
1000
0001
1000
,  // measure 30
0000
0001
0000
0100
,  // measure 31
0000
0010
0000
2000
,  // measure 32
0000
3000
0000
0002
,  // measure 33
0000
0003
0000
0200
,  // measure 34
0000
0000
0000
0020
,  // measure 35
0000
0000
0000
0000
,  // measure 36
0000
0000
0000
0000
,  // measure 37
0000
0000
0330
0110
,  // measure 38
0000
0000
0000
0000
,  // measure 39
0000
0000
0000
0000
,  // measure 40
0000
0000
0000
0000
,  // measure 41
0000
0000
0000
0001
,  // measure 42
0000
1000
0000
0100
,  // measure 43
0000
0100
0000
1000
,  // measure 44
0000
0001
0000
0100
,  // measure 45
0000
0000
0000
0001
,  // measure 46
0000
1000
0000
0010
,  // measure 47
0000
0010
0000
1000
,  // measure 48
0000
0001
0000
0010
,  // measure 49
0000
0000
0000
0100
,  // measure 50
0000
1000
0000
0001
,  // measure 51
0000
0100
0000
0010
,  // measure 52
0000
0100
0000
0001
,  // measure 53
0000
1000
0001
1000
,  // measure 54
0000
0100
0000
0010
,  // measure 55
0000
0001
0000
1000
,  // measure 56
0000
0001
0000
0100
,  // measure 57
0001
0100
0000
0010
,  // measure 58
0000
1000
0000
0001
,  // measure 59
0000
0010
0000
0100
,  // measure 60
0000
1000
0000
0001
,  // measure 61
1000
0001
0000
0100
,  // measure 62
0000
0010
0000
1000
,  // measure 63
0000
0001
1000
0100
,  // measure 64
0000
0010
0000
0001
,  // measure 65
0000
0100
0001
0100
,  // measure 66
0000
0010
0000
1000
,  // measure 67
0000
0001
1000
0002
,  // measure 68
0000
0003
0000
2000
,  // measure 69
0000
3000
0000
0020
,  // measure 70
0000
0000
0000
0200
,  // measure 71
0000
0000
0000
0000
,  // measure 72
0000
0000
0000
0000
,  // measure 73
0000
0000
0330
2002
,  // measure 74
0000
0000
0000
0000
,  // measure 75
0000
0000
3003
1001
;

//---------------dance-single - J. Frederick----------------
#NOTES:
     dance-single:
     J. Frederick:
     Medium:
     7:
     0.430,0.000,0.078,0.146,0.000: // measure 1
0000
0000
0000
0000
,  // measure 2
0000
0000
0000
0000
,  // measure 3
0000
0000
0000
0000
,  // measure 4
0000
0000
0000
0000
,  // measure 5
0000
0000
0000
1000
,  // measure 6
0000
0001
0100
0010
,  // measure 7
1000
0001
0010
0100
,  // measure 8
0000
0010
0001
1000
,  // measure 9
0000
1001
1000
0001
,  // measure 10
0000
0100
0010
0100
,  // measure 11
0001
1000
0100
0010
,  // measure 12
0000
0001
0010
0100
,  // measure 13
1000
0001
0100
0010
,  // measure 14
1000
0001
0100
0001
,  // measure 15
0010
0001
0010
0000
0100
0000
1000
0000
,  // measure 16
0001
1000
0001
0000
0100
0000
0010
0000
,  // measure 17
1000
0100
1000
0000
0100
0000
0000
0000
,  // measure 18
0010
0000
0001
0000
1000
0001
1000
0000
,  // measure 19
0001
0100
0000
0100
0010
0000
1000
0000
,  // measure 20
0010
0100
0000
0100
0001
0000
0010
0000
,  // measure 21
0100
1000
0000
1000
0100
0000
0010
0000
,  // measure 22
0001
0100
0010
1000
,  // measure 23
0001
1000
0001
0000
0100
0000
0010
0000
,  // measure 24
0100
0010
0100
0000
0010
0000
1000
0000
,  // measure 25
0001
0010
0100
1000
,  // measure 26
0001
0100
0001
0000
0100
0000
0010
0000
,  // measure 27
1000
0010
1000
0000
0010
0000
0100
0000
,  // measure 28
0001
1000
0000
1000
0001
0000
0010
0000
,  // measure 29
0100
0010
0000
0010
0100
0000
0000
0000
,  // measure 30
0010
0100
1000
0001
,  // measure 31
0100
0010
1000
0002
,  // measure 32
0000
0203
0000
2300
,  // measure 33
0000
3200
0000
0302
,  // measure 34
0000
0000
0000
2000
,  // measure 35
0000
0000
0000
0000
,  // measure 36
0000
0000
0000
0000
,  // measure 37
0000
0000
3003
1001
,  // measure 38
1000
0000
0001
0000
0000
0001
0100
0000
,  // measure 39
0010
1000
0100
0010
,  // measure 40
0000
0000
0000
0000
,  // measure 41
0000
0000
0000
0110
,  // measure 42
0010
0100
1000
0001
,  // measure 43
0100
0010
1000
0100
,  // measure 44
1000
0010
0100
0001
,  // measure 45
1000
0100
0000
1100
,  // measure 46
1000
0100
0010
0001
,  // measure 47
0100
0010
0100
0001
,  // measure 48
0010
0100
1000
0001
,  // measure 49
0100
0010
0000
0110
,  // measure 50
0100
0010
1000
0001
,  // measure 51
0010
0001
0010
0000
0001
0000
0100
0000
,  // measure 52
0010
1000
0010
0000
1000
0000
0100
0000
,  // measure 53
1000
0001
1000
0000
0001
0000
0000
0000
,  // measure 54
0100
0001
0010
0100
,  // measure 55
1000
0001
0000
0001
0100
0000
0010
0000
,  // measure 56
1000
0100
1000
0010
,  // measure 57
0100
0001
1000
1001
,  // measure 58
1000
0001
0010
0001
,  // measure 59
0100
0001
0100
0000
0001
0000
0010
0000
,  // measure 60
0100
1000
0100
0000
1000
0000
0010
0000
,  // measure 61
0100
0010
0000
0010
0100
0000
0000
0000
,  // measure 62
0010
0100
0001
1000
,  // measure 63
0001
0010
0000
0010
0100
0000
0010
0000
,  // measure 64
0001
0100
0010
1000
,  // measure 65
0001
1000
0001
0000
1000
0000
0000
0000
,  // measure 66
0001
0100
0010
1000
,  // measure 67
0100
0010
0001
2000
,  // measure 68
0000
3200
0000
0302
,  // measure 69
0000
0203
0000
2300
,  // measure 70
0000
0000
0000
0010
,  // measure 71
0000
0002
0000
0000
,  // measure 72
0000
0000
0000
0000
,  // measure 73
0000
0000
0000
3003
0000
0000
1001
0000
,  // measure 74
1000
0000
0001
0000
0000
0001
0100
0000
,  // measure 75
0010
1000
0100
0020
,  // measure 76
0000
0030
0000
0000
;

//---------------dance-single - J. Frederick----------------
#NOTES:
     dance-single:
     J. Frederick:
     Hard:
     9:
     0.624,0.000,0.179,0.078,0.000: // measure 1
0000
0000
0000
0000
,  // measure 2
0000
0000
0000
0000
,  // measure 3
0000
0000
0000
0000
,  // measure 4
0000
0000
0000
0000
,  // measure 5
0000
0000
0000
0000
0000
0000
1000
0100
,  // measure 6
1000
0000
0001
0100
0001
0000
1000
0010
,  // measure 7
1000
0000
0001
0010
0001
0000
0010
0100
,  // measure 8
1000
0001
0100
0010
1000
0001
0100
0000
,  // measure 9
0010
0000
1001
0000
0000
0000
0001
0100
,  // measure 10
0001
0000
0010
0001
0010
0000
0100
1000
,  // measure 11
0100
0000
1000
0010
1000
0000
0010
0100
,  // measure 12
0001
1000
0100
0010
0001
0100
0010
1000
,  // measure 13
0001
1000
0001
1001
,  // measure 14
1000
0001
1000
0000
0001
0000
0100
0000
,  // measure 15
0010
1000
0000
1000
0100
0000
0010
0000
,  // measure 16
0001
0100
0000
0100
0001
0000
1000
0000
,  // measure 17
0001
0010
0000
0010
0100
0000
0110
0000
,  // measure 18
0100
0010
0100
0000
1000
0000
0001
0000
,  // measure 19
0100
0010
0000
0010
1000
0000
0001
0000
,  // measure 20
0010
0100
0000
1000
0001
0000
0100
0000
,  // measure 21
0010
1000
0000
0001
1000
0000
1001
0000
,  // measure 22
1000
0001
1000
0000
0001
0000
0100
0000
,  // measure 23
0001
0010
0000
0010
0001
0000
1000
0000
,  // measure 24
0100
1000
0000
1000
0100
0000
1000
0000
,  // measure 25
0001
0100
0000
0010
1000
0000
1010
0000
,  // measure 26
0010
1000
0010
0000
0100
0000
0001
0000
,  // measure 27
0010
0100
0000
0010
0001
0000
1001
0000
,  // measure 28
1000
0001
0000
0100
0010
0000
1000
0000
,  // measure 29
0001
0010
0000
0100
1000
0000
0001
0000
,  // measure 30
0100
0001
0100
0000
0010
0000
1000
0000
,  // measure 31
0100
1000
0100
0000
0010
0000
0002
0000
,  // measure 32
0000
0203
0000
2300
,  // measure 33
0000
3200
0000
0301
,  // measure 34
0010
0000
0100
1000
0001
0000
0100
0000
,  // measure 35
0010
2000
0000
3001
,  // measure 36
0100
0010
0000
0010
0100
0001
1000
0000
,  // measure 37
0100
0010
0000
0010
0100
1000
0001
0000
,  // measure 38
0100
0000
0010
0000
0000
1000
0001
0000
,  // measure 39
0100
0010
1000
1001
,  // measure 40
0000
0000
0000
0000
,  // measure 41
0000
0000
0000
1001
,  // measure 42
1000
0001
0100
0001
0010
0100
1000
0100
,  // measure 43
1000
0010
0100
0001
0010
0000
0011
0000
,  // measure 44
0010
0001
0100
0010
1000
0001
0100
0000
,  // measure 45
0010
0100
0001
1001
,  // measure 46
1000
0001
0100
0010
1000
0100
0010
0001
,  // measure 47
0010
0100
1000
0010
0100
0000
0110
0000
,  // measure 48
0010
0100
0010
1000
0001
0010
0100
1000
,  // measure 49
0001
0100
0010
0000
0100
0000
0110
0000
,  // measure 50
0100
0010
1000
0000
0010
0000
0100
0000
,  // measure 51
0001
0010
0000
0010
0100
0000
1000
0000
,  // measure 52
0001
0100
0000
0100
0010
0000
1000
0000
,  // measure 53
0001
0010
0000
0100
1000
0000
1001
0000
,  // measure 54
1000
0001
0100
0000
0010
0000
1000
0000
,  // measure 55
0001
0010
0000
0100
1000
0000
1100
0000
,  // measure 56
0100
1000
0000
1000
0010
0000
0100
0000
,  // measure 57
0001
0010
0000
0010
0001
0000
0100
0000
,  // measure 58
0001
0100
0010
1000
0001
0010
0100
0000
,  // measure 59
1000
0001
0000
0100
0010
0000
1000
0000
,  // measure 60
0001
0010
0000
0100
0010
0000
0001
0000
,  // measure 61
0100
0010
0000
1000
0100
0000
1000
0000
,  // measure 62
0010
0100
0001
1000
0100
0010
0001
0000
,  // measure 63
0100
0001
0000
1000
0010
0000
0100
0000
,  // measure 64
0010
1000
0000
0001
0100
0000
0001
0000
,  // measure 65
0010
0100
0000
1000
0001
0000
1001
0000
,  // measure 66
1000
0001
0100
0000
0010
0100
0001
0000
,  // measure 67
1000
0100
0000
0010
0001
0000
0100
0000
,  // measure 68
0010
1000
0100
0000
0010
0001
0100
0000
,  // measure 69
0010
1000
0100
0000
1000
0001
0100
0000
,  // measure 70
0001
1000
0010
0100
0001
1000
0100
0000
,  // measure 71
0010
0001
0010
0100
1000
0001
0100
0000
,  // measure 72
0001
0100
0010
1000
0100
0010
0100
0000
,  // measure 73
1000
0010
0100
0001
0010
0001
0100
0000
,  // measure 74
0010
0000
1000
0000
0000
0001
0100
0000
,  // measure 75
0010
1000
0001
2002
,  // measure 76
0000
3003
0000
0000
;
