#TITLE:VICTORY ROAD;
#SUBTITLE:;
#ARTIST:;
#TITLETRANSLIT:;
#SUBTITLETRANSLIT:;
#ARTISTTRANSLIT:;
#GENRE:;
#CREDIT:;
#MUSIC:VICTORY ROAD.ogg;
#BANNER:VICTORY ROAD-bn.png;
#BACKGROUND:;
#CDTITLE:;
#SAMPLESTART:0.000;
#SAMPLELENGTH:0.000;
#SELECTABLE:YES;
#OFFSET:0.011;
#BPMS:0.000=85.742;
#STOPS:;
#BGCHANGES:;
#FGCHANGES:;

//--------------- dance-single - ----------------
#NOTES:
     dance-single:
     :
     Easy:
     2:
     0,0,0,0,0:
0000
0000
0000
0000
,
0000
0000
0000
0000
,
0000
0000
0000
0001
0000
0000
0000
0000
,
1000
0100
0010
0001
,
1000
0000
0000
0100
0000
0000
0000
0000
,
0001
0010
0100
1000
,
0001
0000
0000
1000
0000
0000
0000
0000
,
0001
0010
0100
1000
,
0100
0000
0000
0000
,
0000
0000
0010
0100
,
1000
0000
0000
0010
0001
0000
0000
0000
0000
0000
0100
0000
1000
0000
0010
0000
,
0100
0000
0001
0000
1000
0001
0001
1000
,
0000
0100
0010
0001
0000
0001
0010
0100
,
0000
1000
0000
0000
0000
0000
0000
0000
,
0100
1000
0000
0010
0001
0000
0000
0000
0000
0000
0001
0000
0100
0000
1000
0000
,
0000
0100
0010
1000
0000
0000
0100
0110
,
0000
0001
1000
0000
0001
0010
0100
1000
,
0000
0001
0000
0000
0000
0000
0000
0000
,
0100
0000
0010
0000
0100
1000
0100
0010
,
0000
1000
0100
0000
0001
0010
0100
1000
,
0000
0100
0010
0001
0001
0010
0100
1000
,
0000
0000
0100
0000
,
1000
0000
0001
0000
1000
0000
0001
0001
,
0000
1000
0001
1000
0000
0001
1000
0001
,
0000
0000
1000
0000
0001
0000
0010
0100
1000
0000
0001
0000
1000
0000
0001
0000
,
0010
0100
1000
0000
0000
0000
0000
0000
,
0010
0000
0010
0000
0100
0000
0100
0010
,
0000
0010
0001
0010
0000
0100
1000
0100
,
0000
0001
0010
1000
0000
0100
0010
0100
,
0010
0100
1001
0000
0000
0000
0000
0000
,
0100
0010
0100
0010
,
0110
0000
0000
0000
;

//--------------- dance-single - ----------------
#NOTES:
     dance-single:
     :
     Medium:
     4:
     0,0,0,0,0:
0000
0000
0000
0000
,
0000
0000
0000
0000
,
0000
0000
0000
0001
0000
0000
0000
0000
,
1000
0100
0010
0101
,
1000
0000
0000
0100
0000
0000
0000
0000
,
0001
0010
0100
1010
,
0001
0000
0000
1000
0000
0000
0000
0000
,
0001
0010
0100
1001
,
0110
0000
0000
0000
,
0000
1010
0101
1001
,
0010
0000
0000
0001
1000
0000
0000
0000
0000
0000
0100
0000
1000
0000
0010
0000
,
0100
0000
0001
0000
1000
0001
0001
1000
,
0000
0100
0010
0001
0000
0001
0010
0100
,
0000
1100
0000
0000
0000
0000
0000
0000
,
0100
0000
0000
0010
0001
0000
0000
0000
0000
0000
0001
0000
0100
0000
1000
0000
,
0000
0100
0010
1000
0000
0000
0100
0110
,
0000
0001
1000
0000
0001
0010
0100
1000
,
0000
0011
0000
0000
0000
0000
0000
0000
,
0000
0001
0100
0000
1001
0100
0010
1001
,
0000
1000
0010
0000
1001
0010
0100
1001
,
0000
0100
0010
0000
0110
0001
1000
0110
,
0000
0000
1001
0000
,
1000
0000
0001
0000
0010
0000
0010
0001
,
0000
0100
0001
0001
0000
1000
1000
0001
,
0000
0000
0100
0000
1000
0000
1000
0001
0010
0000
1000
0000
0100
0000
1000
0000
,
1000
0010
1000
0000
0000
0000
0000
0000
,
0101
0000
0110
0000
1100
0000
0100
1001
,
0000
0010
1001
0010
0000
0101
1000
0110
,
0000
0001
1010
0001
0000
0100
1010
0100
,
0010
0101
1001
0000
0000
0000
0000
0000
,
1100
0101
1100
0011
,
1010
0000
0000
0000
;

//--------------- dance-single - ----------------
#NOTES:
     dance-single:
     :
     Hard:
     5:
     0,0,0,0,0:
0000
0000
0000
0000
,
0000
0000
0000
0000
,
0000
0000
0000
0001
0000
0000
0000
0000
,
1000
0100
0010
0001
,
1000
0000
0000
0100
0000
0000
0000
0000
,
0100
0010
0010
0001
,
0001
0000
0000
1000
0000
0000
0000
0000
,
0100
0010
0001
1000
,
0100
0000
0000
0000
,
0000
0000
0010
0100
,
1000
0000
0000
0010
0001
0000
0000
0000
0000
0000
0010
0000
0100
0000
0001
0000
,
0010
0000
0100
0000
0100
0001
0001
0010
,
0000
0100
1000
0001
0000
0100
0100
1000
,
0000
1000
0000
0000
0000
0000
0000
0000
,
0100
1000
0000
0010
0001
0000
0000
0000
0000
0000
0001
0000
0100
0000
1000
0000
,
0000
0100
0010
1000
0000
0000
0100
0110
,
0000
0001
1000
0000
0100
0100
0010
0110
,
0000
0001
0000
0000
0000
0000
0000
0000
,
0010
0000
1000
0000
0101
1001
0110
0011
,
0000
1000
0010
0000
0010
0100
1000
0001
,
0000
0100
0010
0100
0100
0010
0100
1000
,
0000
0000
0000
0000
0000
0000
0000
0000
0100
0000
0000
0000
0010
0000
0000
0001
,
0010
0000
0000
0001
0010
0000
0000
1000
0100
0000
0000
1000
0100
0000
0000
0001
,
0010
0000
0000
1000
0100
0000
0001
0000
0001
0000
0001
0000
0001
0000
0000
1000
,
0100
0000
0000
1000
0100
0000
0000
0001
0010
0000
0000
1000
0100
0000
0000
0001
,
0010
0000
0000
1000
0100
0000
1000
0000
1000
0000
1000
0000
1000
0000
0000
0010
,
0001
0000
0000
0010
0001
0000
0000
0100
1000
0000
0000
0100
1000
0000
0000
0010
,
0001
0000
0000
0010
0001
0000
0000
0100
1000
0000
0001
0000
0001
0000
0001
0000
,
0001
0000
0000
0010
0001
0000
0000
0100
1000
0000
0000
0010
0001
0000
0000
0100
,
1000
0000
0000
0010
0001
0000
0000
0100
1000
0000
0010
0000
1000
0000
1000
0000
,
0100
0001
0000
0000
0100
1000
0000
0000
0001
0010
0000
0000
0100
1000
0000
0000
,
0110
0000
0000
0000
;
