#TITLE:That's Not My Name;
#SUBTITLE:;
#ARTIST:The Ting Tings;
#TITLETRANSLIT:;
#SUBTITLETRANSLIT:;
#ARTISTTRANSLIT:;
#GENRE:;
#CREDIT:;
#BANNER:;
#BACKGROUND:;
#LYRICSPATH:;
#CDTITLE:;
#MUSIC:Thats Not My Name.mp3;
#OFFSET:-0.037;
#SAMPLESTART:54.666;
#SAMPLELENGTH:12.000;
#SELECTABLE:YES;
#BPMS:0.000=145.000;
#STOPS:;
#BGCHANGES:-0.037=Thats Not My Name.mp4=1.000=1=0=0=StretchNoLoop==CrossFade==,;
#KEYSOUNDS:;

//---------------dance-single - J. Frederick----------------
#NOTES:
     dance-single:
     J. Frederick:
     Beginner:
     1:
     0.093,0.000,0.054,0.000,0.000: // measure 1
0000
0000
0000
0000
,  // measure 2
0000
0000
0000
0000
,  // measure 3
0000
0000
0000
0000
,  // measure 4
0000
0000
0000
0000
,  // measure 5
0001
0000
0000
0000
,  // measure 6
1000
0000
0000
0000
,  // measure 7
0010
0000
0000
0000
,  // measure 8
0100
0000
0000
0000
,  // measure 9
0001
0000
0000
0000
,  // measure 10
0010
0000
0000
0000
,  // measure 11
0100
0000
0000
0000
,  // measure 12
1000
0000
0000
0000
,  // measure 13
0010
0000
0000
0000
,  // measure 14
0010
0000
0000
0000
,  // measure 15
0100
0000
0000
0000
,  // measure 16
0100
0000
0000
0000
,  // measure 17
0001
0000
0000
0000
,  // measure 18
1000
0000
0000
0000
,  // measure 19
0100
0000
0000
0000
,  // measure 20
0010
0000
0100
0000
,  // measure 21
0100
0000
0100
0000
,  // measure 22
0100
0000
1001
0000
,  // measure 23
0000
0000
0001
0000
,  // measure 24
0000
0000
0100
0000
,  // measure 25
0000
0000
0010
0000
,  // measure 26
0000
0000
1000
0000
,  // measure 27
0000
0000
0001
0000
,  // measure 28
0000
0000
0010
0000
,  // measure 29
0000
0000
0100
0000
,  // measure 30
0000
0000
0110
0000
,  // measure 31
0000
0000
1000
0000
,  // measure 32
0000
0000
0001
0000
,  // measure 33
0000
0000
0100
0000
,  // measure 34
0000
0000
0010
0000
,  // measure 35
0000
0000
1000
0000
,  // measure 36
0000
0000
0001
0000
,  // measure 37
0000
0000
0010
0000
,  // measure 38
0000
0000
0110
0000
,  // measure 39
0000
0000
0000
0000
,  // measure 40
0000
0000
0100
0000
,  // measure 41
0000
0000
0000
0000
,  // measure 42
0000
0000
1000
0000
,  // measure 43
0000
0000
0000
0000
,  // measure 44
0000
0000
0001
0000
,  // measure 45
0000
0000
0000
0000
,  // measure 46
0000
0000
0100
0000
,  // measure 47
0000
0000
0010
0000
,  // measure 48
0000
0000
1000
0000
,  // measure 49
0000
0000
0001
0000
,  // measure 50
0000
0000
0010
0000
,  // measure 51
0000
0000
0001
0000
,  // measure 52
0000
0000
1000
0000
,  // measure 53
0000
0000
0010
0000
,  // measure 54
0100
0000
0100
0000
,  // measure 55
0100
0000
0100
0000
,  // measure 56
1001
0000
0000
0000
,  // measure 57
0001
0000
0000
0000
,  // measure 58
1000
0000
0000
0000
,  // measure 59
0010
0000
0000
0000
,  // measure 60
0100
0000
0000
0000
,  // measure 61
0100
0000
0000
0000
,  // measure 62
0100
0000
0000
0000
,  // measure 63
0100
0000
0000
0000
,  // measure 64
1001
0000
0000
0000
,  // measure 65
0001
0000
0000
0000
,  // measure 66
1000
0000
0000
0000
,  // measure 67
0100
0000
0000
0000
,  // measure 68
0010
0000
0000
0000
,  // measure 69
0001
0000
0000
0000
,  // measure 70
1000
0000
0000
0000
,  // measure 71
0000
1001
0000
0000
,  // measure 72
0001
0000
0000
0000
,  // measure 73
0100
0000
0000
0000
,  // measure 74
0010
0000
0000
0000
,  // measure 75
1000
0000
0000
0000
,  // measure 76
0001
0000
0000
0000
,  // measure 77
0100
0000
0000
0000
,  // measure 78
0010
0000
0000
0000
,  // measure 79
1000
0000
0001
0000
,  // measure 80
1001
0000
0000
0000
;

//---------------dance-single - J. Frederick----------------
#NOTES:
     dance-single:
     J. Frederick:
     Easy:
     3:
     0.189,0.000,0.199,0.046,0.000: // measure 1
0000
0000
0000
0000
,  // measure 2
0000
0000
0000
0000
,  // measure 3
0000
0000
0000
0000
,  // measure 4
0000
0000
0000
0000
,  // measure 5
1000
0000
0001
0000
,  // measure 6
0100
0010
1000
0000
,  // measure 7
0001
0000
0010
0000
,  // measure 8
0100
1000
0001
0000
,  // measure 9
0100
0000
0010
0000
,  // measure 10
0100
0001
1000
0000
,  // measure 11
0100
0000
0010
0000
,  // measure 12
0001
1000
0010
0000
,  // measure 13
0100
0000
0001
0000
,  // measure 14
1000
0001
0100
0000
,  // measure 15
0010
0000
1000
0000
,  // measure 16
0001
0010
0100
0000
,  // measure 17
1000
0000
0010
0000
,  // measure 18
0100
0001
1000
0000
,  // measure 19
0100
0000
0010
0000
,  // measure 20
0001
1000
0010
0000
,  // measure 21
0010
0000
0010
0000
,  // measure 22
0010
0000
0110
0000
,  // measure 23
0000
0000
1001
0000
,  // measure 24
0000
0000
0011
0000
,  // measure 25
0000
0000
1100
0000
,  // measure 26
0000
0000
1001
0000
,  // measure 27
0000
0000
0101
0000
,  // measure 28
0000
0000
1010
0000
,  // measure 29
0000
0000
0110
0000
,  // measure 30
0000
0000
0010
0100
,  // measure 31
0000
0000
0010
1000
,  // measure 32
0000
0000
0001
0010
,  // measure 33
0000
0000
0100
0000
,  // measure 34
0000
0000
0110
0000
,  // measure 35
0000
0000
1001
0000
,  // measure 36
0000
0000
0110
0000
,  // measure 37
0000
0000
1001
0000
,  // measure 38
0001
1000
0001
0000
,  // measure 39
0100
0000
0010
1000
,  // measure 40
0001
0000
0010
0000
,  // measure 41
0100
0000
1000
0001
,  // measure 42
0100
0000
0010
0000
,  // measure 43
1000
0000
0100
1000
,  // measure 44
0001
0000
0100
0000
,  // measure 45
0001
0000
0010
0001
,  // measure 46
1000
0000
1001
0000
,  // measure 47
0001
0000
0100
0010
,  // measure 48
1000
0000
0001
0000
,  // measure 49
0010
0000
0100
0010
,  // measure 50
0001
0000
0100
0000
,  // measure 51
0010
0000
1000
0001
,  // measure 52
0100
0000
0001
0000
,  // measure 53
1000
0000
0100
0010
,  // measure 54
0001
0000
0001
0000
,  // measure 55
0001
0000
0001
0000
,  // measure 56
1001
0000
0000
0000
,  // measure 57
1010
0000
0000
0000
,  // measure 58
0101
0000
0000
0000
,  // measure 59
1001
0000
0000
0000
,  // measure 60
0011
0000
0000
0000
,  // measure 61
1100
0000
0000
0000
,  // measure 62
0110
0000
0000
0000
,  // measure 63
1001
0000
0000
0000
,  // measure 64
1000
0001
0000
0000
,  // measure 65
0100
0010
0000
0000
,  // measure 66
1000
0001
0000
0010
,  // measure 67
0100
0000
0000
0000
,  // measure 68
1100
0000
0000
0000
,  // measure 69
0101
0000
0000
0000
,  // measure 70
1010
0000
0000
0000
,  // measure 71
0011
0000
0000
0000
,  // measure 72
0020
0000
0000
0030
,  // measure 73
0002
0000
0000
0003
,  // measure 74
2000
0000
0000
3000
,  // measure 75
0020
0030
0100
0001
,  // measure 76
2000
0000
0000
3000
,  // measure 77
0002
0000
0000
0003
,  // measure 78
0100
0000
0010
0000
,  // measure 79
1000
0001
1000
1001
;

//---------------dance-single - J. Frederick----------------
#NOTES:
     dance-single:
     J. Frederick:
     Medium:
     6:
     0.313,0.000,0.130,0.038,0.000: // measure 1
0000
0000
0000
0000
,  // measure 2
0000
0000
0000
0000
,  // measure 3
0000
0000
0000
0000
,  // measure 4
0000
0000
0000
0000
,  // measure 5
1000
0001
0100
0010
,  // measure 6
1000
0001
0010
0000
,  // measure 7
0100
0010
0001
1000
,  // measure 8
0001
0100
0010
0000
,  // measure 9
0100
0001
1000
0100
,  // measure 10
0010
0100
1000
0000
,  // measure 11
0001
0100
0010
0100
,  // measure 12
0001
1000
0010
0000
,  // measure 13
0100
0001
0010
0100
,  // measure 14
1000
0000
0001
0100
0000
0000
0001
0000
,  // measure 15
0010
0001
1000
0100
,  // measure 16
1000
0000
0010
0100
0000
0000
0010
0000
,  // measure 17
1000
0001
0010
0100
,  // measure 18
1000
0000
0001
0010
0000
0000
0001
0000
,  // measure 19
0100
0000
0010
0000
1000
0000
0010
0100
,  // measure 20
0010
1000
1010
0000
,  // measure 21
0101
0000
1001
0000
,  // measure 22
0110
0000
0000
0000
0010
0000
0100
0010
,  // measure 23
0000
0000
0100
0000
1000
0000
0001
0100
,  // measure 24
0000
0000
0010
0000
1000
0000
0001
0010
,  // measure 25
0000
0000
0100
0000
1000
0000
0010
0100
,  // measure 26
0000
0000
0010
1000
0010
0000
0000
0000
,  // measure 27
0000
0000
0100
0001
0100
0000
0000
0000
,  // measure 28
0000
0000
0001
1000
0001
0000
0000
0000
,  // measure 29
0000
0000
0010
0100
0000
0110
0000
0000
,  // measure 30
0010
0100
0010
0000
0001
0000
0100
0001
,  // measure 31
0000
0000
1000
0000
0100
0000
1000
0010
,  // measure 32
0000
0000
0100
0000
0001
0000
1000
0100
,  // measure 33
0000
0000
1000
0000
0001
0000
0100
0001
,  // measure 34
0000
0000
1000
0001
1000
0000
0000
0000
,  // measure 35
0000
0000
0001
0010
0001
0000
0000
0000
,  // measure 36
0000
0000
1000
0001
1000
0000
0000
0000
,  // measure 37
0000
0000
0100
1000
0000
1100
0000
0000
,  // measure 38
1000
0100
0010
0001
,  // measure 39
0100
0010
1000
0001
,  // measure 40
0010
0000
0001
0100
,  // measure 41
0010
1000
0100
1000
,  // measure 42
0001
0000
0010
0001
,  // measure 43
0100
0010
1000
0001
,  // measure 44
0010
0000
0001
0010
,  // measure 45
0100
1000
0001
0100
,  // measure 46
0010
0000
0110
0000
,  // measure 47
0100
0000
0000
0000
0010
0000
1000
0001
,  // measure 48
0000
0010
1100
0000
,  // measure 49
0010
0000
0000
0000
0001
0000
1000
0010
,  // measure 50
0000
1000
0101
0000
,  // measure 51
0001
0000
0000
0000
0010
0000
0100
1000
,  // measure 52
0000
0001
1001
0000
,  // measure 53
1000
0000
0001
0100
0010
0000
1000
0000
,  // measure 54
1100
0000
0101
0000
,  // measure 55
1100
0000
0101
0000
,  // measure 56
0001
0000
0100
0010
0000
0000
1000
0000
,  // measure 57
0100
0000
0010
0001
0000
0000
1000
0000
,  // measure 58
0100
0000
1000
0001
0000
0000
0100
0000
,  // measure 59
0010
0000
1000
0100
0000
0000
0010
0100
,  // measure 60
0010
0000
0000
0000
0000
0000
0001
0010
,  // measure 61
0001
0000
0000
0000
0000
0000
1000
0100
,  // measure 62
1000
0000
0000
0000
0000
0000
0001
1000
,  // measure 63
0000
1001
0000
0000
1000
0001
1000
0001
,  // measure 64
1000
0000
0001
0100
0000
0000
0010
0000
,  // measure 65
1000
0000
0001
0010
0000
0000
0100
0000
,  // measure 66
1000
0000
0001
0100
0000
0000
0010
0000
,  // measure 67
1000
0000
0100
1000
0000
0000
0001
1000
,  // measure 68
0001
0000
0000
0000
0000
0000
0100
0001
,  // measure 69
0100
0000
0000
0000
0000
0000
0010
1000
,  // measure 70
0010
0000
0000
0000
0000
0000
1000
0001
,  // measure 71
0000
1001
0000
0000
1000
0001
1000
0001
,  // measure 72
0200
0000
0000
0310
,  // measure 73
2000
0000
0000
3100
,  // measure 74
0020
0000
0000
0031
,  // measure 75
2000
0000
3002
0000
,  // measure 76
0103
0000
0010
1000
0000
0000
0001
0000
,  // measure 77
0010
0000
0100
1000
0000
0000
0001
0000
,  // measure 78
0100
0000
0010
1000
0000
0000
0001
0000
,  // measure 79
1000
0000
0001
1000
0001
0000
1001
0000
;

//---------------dance-single - J. Frederick----------------
#NOTES:
     dance-single:
     J. Frederick:
     Hard:
     8:
     0.536,0.000,0.122,0.046,0.061: // measure 1
0000
0000
0000
0000
,  // measure 2
0000
0000
0000
0000
,  // measure 3
0000
0000
0000
0000
,  // measure 4
0000
0000
0000
0000
,  // measure 5
1001
0000
1000
0001
0100
0000
0100
0001
,  // measure 6
1000
1000
0100
0010
0000
0010
0100
1000
,  // measure 7
0000
0010
0100
0001
0010
0000
0001
0100
,  // measure 8
0010
0010
0100
0001
1000
0000
0001
0010
,  // measure 9
0000
0000
0100
1000
0001
0000
0100
0010
,  // measure 10
0100
0100
0010
1000
0001
0000
0010
0000
,  // measure 11
0000
0100
0010
0001
1000
0000
0001
0100
,  // measure 12
0010
1000
0001
0010
0100
0000
0010
0000
,  // measure 13
0110
0000
0010
0100
0000
0100
1000
0001
,  // measure 14
0100
0000
0100
0010
0000
0010
1000
0001
,  // measure 15
0100
0000
0100
0001
0000
0001
1000
0100
,  // measure 16
0010
0001
1000
0010
0100
0001
1000
0001
,  // measure 17
0010
0000
0100
1000
0000
1000
0001
0100
,  // measure 18
0010
0000
0010
0100
0000
0100
0001
1000
,  // measure 19
0100
0010
0001
0100
0010
1000
0100
1000
,  // measure 20
0010
0100
0001
0000
0011
0000
0000
0000
,  // measure 21
1100
0000
0110
0000
,  // measure 22
1001
1000
0001
0100
0010
0000
0100
0010
,  // measure 23
0000
0010
1000
0001
0100
0000
0100
0001
,  // measure 24
0000
1000
0100
0010
0001
0000
0001
1000
,  // measure 25
0000
1000
0100
1000
0001
0000
0100
0010
,  // measure 26
0000
0000
0100
0010
0100
0000
0010
0000
1000
0000
0000
0000
0001
0000
0010
0000
,  // measure 27
0000
0000
0100
1000
0100
0000
0010
0000
0001
0000
0000
0000
0100
0000
0010
0000
,  // measure 28
0000
0000
1000
0001
1000
0000
0001
0000
0100
0000
0000
0000
0010
0000
0100
0000
,  // measure 29
0000
0000
0001
0010
0001
0000
0010
0000
0000
0000
0011
0000
0000
0000
0010
0000
,  // measure 30
0100
1000
0001
0100
0010
0000
0100
0001
,  // measure 31
0000
1000
0010
0100
0001
0000
1000
0100
,  // measure 32
0000
0010
0001
1000
0100
0000
1000
0001
,  // measure 33
0000
0100
0001
0010
0001
0000
0100
0010
,  // measure 34
0000
0000
1000
0010
1000
0000
0010
0000
0100
0000
0000
0000
0001
0000
0010
0000
,  // measure 35
0000
0000
0100
0010
0100
0000
0010
0000
0001
0000
0000
0000
0100
0000
0001
0000
,  // measure 36
0000
0000
1000
0001
1000
0000
0001
0000
0100
0000
0000
0000
0010
0000
1000
0000
,  // measure 37
0000
0000
0100
1000
0100
0000
0010
0000
0000
0000
0110
0000
0000
0000
0010
0000
,  // measure 38
0100
1000
0001
0100
0010
0000
0100
0001
,  // measure 39
1000
0000
0001
0010
0100
1000
0001
0100
,  // measure 40
0000
0100
0001
1000
0010
0100
0001
1000
,  // measure 41
0100
0010
0001
0010
0100
0000
1000
0001
,  // measure 42
0000
0100
0010
0100
0001
1000
0100
1000
,  // measure 43
0001
0000
0100
0001
1000
0010
0100
0001
,  // measure 44
0010
0000
0100
0010
0001
0100
0010
1000
,  // measure 45
0100
1000
0010
0100
0000
0100
0010
1000
,  // measure 46
0001
0000
1000
0000
1001
0000
1000
0001
,  // measure 47
0000
0100
0010
1000
0001
0000
0010
0100
,  // measure 48
0000
1000
0001
0010
0001
0000
0100
0010
,  // measure 49
0000
1000
0100
1000
0010
0000
0100
0001
,  // measure 50
0000
1000
0100
0010
0001
0000
0100
0001
,  // measure 51
0000
1000
0010
0100
0001
0000
1000
0100
,  // measure 52
0000
1000
0001
0100
0010
1000
0001
0010
,  // measure 53
0100
1000
0001
0100
0010
0000
1000
0000
,  // measure 54
1010
0000
0101
0000
,  // measure 55
0110
0000
0000
0000
1001
1000
0001
0010
,  // measure 56
0100
0000
0010
0001
0000
0001
0010
0100
,  // measure 57
1000
0000
0010
0100
0000
0100
0001
1000
,  // measure 58
0010
0000
1000
0001
0000
0010
0100
1000
,  // measure 59
0001
0000
0000
0000
0100
0000
0010
0000
0000
0000
1000
0001
1000
0000
0001
0000
,  // measure 60
0010
0000
0000
0000
0100
0000
1000
0000
0000
0000
0001
0100
0001
0000
0100
0000
,  // measure 61
0010
0000
0000
0000
1000
0000
0100
0000
0000
0000
0010
0100
0010
0000
0100
0000
,  // measure 62
1000
0000
0000
0000
0001
0000
0100
0000
0000
0000
0010
0100
0010
0000
0100
0000
,  // measure 63
0000
0110
0000
0010
0100
0010
1000
0001
,  // measure 64
1000
0000
0001
0010
0000
0001
0100
0010
,  // measure 65
1000
0000
0100
1000
0000
0001
0100
0010
,  // measure 66
1000
0000
0001
0010
0000
0100
1000
0001
,  // measure 67
0100
0000
0000
0000
0001
0000
1000
0000
0000
0000
0100
1000
0100
0000
0010
0000
,  // measure 68
0001
0000
0000
0000
0100
0000
0010
0000
0000
0000
1000
0010
1000
0000
0010
0000
,  // measure 69
0100
0000
0000
0000
0001
0000
0010
0000
0000
0000
0100
0010
0100
0000
0010
0000
,  // measure 70
0001
0000
0000
0000
0100
0000
0010
0000
0000
0000
1000
0001
1000
0000
0001
0000
,  // measure 71
0000
1001
0000
1000
0001
0100
0010
1000
,  // measure 72
0200
0000
0301
0100
0000
1000
0001
0100
,  // measure 73
0020
0000
0031
0010
0000
1000
0001
0010
,  // measure 74
0200
0000
1300
0010
0000
0100
0001
0010
,  // measure 75
0002
0000
0103
0010
1000
0001
0010
0100
,  // measure 76
2000
0000
3010
0001
0000
0010
1000
0100
,  // measure 77
0002
0000
0103
1000
0000
0010
0100
0001
,  // measure 78
1000
0000
0001
0100
0010
1000
0001
1000
,  // measure 79
0100
0000
0010
0001
1000
0000
1001
0000
;
